  0
SECTION
  2
HEADER
  9
$ACADVER
  1
AC1014
  9
$ACADMAINTVER
 70
           0
  9
$DWGCODEPAGE
  3
ANSI_1252
  9
$INSBASE
 10
0.0
 20
0.0
 30
0.0
  9
$EXTMIN
 10
1.000000000000E+20
 20
1.000000000000E+20
 30
1.000000000000E+20
  9
$EXTMAX
 10
-1.000000000000E+20
 20
-1.000000000000E+20
 30
-1.000000000000E+20
  9
$LIMMIN
 10
0.0
 20
0.0
  9
$LIMMAX
 10
0.0
 20
0.0
  9
$ORTHOMODE
 70
           0
  9
$REGENMODE
 70
           1
  9
$FILLMODE
 70
           1
  9
$QTEXTMODE
 70
           0
  9
$MIRRTEXT
 70
           1
  9
$DRAGMODE
 70
           2
  9
$LTSCALE
 40
1.0
  9
$OSMODE
 70
           0
  9
$ATTMODE
 70
           1
  9
$TEXTSIZE
 40
0.2
  9
$TRACEWID
 40
0.05
  9
$TEXTSTYLE
  7
STANDARD
  9
$CLAYER
  8
0
  9
$CELTYPE
  6
CONTINUOUS
  9
$CECOLOR
 62
         256
  9
$CELTSCALE
 40
1.0
  9
$DELOBJ
 70
           1
  9
$DISPSILH
 70
           0
  9
$DIMSCALE
 40
1.0
  9
$DIMASZ
 40
0.18
  9
$DIMEXO
 40
0.0625
  9
$DIMDLI
 40
0.38
  9
$DIMRND
 40
0.0
  9
$DIMDLE
 40
0.0
  9
$DIMEXE
 40
0.18
  9
$DIMTP
 40
0.0
  9
$DIMTM
 40
0.0
  9
$DIMTXT
 40
0.18
  9
$DIMCEN
 40
0.09
  9
$DIMTSZ
 40
0.0
  9
$DIMTOL
 70
           0
  9
$DIMLIM
 70
           0
  9
$DIMTIH
 70
           1
  9
$DIMTOH
 70
           1
  9
$DIMSE1
 70
           0
  9
$DIMSE2
 70
           0
  9
$DIMTAD
 70
           0
  9
$DIMZIN
 70
           0
  9
$DIMBLK
  1

  9
$DIMASO
 70
           1
  9
$DIMSHO
 70
           1
  9
$DIMPOST
  1

  9
$DIMAPOST
  1

  9
$DIMALT
 70
           0
  9
$DIMALTD
 70
           2
  9
$DIMALTF
 40
25.4
  9
$DIMLFAC
 40
1.0
  9
$DIMTOFL
 70
           0
  9
$DIMTVP
 40
0.0
  9
$DIMTIX
 70
           0
  9
$DIMSOXD
 70
           0
  9
$DIMSAH
 70
           0
  9
$DIMBLK1
  1

  9
$DIMBLK2
  1

  9
$DIMSTYLE
  2
STANDARD
  9
$DIMCLRD
 70
           0
  9
$DIMCLRE
 70
           0
  9
$DIMCLRT
 70
           0
  9
$DIMTFAC
 40
1.0
  9
$DIMGAP
 40
0.09
  9
$DIMJUST
 70
           0
  9
$DIMSD1
 70
           0
  9
$DIMSD2
 70
           0
  9
$DIMTOLJ
 70
           1
  9
$DIMTZIN
 70
           0
  9
$DIMALTZ
 70
           0
  9
$DIMALTTZ
 70
           0
  9
$DIMFIT
 70
           3
  9
$DIMUPT
 70
           0
  9
$DIMUNIT
 70
           2
  9
$DIMDEC
 70
           4
  9
$DIMTDEC
 70
           4
  9
$DIMALTU
 70
           2
  9
$DIMALTTD
 70
           2
  9
$DIMTXSTY
  7
STANDARD
  9
$DIMAUNIT
 70
           0
  9
$LUNITS
 70
           2
  9
$LUPREC
 70
           4
  9
$SKETCHINC
 40
0.1
  9
$FILLETRAD
 40
0.0
  9
$AUNITS
 70
           0
  9
$AUPREC
 70
           0
  9
$MENU
  1
acad
  9
$ELEVATION
 40
0.0
  9
$PELEVATION
 40
0.0
  9
$THICKNESS
 40
0.0
  9
$LIMCHECK
 70
           0
  9
$BLIPMODE
 70
           1
  9
$CHAMFERA
 40
0.0
  9
$CHAMFERB
 40
0.0
  9
$CHAMFERC
 40
0.0
  9
$CHAMFERD
 40
0.0
  9
$SKPOLY
 70
           0
  9
$TDCREATE
 40
0.000000000
  9
$TDUPDATE
 40
0.000000000
  9
$TDINDWG
 40
0.0000000000
  9
$TDUSRTIMER
 40
0.0000000000
  9
$USRTIMER
 70
           1
  9
$ANGBASE
 50
0.0
  9
$ANGDIR
 70
           0
  9
$PDMODE
 70
           0
  9
$PDSIZE
 40
0.0
  9
$PLINEWID
 40
0.0
  9
$COORDS
 70
           0
  9
$SPLFRAME
 70
           0
  9
$SPLINETYPE
 70
           6
  9
$SPLINESEGS
 70
           8
  9
$ATTDIA
 70
           0
  9
$ATTREQ
 70
           1
  9
$HANDLING
 70
           1
  9
$HANDSEED
  5
601
  9
$SURFTAB1
 70
           6
  9
$SURFTAB2
 70
           6
  9
$SURFTYPE
 70
           6
  9
$SURFU
 70
           6
  9
$SURFV
 70
           6
  9
$UCSNAME
  2

  9
$UCSORG
 10
0.0
 20
0.0
 30
0.0
  9
$UCSXDIR
 10
1.0
 20
0.0
 30
0.0
  9
$UCSYDIR
 10
0.0
 20
1.0
 30
0.0
  9
$PUCSNAME
  2

  9
$PUCSORG
 10
0.0
 20
0.0
 30
0.0
  9
$PUCSXDIR
 10
1.0
 20
0.0
 30
0.0
  9
$PUCSYDIR
 10
0.0
 20
1.0
 30
0.0
  9
$USERI1
 70
           0
  9
$USERI2
 70
           0
  9
$USERI3
 70
           0
  9
$USERI4
 70
           0
  9
$USERI5
 70
           0
  9
$USERR1
 40
0.0
  9
$USERR2
 40
0.0
  9
$USERR3
 40
0.0
  9
$USERR4
 40
0.0
  9
$USERR5
 40
0.0
  9
$WORLDVIEW
 70
           1
  9
$SHADEDGE
 70
           3
  9
$SHADEDIF
 70
          70
  9
$TILEMODE
 70
           1
  9
$MAXACTVP
 70
          16
  9
$PINSBASE
 10
0.0
 20
0.0
 30
0.0
  9
$PLIMCHECK
 70
           0
  9
$PEXTMIN
 10
1.000000000000E+20
 20
1.000000000000E+20
 30
1.000000000000E+20
  9
$PEXTMAX
 10
-1.000000000000E+20
 20
-1.000000000000E+20
 30
-1.000000000000E+20
  9
$PLIMMIN
 10
0.0
 20
0.0
  9
$PLIMMAX
 10
12.0
 20
9.0
  9
$UNITMODE
 70
           0
  9
$VISRETAIN
 70
           0
  9
$PLINEGEN
 70
           1
  9
$PSLTSCALE
 70
           0
  9
$TREEDEPTH
 70
        3020
  9
$PICKSTYLE
 70
           1
  9
$CMLSTYLE
  2
STANDARD
  9
$CMLJUST
 70
           0
  9
$CMLSCALE
 40
1.0
  9
$PROXYGRAPHICS
 70
           0
  9
$MEASUREMENT
 70
           1
  0
ENDSEC
  0
SECTION
  2
CLASSES
  0
CLASS
  1
LWPOLYLINE
  2
AcDbPolyline
  3
"AutoCAD"
 90
        0
280
           0
281
           1
  0
CLASS
  1
IMAGE
  2
AcDbRasterImage
  3
ISM
 90
      127
280
           0
281
           1
  0
CLASS
  1
OLE2FRAME
  2
AcDbOle2Frame
  3
""
 90
        0
280
           0
281
           1
  0
CLASS
  1
HATCH
  2
AcDbHatch
  3
"ACAD_SEDONA"
 90
        0
280
           0
281
           1
  0
CLASS
  1
DICTIONARYVAR
  2
AcDbDictionaryVar
  3
"AutoCAD"
 90
        0
280
           0
281
           0
  0
CLASS
  1
RASTERVARIABLES
  2
AcDbRasterVariables
  3
ISM
 90
        0
280
           0
281
           0
  0
CLASS
  1
IMAGEDEF
  2
AcDbRasterImageDef
  3
ISM
 90
        0
280
           0
281
           0
  0
CLASS
  1
IMAGEDEF_REACTOR
  2
AcDbRasterImageDefReactor
  3
ISM
 90
        1
280
           0
281
           0
  0
CLASS
  1
IDBUFFER
  2
AcDbIdBuffer
  3
"Acad"
 90
        0
280
           0
281
           0
  0
CLASS
  1
SPATIAL_FILTER
  2
AcDbSpatialFilter
  3
"Acad"
 90
        0
280
           0
281
           0
  0
CLASS
  1
XRECORD
  2
AcDbXrecord
  3
"<Built In>"
 90
        0
280
           0
281
           0
  0
CLASS
  1
SORTENTSTABLE
  2
AcDbSortentsTable
  3
"AutoCAD"
 90
        0
280
           0
281
           0
  0
CLASS
  1
LAYER_INDEX
  2
AcDbLayerIndex
  3
"Acad"
 90
        0
280
           0
281
           0
  0
CLASS
  1
SPATIAL_INDEX
  2
AcDbSpatialIndex
  3
"Acad"
 90
        0
280
           0
281
           0
  0
CLASS
  1
OBJECT_PTR
  2
CAseDLPNTableRecord
  3
"ASE-LPNTableRecord"
 90
        1
280
           0
281
           0
  0
CLASS
  1
LAYOUT
  2
AcDbLayout
  3
"AutoCAD 2000"
 90
        1
280
           0
281
           0
  0
CLASS
  1
PLOTSETTINGS
  2
AcDbPlotSettings
  3
"AutoCAD 2000"
 90
        1
280
           0
281
           0
  0
CLASS
  1
ACDBDICTIONARYWDFLT
  2
AcDbDictionaryWithDefault
  3
"AutoCAD 2000"
 90
        1
280
           0
281
           0
  0
CLASS
  1
ACDBPLACEHOLDER
  2
AcDbPlaceHolder
  3
"AutoCAD 2000"
 90
        1
280
           0
281
           0
  0
CLASS
  1
VBA_PROJECT
  2
AcDbVbaProject
  3
"acadvba"
 90
        1
280
           0
281
           0
  0
CLASS
  1
WIPEOUT
  2
AcDbWipeout
  3
WipeOut|AutoCAD Express Tool|expresstools@autodesk.com
 90
      127
280
           0
281
           1
  0
CLASS
  1
WIPEOUTVARIABLES
  2
AcDbWipeoutVariables
  3
WipeOut|AutoCAD Express Tool|expresstools@autodesk.com
 90
        0
280
           0
281
           0
  0
CLASS
  1
RTEXT
  2
RText
  3
RText|AutoCAD Express Tool|expresstools@autodesk.com
 90
        0
280
           0
281
           1
  0
CLASS
  1
ARCALIGNEDTEXT
  2
AcDbArcAlignedText
  3
ATEXT|AutoCAD Express Tool|expresstools@autodesk.com
 90
        0
280
           0
281
           1
  0
ENDSEC
  0
SECTION
  2
TABLES
  0
TABLE
  2
VPORT
  5
7
100
AcDbSymbolTable
 70
           1
  0
VPORT
  5
15
100
AcDbSymbolTableRecord
100
AcDbViewportTableRecord
  2
*ACTIVE
 70
           0
 10
0.0
 20
0.0
 11
1.0
 21
1.0
 12
6.591288
 22
4.579184
 13
0.0
 23
0.0
 14
1.0
 24
1.0
 15
0.0
 25
0.0
 16
0.0
 26
0.0
 36
1.0
 17
0.0
 27
0.0
 37
0.0
 40
9.158369
 41
0.688564
 42
50.0
 43
0.0
 44
0.0
 50
0.0
 51
0.0
 71
           0
 72
         100
 73
           1
 74
           1
 75
           0
 76
           0
 77
           0
 78
           0
  0
ENDTAB
  0
TABLE
  2
LTYPE
  5
4
100
AcDbSymbolTable
 70
          10
  0
LTYPE
  5
11
100
AcDbSymbolTableRecord
100
AcDbLinetypeTableRecord
  2
BYBLOCK
 70
          64
  3

 72
          65
 73
           0
 40
0.0
  0
LTYPE
  5
12
100
AcDbSymbolTableRecord
100
AcDbLinetypeTableRecord
  2
BYLAYER
 70
          64
  3

 72
          65
 73
           0
 40
0.0
  0
LTYPE
  5
13
100
AcDbSymbolTableRecord
100
AcDbLinetypeTableRecord
  2
CONTINUOUS
 70
          64
  3
Solid line
 72
          65
 73
           0
 40
0.0
  0
LTYPE
  5
1D
100
AcDbSymbolTableRecord
100
AcDbLinetypeTableRecord
  2
DASHED
 70
          64
  3
Dashed
 72
          65
 73
           2
 40
15.0
 49
12.0
 74
           0
 49
-3.0
 74
           0
  0
LTYPE
  5
1E
100
AcDbSymbolTableRecord
100
AcDbLinetypeTableRecord
  2
DOTTED
 70
          64
  3
Dotted
 72
          65
 73
           2
 40
3.5
 49
0.5
 74
           0
 49
-3.0
 74
           0
  0
LTYPE
  5
1F
100
AcDbSymbolTableRecord
100
AcDbLinetypeTableRecord
  2
DOT_CENTER
 70
          64
  3
Dot_Center
 72
          65
 73
           4
 40
2.0
 49
1.25
 74
           0
 49
-0.25
 74
           0
 49
0.25
 74
           0
 49
-0.25
 74
           0
  0
LTYPE
  5
20
100
AcDbSymbolTableRecord
100
AcDbLinetypeTableRecord
  2
LONG_DASHED
 70
          64
  3
Long_Dashed
 72
          65
 73
           2
 40
2.0
 49
1.5
 74
           0
 49
-0.5
 74
           0
  0
LTYPE
  5
21
100
AcDbSymbolTableRecord
100
AcDbLinetypeTableRecord
  2
DASH_CENTER
 70
          64
  3
Dash_Center
 72
          65
 73
           4
 40
36.0
 49
24.0
 74
           0
 49
-3.0
 74
           0
 49
6.0
 74
           0
 49
-3.0
 74
           0
  0
LTYPE
  5
22
100
AcDbSymbolTableRecord
100
AcDbLinetypeTableRecord
  2
PHANTOM
 70
          64
  3
Phantom
 72
          65
 73
           6
 40
2.5
 49
1.25
 74
           0
 49
-0.25
 74
           0
 49
0.25
 74
           0
 49
-0.25
 74
           0
 49
0.25
 74
           0
 49
-0.25
 74
           0
  0
LTYPE
  5
23
100
AcDbSymbolTableRecord
100
AcDbLinetypeTableRecord
  2
CENTER_DASH_DASH
 70
          64
  3
Center_Dash_Dash
 72
          65
 73
           6
 40
22.0
 49
12.0
 74
           0
 49
-3.0
 74
           0
 49
0.5
 74
           0
 49
-3.0
 74
           0
 49
0.5
 74
           0
 49
-3.0
 74
           0
  0
ENDTAB
  0
TABLE
  2
LAYER
  5
2
100
AcDbSymbolTable
 70
           2
  0
LAYER
  5
14
100
AcDbSymbolTableRecord
100
AcDbLayerTableRecord
  2
0
 70
           0
 62
           7
  6
CONTINUOUS
  0
LAYER
  5
24
100
AcDbSymbolTableRecord
100
AcDbLayerTableRecord
  2
1
 70
           0
 62
           7
  6
CONTINUOUS
  0
ENDTAB
  0
TABLE
  2
STYLE
  5
3
100
AcDbSymbolTable
 70
           5
  0
STYLE
  5
17
100
AcDbSymbolTableRecord
100
AcDbTextStyleTableRecord
  2
STANDARD
 70
           0
 40
0.0
 41
1.0
 50
0.0
 71
           0
 42
0.0
  3
txt
  4

  0
STYLE
  5
194
100
AcDbSymbolTableRecord
100
AcDbTextStyleTableRecord
  2
CONVERTER_1
 70
           0
 40
0.0
 41
0.665
 50
0.0
 71
           0
 42
0.0
  3
simplex.shx
  4

  0
STYLE
  5
1AD
100
AcDbSymbolTableRecord
100
AcDbTextStyleTableRecord
  2
CONVERTER_2
 70
           0
 40
0.0
 41
1.357142857143
 50
0.0
 71
           0
 42
0.0
  3
simplex.shx
  4

  0
STYLE
  5
4E1
100
AcDbSymbolTableRecord
100
AcDbTextStyleTableRecord
  2
CONVERTER_3
 70
           0
 40
0.0
 41
0.95
 50
0.0
 71
           0
 42
0.0
  3
complex.shx
  4

  0
STYLE
  5
4E3
100
AcDbSymbolTableRecord
100
AcDbTextStyleTableRecord
  2
CONVERTER_4
 70
           0
 40
0.0
 41
0.608
 50
0.0
 71
           0
 42
0.0
  3
simplex.shx
  4

  0
ENDTAB
  0
TABLE
  2
VIEW
  5
5
100
AcDbSymbolTable
 70
           0
  0
ENDTAB
  0
TABLE
  2
UCS
  5
6
100
AcDbSymbolTable
 70
           0
  0
ENDTAB
  0
TABLE
  2
APPID
  5
8
100
AcDbSymbolTable
 70
           1
  0
APPID
  5
16
100
AcDbSymbolTableRecord
100
AcDbRegAppTableRecord
  2
ACAD
 70
           0
  0
ENDTAB
  0
TABLE
  2
DIMSTYLE
  5
9
100
AcDbSymbolTable
 70
          23
  0
DIMSTYLE
105
18
100
AcDbSymbolTableRecord
100
AcDbDimStyleTableRecord
  2
STANDARD
 70
           0
  3

  4

  5

  6

  7

 40
1.0
 41
0.18
 42
0.0625
 43
0.38
 44
0.18
 45
0.0
 46
0.0
 47
0.0
 48
0.0
 71
           0
 72
           0
 73
           1
 74
           1
 75
           0
 76
           0
 77
           0
 78
           0
140
0.18
141
0.09
142
0.0
143
25.4
144
1.0
145
0.0
146
1.0
147
0.09
170
           0
171
           2
172
           0
173
           0
174
           0
175
           0
176
           0
177
           0
178
           0
270
           2
271
           4
272
           4
273
           2
274
           2
275
           0
280
           0
281
           0
282
           0
283
           1
284
           0
285
           0
286
           0
287
           0
288
           0
340
17
  0
DIMSTYLE
105
1B0
100
AcDbSymbolTableRecord
100
AcDbDimStyleTableRecord
  2
ME10_DIM_0
 70
           0
  3

  4

  5

  6

  7

 40
1.0
 41
83.333333333333
 42
0.0
 43
0.38
 44
66.666666666667
 45
0.0
 46
0.0
 47
0.0
 48
0.0
 71
           0
 72
           0
 73
           0
 74
           0
 75
           0
 76
           0
 77
           1
 78
           8
140
83.333333333333
141
0.09
142
0.0
143
25.4
144
1.0
145
0.0
146
1.0
147
0.625
170
           0
171
           2
172
           0
173
           1
174
           0
175
           0
176
           2
177
           2
178
           1
270
           2
271
           2
272
           4
273
           2
274
           2
275
           0
280
           0
281
           0
282
           0
283
           1
284
           0
285
           0
286
           0
287
           3
288
           0
340
17
  0
DIMSTYLE
105
1BB
100
AcDbSymbolTableRecord
100
AcDbDimStyleTableRecord
  2
ME10_DIM_1
 70
           0
  3

  4

  5

  6

  7

 40
1.0
 41
83.333333333333
 42
0.0
 43
0.38
 44
66.666666666667
 45
0.0
 46
0.0
 47
0.0
 48
0.0
 71
           0
 72
           0
 73
           0
 74
           0
 75
           0
 76
           0
 77
           1
 78
           8
140
83.333333333333
141
0.09
142
0.0
143
25.4
144
1.0
145
0.0
146
1.0
147
0.625
170
           0
171
           2
172
           0
173
           1
174
           0
175
           0
176
           2
177
           2
178
           1
270
           2
271
           2
272
           4
273
           2
274
           2
275
           0
280
           0
281
           0
282
           0
283
           1
284
           0
285
           0
286
           0
287
           3
288
           0
340
17
  0
DIMSTYLE
105
1C6
100
AcDbSymbolTableRecord
100
AcDbDimStyleTableRecord
  2
ME10_DIM_2
 70
           0
  3

  4

  5

  6

  7

 40
1.0
 41
83.333333333333
 42
0.0
 43
0.38
 44
66.666666666667
 45
0.0
 46
0.0
 47
0.0
 48
0.0
 71
           0
 72
           0
 73
           0
 74
           0
 75
           0
 76
           0
 77
           1
 78
           8
140
83.333333333333
141
0.09
142
0.0
143
25.4
144
1.0
145
0.0
146
1.0
147
0.625
170
           0
171
           2
172
           0
173
           1
174
           0
175
           0
176
           2
177
           2
178
           1
270
           2
271
           2
272
           4
273
           2
274
           2
275
           0
280
           0
281
           0
282
           0
283
           1
284
           0
285
           0
286
           0
287
           3
288
           0
340
17
  0
DIMSTYLE
105
1D1
100
AcDbSymbolTableRecord
100
AcDbDimStyleTableRecord
  2
ME10_DIM_3
 70
           0
  3

  4

  5

  6

  7

 40
1.0
 41
83.333333333333
 42
0.0
 43
0.38
 44
66.666666666667
 45
0.0
 46
0.0
 47
0.0
 48
0.0
 71
           0
 72
           0
 73
           0
 74
           0
 75
           0
 76
           0
 77
           1
 78
           8
140
83.333333333333
141
0.09
142
0.0
143
25.4
144
1.0
145
0.0
146
1.0
147
0.625
170
           0
171
           2
172
           0
173
           1
174
           0
175
           0
176
           2
177
           2
178
           1
270
           2
271
           2
272
           4
273
           2
274
           2
275
           0
280
           0
281
           0
282
           0
283
           1
284
           0
285
           0
286
           0
287
           3
288
           0
340
17
  0
DIMSTYLE
105
1DC
100
AcDbSymbolTableRecord
100
AcDbDimStyleTableRecord
  2
ME10_DIM_4
 70
           0
  3

  4

  5

  6

  7

 40
1.0
 41
83.333333333333
 42
0.0
 43
0.38
 44
66.666666666667
 45
0.0
 46
0.0
 47
0.0
 48
0.0
 71
           0
 72
           0
 73
           0
 74
           0
 75
           0
 76
           0
 77
           1
 78
           8
140
83.333333333333
141
0.09
142
0.0
143
25.4
144
1.0
145
0.0
146
1.0
147
0.625
170
           0
171
           2
172
           0
173
           1
174
           0
175
           0
176
           2
177
           2
178
           1
270
           2
271
           2
272
           4
273
           2
274
           2
275
           0
280
           0
281
           0
282
           0
283
           1
284
           0
285
           0
286
           0
287
           3
288
           0
340
17
  0
DIMSTYLE
105
1E9
100
AcDbSymbolTableRecord
100
AcDbDimStyleTableRecord
  2
ME10_DIM_5
 70
           0
  3

  4

  5

  6

  7

 40
1.0
 41
83.333333333333
 42
0.0
 43
0.38
 44
66.666666666667
 45
0.0
 46
0.0
 47
0.0
 48
0.0
 71
           0
 72
           0
 73
           0
 74
           0
 75
           0
 76
           0
 77
           1
 78
           8
140
83.333333333333
141
0.09
142
0.0
143
25.4
144
1.0
145
0.0
146
1.0
147
0.625
170
           0
171
           2
172
           0
173
           1
174
           0
175
           0
176
           2
177
           2
178
           1
270
           2
271
           2
272
           4
273
           2
274
           2
275
           0
280
           0
281
           0
282
           0
283
           1
284
           0
285
           0
286
           0
287
           3
288
           0
340
17
  0
DIMSTYLE
105
1F6
100
AcDbSymbolTableRecord
100
AcDbDimStyleTableRecord
  2
ME10_DIM_6
 70
           0
  3

  4

  5

  6

  7

 40
1.0
 41
83.333333333333
 42
0.0
 43
0.38
 44
66.666666666667
 45
0.0
 46
0.0
 47
0.0
 48
0.0
 71
           0
 72
           0
 73
           0
 74
           0
 75
           0
 76
           0
 77
           1
 78
           8
140
83.333333333333
141
0.09
142
0.0
143
25.4
144
1.0
145
0.0
146
1.0
147
0.625
170
           0
171
           2
172
           0
173
           1
174
           0
175
           0
176
           2
177
           2
178
           1
270
           2
271
           2
272
           4
273
           2
274
           2
275
           0
280
           0
281
           0
282
           0
283
           1
284
           0
285
           0
286
           0
287
           3
288
           0
340
17
  0
DIMSTYLE
105
201
100
AcDbSymbolTableRecord
100
AcDbDimStyleTableRecord
  2
ME10_DIM_7
 70
           0
  3

  4

  5

  6

  7

 40
1.0
 41
83.333333333333
 42
0.0
 43
0.38
 44
66.666666666667
 45
0.0
 46
0.0
 47
0.0
 48
0.0
 71
           0
 72
           0
 73
           0
 74
           0
 75
           0
 76
           0
 77
           1
 78
           8
140
83.333333333333
141
0.09
142
0.0
143
25.4
144
1.0
145
0.0
146
1.0
147
0.625
170
           0
171
           2
172
           0
173
           1
174
           0
175
           0
176
           2
177
           2
178
           1
270
           2
271
           2
272
           4
273
           2
274
           2
275
           0
280
           0
281
           0
282
           0
283
           1
284
           0
285
           0
286
           0
287
           3
288
           0
340
17
  0
DIMSTYLE
105
20C
100
AcDbSymbolTableRecord
100
AcDbDimStyleTableRecord
  2
ME10_DIM_8
 70
           0
  3

  4

  5

  6

  7

 40
1.0
 41
83.333333333333
 42
0.0
 43
0.38
 44
66.666666666667
 45
0.0
 46
0.0
 47
0.0
 48
0.0
 71
           0
 72
           0
 73
           0
 74
           0
 75
           0
 76
           0
 77
           1
 78
           8
140
83.333333333333
141
0.09
142
0.0
143
25.4
144
1.0
145
0.0
146
1.0
147
0.625
170
           0
171
           2
172
           0
173
           1
174
           0
175
           0
176
           2
177
           2
178
           1
270
           2
271
           2
272
           4
273
           2
274
           2
275
           0
280
           0
281
           0
282
           0
283
           1
284
           0
285
           0
286
           0
287
           3
288
           0
340
17
  0
DIMSTYLE
105
219
100
AcDbSymbolTableRecord
100
AcDbDimStyleTableRecord
  2
ME10_DIM_9
 70
           0
  3

  4

  5

  6

  7

 40
1.0
 41
83.333333333333
 42
0.0
 43
0.38
 44
66.666666666667
 45
0.0
 46
0.0
 47
0.0
 48
0.0
 71
           0
 72
           0
 73
           0
 74
           0
 75
           0
 76
           0
 77
           1
 78
           8
140
83.333333333333
141
0.09
142
0.0
143
25.4
144
1.0
145
0.0
146
1.0
147
0.625
170
           0
171
           2
172
           0
173
           1
174
           0
175
           0
176
           2
177
           2
178
           1
270
           2
271
           2
272
           4
273
           2
274
           2
275
           0
280
           0
281
           0
282
           0
283
           1
284
           0
285
           0
286
           0
287
           3
288
           0
340
17
  0
DIMSTYLE
105
225
100
AcDbSymbolTableRecord
100
AcDbDimStyleTableRecord
  2
ME10_DIM_10
 70
           0
  3

  4

  5

  6

  7

 40
1.0
 41
83.333333333333
 42
0.0
 43
0.38
 44
66.666666666667
 45
0.0
 46
0.0
 47
0.0
 48
0.0
 71
           0
 72
           0
 73
           0
 74
           0
 75
           0
 76
           0
 77
           1
 78
           8
140
83.333333333333
141
0.09
142
0.0
143
25.4
144
1.0
145
0.0
146
1.0
147
0.625
170
           0
171
           2
172
           0
173
           1
174
           0
175
           0
176
           2
177
           2
178
           1
270
           2
271
           2
272
           4
273
           2
274
           2
275
           0
280
           0
281
           0
282
           0
283
           1
284
           0
285
           0
286
           0
287
           3
288
           0
340
17
  0
DIMSTYLE
105
230
100
AcDbSymbolTableRecord
100
AcDbDimStyleTableRecord
  2
ME10_DIM_11
 70
           0
  3

  4

  5

  6

  7

 40
1.0
 41
83.333333333333
 42
0.0
 43
0.38
 44
66.666666666667
 45
0.0
 46
0.0
 47
0.0
 48
0.0
 71
           0
 72
           0
 73
           0
 74
           0
 75
           0
 76
           0
 77
           1
 78
           8
140
83.333333333333
141
0.09
142
0.0
143
25.4
144
1.0
145
0.0
146
1.0
147
0.625
170
           0
171
           2
172
           0
173
           1
174
           0
175
           0
176
           2
177
           2
178
           1
270
           2
271
           2
272
           4
273
           2
274
           2
275
           0
280
           0
281
           0
282
           0
283
           1
284
           0
285
           0
286
           0
287
           3
288
           0
340
17
  0
DIMSTYLE
105
23B
100
AcDbSymbolTableRecord
100
AcDbDimStyleTableRecord
  2
ME10_DIM_12
 70
           0
  3

  4

  5

  6

  7

 40
1.0
 41
83.333333333333
 42
0.0
 43
0.38
 44
66.666666666667
 45
0.0
 46
0.0
 47
0.0
 48
0.0
 71
           0
 72
           0
 73
           0
 74
           0
 75
           0
 76
           0
 77
           1
 78
           8
140
83.333333333333
141
0.09
142
0.0
143
25.4
144
1.0
145
0.0
146
1.0
147
0.625
170
           0
171
           2
172
           0
173
           1
174
           0
175
           0
176
           2
177
           2
178
           1
270
           2
271
           2
272
           4
273
           2
274
           2
275
           0
280
           0
281
           0
282
           0
283
           1
284
           0
285
           0
286
           0
287
           3
288
           0
340
17
  0
DIMSTYLE
105
246
100
AcDbSymbolTableRecord
100
AcDbDimStyleTableRecord
  2
ME10_DIM_13
 70
           0
  3

  4

  5

  6

  7

 40
1.0
 41
83.333333333333
 42
0.0
 43
0.38
 44
66.666666666667
 45
0.0
 46
0.0
 47
0.0
 48
0.0
 71
           0
 72
           0
 73
           0
 74
           0
 75
           0
 76
           0
 77
           1
 78
           8
140
83.333333333333
141
0.09
142
0.0
143
25.4
144
1.0
145
0.0
146
1.0
147
0.625
170
           0
171
           2
172
           0
173
           1
174
           0
175
           0
176
           2
177
           2
178
           1
270
           2
271
           2
272
           4
273
           2
274
           2
275
           0
280
           0
281
           0
282
           0
283
           1
284
           0
285
           0
286
           0
287
           3
288
           0
340
17
  0
DIMSTYLE
105
30B
100
AcDbSymbolTableRecord
100
AcDbDimStyleTableRecord
  2
ME10_DIM_14
 70
           0
  3

  4

  5

  6

  7

 40
1.0
 41
83.333333333333
 42
0.0
 43
0.38
 44
66.666666666667
 45
0.0
 46
0.0
 47
0.0
 48
0.0
 71
           0
 72
           0
 73
           0
 74
           0
 75
           0
 76
           0
 77
           1
 78
           8
140
83.333333333333
141
0.09
142
0.0
143
25.4
144
1.0
145
0.0
146
1.0
147
0.625
170
           0
171
           2
172
           0
173
           1
174
           0
175
           0
176
           2
177
           2
178
           1
270
           2
271
           2
272
           4
273
           2
274
           2
275
           0
280
           0
281
           0
282
           0
283
           1
284
           0
285
           0
286
           0
287
           3
288
           0
340
17
  0
DIMSTYLE
105
316
100
AcDbSymbolTableRecord
100
AcDbDimStyleTableRecord
  2
ME10_DIM_15
 70
           0
  3

  4

  5

  6

  7

 40
1.0
 41
83.333333333333
 42
0.0
 43
0.38
 44
66.666666666667
 45
0.0
 46
0.0
 47
0.0
 48
0.0
 71
           0
 72
           0
 73
           0
 74
           0
 75
           0
 76
           0
 77
           1
 78
           8
140
83.333333333333
141
0.09
142
0.0
143
25.4
144
1.0
145
0.0
146
1.0
147
0.625
170
           0
171
           2
172
           0
173
           1
174
           0
175
           0
176
           2
177
           2
178
           1
270
           2
271
           2
272
           4
273
           2
274
           2
275
           0
280
           0
281
           0
282
           0
283
           1
284
           0
285
           0
286
           0
287
           3
288
           0
340
17
  0
DIMSTYLE
105
323
100
AcDbSymbolTableRecord
100
AcDbDimStyleTableRecord
  2
ME10_DIM_16
 70
           0
  3

  4

  5

  6

  7

 40
1.0
 41
83.333333333333
 42
0.0
 43
0.38
 44
66.666666666667
 45
0.0
 46
0.0
 47
0.0
 48
0.0
 71
           0
 72
           0
 73
           0
 74
           0
 75
           0
 76
           0
 77
           1
 78
           8
140
83.333333333333
141
0.09
142
0.0
143
25.4
144
1.0
145
0.0
146
1.0
147
0.625
170
           0
171
           2
172
           0
173
           1
174
           0
175
           0
176
           2
177
           2
178
           1
270
           2
271
           2
272
           4
273
           2
274
           2
275
           0
280
           0
281
           0
282
           0
283
           1
284
           0
285
           0
286
           0
287
           3
288
           0
340
17
  0
DIMSTYLE
105
330
100
AcDbSymbolTableRecord
100
AcDbDimStyleTableRecord
  2
ME10_DIM_17
 70
           0
  3

  4

  5

  6

  7

 40
1.0
 41
83.333333333333
 42
0.0
 43
0.38
 44
66.666666666667
 45
0.0
 46
0.0
 47
0.0
 48
0.0
 71
           0
 72
           0
 73
           0
 74
           0
 75
           0
 76
           0
 77
           1
 78
           8
140
83.333333333333
141
0.09
142
0.0
143
25.4
144
1.0
145
0.0
146
1.0
147
0.625
170
           0
171
           2
172
           0
173
           1
174
           0
175
           0
176
           2
177
           2
178
           1
270
           2
271
           2
272
           4
273
           2
274
           2
275
           0
280
           0
281
           0
282
           0
283
           1
284
           0
285
           0
286
           0
287
           3
288
           0
340
17
  0
DIMSTYLE
105
33D
100
AcDbSymbolTableRecord
100
AcDbDimStyleTableRecord
  2
ME10_DIM_18
 70
           0
  3

  4

  5

  6

  7

 40
1.0
 41
83.333333333333
 42
0.0
 43
0.38
 44
66.666666666667
 45
0.0
 46
0.0
 47
0.0
 48
0.0
 71
           0
 72
           0
 73
           0
 74
           0
 75
           0
 76
           0
 77
           1
 78
           8
140
83.333333333333
141
0.09
142
0.0
143
25.4
144
1.0
145
0.0
146
1.0
147
0.625
170
           0
171
           2
172
           0
173
           1
174
           0
175
           0
176
           2
177
           2
178
           1
270
           2
271
           2
272
           4
273
           2
274
           2
275
           0
280
           0
281
           0
282
           0
283
           1
284
           0
285
           0
286
           0
287
           3
288
           0
340
17
  0
DIMSTYLE
105
47B
100
AcDbSymbolTableRecord
100
AcDbDimStyleTableRecord
  2
ME10_DIM_19
 70
           0
  3

  4

  5

  6

  7

 40
1.0
 41
83.333333333333
 42
0.0
 43
0.38
 44
66.666666666667
 45
0.0
 46
0.0
 47
0.0
 48
0.0
 71
           0
 72
           0
 73
           0
 74
           0
 75
           0
 76
           0
 77
           1
 78
           8
140
83.333333333333
141
0.09
142
0.0
143
25.4
144
1.0
145
0.0
146
1.0
147
0.625
170
           0
171
           2
172
           0
173
           1
174
           0
175
           0
176
           2
177
           2
178
           1
270
           2
271
           2
272
           4
273
           2
274
           2
275
           0
280
           0
281
           0
282
           0
283
           1
284
           0
285
           0
286
           0
287
           3
288
           0
340
17
  0
DIMSTYLE
105
488
100
AcDbSymbolTableRecord
100
AcDbDimStyleTableRecord
  2
ME10_DIM_20
 70
           0
  3

  4

  5

  6

  7

 40
1.0
 41
83.333333333333
 42
0.0
 43
0.38
 44
66.666666666667
 45
0.0
 46
0.0
 47
0.0
 48
0.0
 71
           0
 72
           0
 73
           0
 74
           0
 75
           0
 76
           0
 77
           1
 78
           8
140
83.333333333333
141
0.09
142
0.0
143
25.4
144
1.0
145
0.0
146
1.0
147
0.625
170
           0
171
           2
172
           0
173
           1
174
           0
175
           0
176
           2
177
           2
178
           1
270
           2
271
           2
272
           4
273
           2
274
           2
275
           0
280
           0
281
           0
282
           0
283
           1
284
           0
285
           0
286
           0
287
           3
288
           0
340
17
  0
DIMSTYLE
105
49F
100
AcDbSymbolTableRecord
100
AcDbDimStyleTableRecord
  2
ME10_DIM_21
 70
           0
  3

  4

  5

  6

  7

 40
1.0
 41
83.333333333333
 42
0.0
 43
0.38
 44
66.666666666667
 45
0.0
 46
0.0
 47
0.0
 48
0.0
 71
           0
 72
           0
 73
           0
 74
           0
 75
           0
 76
           0
 77
           1
 78
           8
140
83.333333333333
141
0.09
142
0.0
143
25.4
144
1.0
145
0.0
146
1.0
147
0.625
170
           0
171
           2
172
           0
173
           1
174
           0
175
           0
176
           2
177
           2
178
           1
270
           2
271
           2
272
           4
273
           2
274
           2
275
           0
280
           0
281
           0
282
           0
283
           1
284
           0
285
           0
286
           0
287
           3
288
           0
340
17
  0
ENDTAB
  0
TABLE
  2
BLOCK_RECORD
  5
1
100
AcDbSymbolTable
 70
          55
  0
BLOCK_RECORD
  5
A
100
AcDbSymbolTableRecord
100
AcDbBlockTableRecord
  2
*MODEL_SPACE
  0
BLOCK_RECORD
  5
B
100
AcDbSymbolTableRecord
100
AcDbBlockTableRecord
  2
*PAPER_SPACE
  0
BLOCK_RECORD
  5
25
100
AcDbSymbolTableRecord
100
AcDbBlockTableRecord
  2
BREMSL_FTHEBEL_VA
  0
BLOCK_RECORD
  5
27
100
AcDbSymbolTableRecord
100
AcDbBlockTableRecord
  2
_SEITENTEIL_UNTEN_VA__1
  0
BLOCK_RECORD
  5
2A
100
AcDbSymbolTableRecord
100
AcDbBlockTableRecord
  2
_VORDERANSICHT
  0
BLOCK_RECORD
  5
2D
100
AcDbSymbolTableRecord
100
AcDbBlockTableRecord
  2
8300079
  0
BLOCK_RECORD
  5
30
100
AcDbSymbolTableRecord
100
AcDbBlockTableRecord
  2
GETRIEBEMOTOR_SA
  0
BLOCK_RECORD
  5
32
100
AcDbSymbolTableRecord
100
AcDbBlockTableRecord
  2
SEITENTEILPROFIL_UNTEN_VA
  0
BLOCK_RECORD
  5
34
100
AcDbSymbolTableRecord
100
AcDbBlockTableRecord
  2
_SEITENTEIL_UNTEN_VA__2
  0
BLOCK_RECORD
  5
37
100
AcDbSymbolTableRecord
100
AcDbBlockTableRecord
  2
GETRIEBEMOTOR_VA
  0
BLOCK_RECORD
  5
39
100
AcDbSymbolTableRecord
100
AcDbBlockTableRecord
  2
ANTRIEB_SA
  0
BLOCK_RECORD
  5
3E
100
AcDbSymbolTableRecord
100
AcDbBlockTableRecord
  2
_SCHALTKASTEN_VA__3
  0
BLOCK_RECORD
  5
40
100
AcDbSymbolTableRecord
100
AcDbBlockTableRecord
  2
8300091
  0
BLOCK_RECORD
  5
43
100
AcDbSymbolTableRecord
100
AcDbBlockTableRecord
  2
_SCHALTKASTEN_VA__4
  0
BLOCK_RECORD
  5
46
100
AcDbSymbolTableRecord
100
AcDbBlockTableRecord
  2
MAUER_SA
  0
BLOCK_RECORD
  5
48
100
AcDbSymbolTableRecord
100
AcDbBlockTableRecord
  2
STURZABDICHTUNG_SA
  0
BLOCK_RECORD
  5
4B
100
AcDbSymbolTableRecord
100
AcDbBlockTableRecord
  2
VERBINDUNGSPROFIL_DS
  0
BLOCK_RECORD
  5
4D
100
AcDbSymbolTableRecord
100
AcDbBlockTableRecord
  2
GETRIEBE_DS
  0
BLOCK_RECORD
  5
4F
100
AcDbSymbolTableRecord
100
AcDbBlockTableRecord
  2
E_MOTOR_DS
  0
BLOCK_RECORD
  5
52
100
AcDbSymbolTableRecord
100
AcDbBlockTableRecord
  2
_MOTOR_DS
  0
BLOCK_RECORD
  5
55
100
AcDbSymbolTableRecord
100
AcDbBlockTableRecord
  2
_ANTRIEB_DS
  0
BLOCK_RECORD
  5
58
100
AcDbSymbolTableRecord
100
AcDbBlockTableRecord
  2
SEITENPROFIL_DS
  0
BLOCK_RECORD
  5
5A
100
AcDbSymbolTableRecord
100
AcDbBlockTableRecord
  2
_SEITENTEILE_DS
  0
BLOCK_RECORD
  5
5D
100
AcDbSymbolTableRecord
100
AcDbBlockTableRecord
  2
MAUER
  0
BLOCK_RECORD
  5
5F
100
AcDbSymbolTableRecord
100
AcDbBlockTableRecord
  2
DRAUFSICHT_PRINZIPZG
  0
BLOCK_RECORD
  5
65
100
AcDbSymbolTableRecord
100
AcDbBlockTableRecord
  2
_TABELLE
  0
BLOCK_RECORD
  5
67
100
AcDbSymbolTableRecord
100
AcDbBlockTableRecord
  2
_RAHMEN
  0
BLOCK_RECORD
  5
69
100
AcDbSymbolTableRecord
100
AcDbBlockTableRecord
  2
_ZEICHNUNGSNUMMER
  0
BLOCK_RECORD
  5
6B
100
AcDbSymbolTableRecord
100
AcDbBlockTableRecord
  2
__BERSCHRIFT
  0
BLOCK_RECORD
  5
6D
100
AcDbSymbolTableRecord
100
AcDbBlockTableRecord
  2
VORLAGE__5
  0
BLOCK_RECORD
  5
73
100
AcDbSymbolTableRecord
100
AcDbBlockTableRecord
  2
_LOGO
  0
BLOCK_RECORD
  5
75
100
AcDbSymbolTableRecord
100
AcDbBlockTableRecord
  2
VORLAGE__6
  0
BLOCK_RECORD
  5
78
100
AcDbSymbolTableRecord
100
AcDbBlockTableRecord
  2
8300R0001
  0
BLOCK_RECORD
  5
7B
100
AcDbSymbolTableRecord
100
AcDbBlockTableRecord
  2
ENDSCHALTER
  0
BLOCK_RECORD
  5
7D
100
AcDbSymbolTableRecord
100
AcDbBlockTableRecord
  2
_1
  0
BLOCK_RECORD
  5
1A4
100
AcDbSymbolTableRecord
100
AcDbBlockTableRecord
  2
*D33
  0
BLOCK_RECORD
  5
1B2
100
AcDbSymbolTableRecord
100
AcDbBlockTableRecord
  2
*D34
  0
BLOCK_RECORD
  5
1BD
100
AcDbSymbolTableRecord
100
AcDbBlockTableRecord
  2
*D35
  0
BLOCK_RECORD
  5
1C8
100
AcDbSymbolTableRecord
100
AcDbBlockTableRecord
  2
*D36
  0
BLOCK_RECORD
  5
1D3
100
AcDbSymbolTableRecord
100
AcDbBlockTableRecord
  2
*D37
  0
BLOCK_RECORD
  5
1DE
100
AcDbSymbolTableRecord
100
AcDbBlockTableRecord
  2
*D38
  0
BLOCK_RECORD
  5
1EB
100
AcDbSymbolTableRecord
100
AcDbBlockTableRecord
  2
*D39
  0
BLOCK_RECORD
  5
1F8
100
AcDbSymbolTableRecord
100
AcDbBlockTableRecord
  2
*D40
  0
BLOCK_RECORD
  5
203
100
AcDbSymbolTableRecord
100
AcDbBlockTableRecord
  2
*D41
  0
BLOCK_RECORD
  5
20E
100
AcDbSymbolTableRecord
100
AcDbBlockTableRecord
  2
*D42
  0
BLOCK_RECORD
  5
21B
100
AcDbSymbolTableRecord
100
AcDbBlockTableRecord
  2
*D43
  0
BLOCK_RECORD
  5
227
100
AcDbSymbolTableRecord
100
AcDbBlockTableRecord
  2
*D44
  0
BLOCK_RECORD
  5
232
100
AcDbSymbolTableRecord
100
AcDbBlockTableRecord
  2
*D45
  0
BLOCK_RECORD
  5
23D
100
AcDbSymbolTableRecord
100
AcDbBlockTableRecord
  2
*D46
  0
BLOCK_RECORD
  5
302
100
AcDbSymbolTableRecord
100
AcDbBlockTableRecord
  2
*D47
  0
BLOCK_RECORD
  5
30D
100
AcDbSymbolTableRecord
100
AcDbBlockTableRecord
  2
*D48
  0
BLOCK_RECORD
  5
318
100
AcDbSymbolTableRecord
100
AcDbBlockTableRecord
  2
*D49
  0
BLOCK_RECORD
  5
325
100
AcDbSymbolTableRecord
100
AcDbBlockTableRecord
  2
*D50
  0
BLOCK_RECORD
  5
332
100
AcDbSymbolTableRecord
100
AcDbBlockTableRecord
  2
*D51
  0
BLOCK_RECORD
  5
470
100
AcDbSymbolTableRecord
100
AcDbBlockTableRecord
  2
*D52
  0
BLOCK_RECORD
  5
47D
100
AcDbSymbolTableRecord
100
AcDbBlockTableRecord
  2
*D53
  0
BLOCK_RECORD
  5
496
100
AcDbSymbolTableRecord
100
AcDbBlockTableRecord
  2
*D54
  0
ENDTAB
  0
ENDSEC
  0
SECTION
  2
BLOCKS
  0
BLOCK
  5
D
100
AcDbEntity
  8
0
100
AcDbBlockBegin
  2
*MODEL_SPACE
 70
           0
 10
0.0
 20
0.0
 30
0.0
  3
*MODEL_SPACE
  1

  0
ENDBLK
  5
E
100
AcDbEntity
  8
0
100
AcDbBlockEnd
  0
BLOCK
  5
F
100
AcDbEntity
 67
           1
  8
0
100
AcDbBlockBegin
  2
*PAPER_SPACE
 70
           0
 10
0.0
 20
0.0
 30
0.0
  3
*PAPER_SPACE
  1

  0
ENDBLK
  5
10
100
AcDbEntity
 67
           1
  8
0
100
AcDbBlockEnd
  0
BLOCK
  5
26
100
AcDbEntity
  8
0
100
AcDbBlockBegin
  2
BREMSL_FTHEBEL_VA
 70
           0
 10
13345.722576757589
 20
1362.411518891204
 30
0.0
  3
BREMSL_FTHEBEL_VA
  1

  0
LWPOLYLINE
  5
CA
100
AcDbEntity
  8
1
  6
CONTINUOUS
 62
           7
 60
           1
100
AcDbPolyline
 90
        3
 70
           0
 10
40993.999999999993
 20
4283.389537789817
 10
40993.999999999993
 20
4281.98959896254
 10
40993.999999999993
 20
4280.389537789817
  0
LWPOLYLINE
  5
C9
100
AcDbEntity
  8
1
  6
CONTINUOUS
 62
           7
 60
           1
100
AcDbPolyline
 90
        2
 70
           0
 10
40977.999999999993
 20
4280.389537789817
 10
40977.999999999993
 20
4283.389537789817
  0
LWPOLYLINE
  5
C8
100
AcDbEntity
  8
0
  6
DOT_CENTER
 62
           3
 60
           1
100
AcDbPolyline
 90
       34
 70
           0
 10
36571.380543872408
 20
4349.998874445917
 10
36571.380521192332
 20
4293.998873177824
 10
36574.380521192332
 20
4293.998873177823
 10
36574.380521192332
 20
4294.998873177825
 10
36575.380521192332
 20
4294.998873177825
 10
36575.380521192332
 20
4297.498873177825
 10
36577.880521192332
 20
4299.998873177823
 10
36591.380521192332
 20
4299.998873177823
 10
36591.380521192332
 20
4294.998873177825
 10
36591.380521192332
 20
4270.998873177824
 10
36621.380521192332
 20
4270.998873177823
 10
36621.380521192332
 20
4253.998873177823
 10
36591.380521192332
 20
4253.998873177823
 10
36591.380521192332
 20
4210.665873177823
 10
36591.380521192332
 20
4188.998873177823
 10
36591.380521192332
 20
4182.998873177824
 10
36591.380521192332
 20
4163.998873177823
 10
36591.380521192332
 20
4159.998873177824
 10
36591.380521192332
 20
4153.355873177823
 10
36591.380521192332
 20
4144.998873177824
 10
36591.380521192332
 20
4142.998873177823
 10
36591.380521192332
 20
4136.998873177824
 10
36591.380521192332
 20
4134.998873177823
 10
36586.380521192332
 20
4134.998873177823
 10
36582.380521192332
 20
4144.998873177824
 10
36577.380521192332
 20
4144.998873177824
 10
36574.380521192332
 20
4147.998873177824
 10
36574.380521192332
 20
4163.998873177824
 10
36571.380521192332
 20
4166.998873177824
 10
36571.380521192332
 20
4147.998873177823
 10
36568.380521192332
 20
4144.998873177824
 10
36553.380521192332
 20
4144.998873177824
 10
36550.380521192332
 20
4147.998873177825
 10
36550.380539048383
 20
4382.998906398628
  0
LWPOLYLINE
  5
C7
100
AcDbEntity
  8
0
  6
DOT_CENTER
 62
           3
 60
           1
100
AcDbPolyline
 90
        5
 70
           1
 10
36571.380521192332
 20
4177.998873177824
 10
36574.380521192332
 20
4177.998873177824
 10
36574.380521192332
 20
4237.998873177824
 10
36571.380521192332
 20
4237.998873177825
 10
36571.380521192332
 20
4177.998873177824
  0
CIRCLE
  5
C6
100
AcDbEntity
  8
0
  6
CONTINUOUS
 62
           7
100
AcDbCircle
 10
40985.999999999993
 20
4276.389537789817
 40
3.0
  0
ARC
  5
C5
100
AcDbEntity
  8
0
  6
CONTINUOUS
 62
           7
100
AcDbCircle
 10
36531.44292119232
 20
4347.765873177825
 40
40.000000000005
100
AcDbArc
 50
3.200202381129
 51
61.742143867544
  0
LINE
  5
C4
100
AcDbEntity
  8
0
  6
DOT_CENTER
 62
           3
100
AcDbLine
 10
40991.999999999993
 20
4276.389537789817
 11
40979.999999999993
 21
4276.389537789817
  0
LINE
  5
C3
100
AcDbEntity
  8
0
  6
DOT_CENTER
 62
           3
100
AcDbLine
 10
40985.999999999993
 20
4270.389537789817
 11
40985.999999999993
 21
4282.389537789817
  0
LINE
  5
C2
100
AcDbEntity
  8
0
  6
DOT_CENTER
 62
           3
100
AcDbLine
 10
40991.999999999993
 20
4415.345999019602
 11
40979.999999999993
 21
4415.345999019602
  0
LINE
  5
C1
100
AcDbEntity
  8
0
  6
DOT_CENTER
 62
           3
100
AcDbLine
 10
40985.999999999993
 20
4409.345999019602
 11
40985.999999999993
 21
4421.345999019602
  0
LINE
  5
C0
100
AcDbEntity
  8
0
  6
CONTINUOUS
 62
           7
100
AcDbLine
 10
40991.999999999993
 20
4280.389537789817
 11
40979.999999999993
 21
4280.389537789817
  0
LINE
  5
BF
100
AcDbEntity
  8
0
  6
CONTINUOUS
 62
           7
100
AcDbLine
 10
40979.999999999993
 20
4280.389537789817
 11
40977.999999999993
 21
4280.389537789817
  0
LINE
  5
BE
100
AcDbEntity
  8
0
  6
CONTINUOUS
 62
           7
100
AcDbLine
 10
40991.999999999993
 20
4270.389537789817
 11
40991.999999999993
 21
4280.389537789817
  0
LINE
  5
BD
100
AcDbEntity
  8
0
  6
CONTINUOUS
 62
           7
100
AcDbLine
 10
40979.999999999993
 20
4270.389537789817
 11
40991.999999999993
 21
4270.389537789817
  0
LINE
  5
BC
100
AcDbEntity
  8
0
  6
CONTINUOUS
 62
           7
100
AcDbLine
 10
40979.999999999993
 20
4280.389537789817
 11
40979.999999999993
 21
4270.389537789817
  0
LINE
  5
BB
100
AcDbEntity
  8
0
  6
CONTINUOUS
 62
           7
100
AcDbLine
 10
40993.999999999993
 20
4283.389537789817
 11
40977.999999999993
 21
4283.389537789817
  0
LINE
  5
BA
100
AcDbEntity
  8
0
  6
CONTINUOUS
 62
           7
100
AcDbLine
 10
40993.999999999993
 20
4280.389537789817
 11
40991.999999999993
 21
4280.389537789817
  0
LINE
  5
B9
100
AcDbEntity
  8
0
  6
CONTINUOUS
 62
           7
100
AcDbLine
 10
40993.999999999993
 20
4517.345999019602
 11
40993.999999999993
 21
4280.389537789817
  0
LINE
  5
B8
100
AcDbEntity
  8
0
  6
CONTINUOUS
 62
           7
100
AcDbLine
 10
40977.999999999993
 20
4517.345999019602
 11
40993.999999999993
 21
4517.345999019602
  0
LINE
  5
B7
100
AcDbEntity
  8
0
  6
CONTINUOUS
 62
           7
100
AcDbLine
 10
40977.999999999993
 20
4280.389537789817
 11
40977.999999999993
 21
4517.345999019602
  0
LINE
  5
B6
100
AcDbEntity
  8
0
  6
CONTINUOUS
 62
           7
100
AcDbLine
 10
36550.380521192332
 20
4147.998873177825
 11
36550.380539048383
 21
4382.998906398628
  0
LINE
  5
B5
100
AcDbEntity
  8
0
  6
CONTINUOUS
 62
           7
100
AcDbLine
 10
36571.380521192332
 20
4166.998873177824
 11
36571.380521192332
 21
4177.998873177824
  0
LINE
  5
B4
100
AcDbEntity
  8
0
  6
CONTINUOUS
 62
           7
100
AcDbLine
 10
36568.380521192332
 20
4144.998873177824
 11
36553.380521192332
 21
4144.998873177824
  0
LINE
  5
B3
100
AcDbEntity
  8
0
  6
CONTINUOUS
 62
           7
100
AcDbLine
 10
36571.380521192332
 20
4147.998873177823
 11
36568.380521192332
 21
4144.998873177824
  0
LINE
  5
B2
100
AcDbEntity
  8
0
  6
CONTINUOUS
 62
           7
100
AcDbLine
 10
36550.380521192332
 20
4147.998873177825
 11
36553.380521192332
 21
4144.998873177824
  0
LINE
  5
B1
100
AcDbEntity
  8
0
  6
CONTINUOUS
 62
           7
100
AcDbLine
 10
36550.380521192332
 20
4147.998873177825
 11
36571.380521192332
 21
4147.998873177823
  0
LINE
  5
B0
100
AcDbEntity
  8
0
  6
CONTINUOUS
 62
           7
100
AcDbLine
 10
36574.380521192332
 20
4147.998873177824
 11
36574.380521192332
 21
4163.998873177824
  0
LINE
  5
AF
100
AcDbEntity
  8
0
  6
CONTINUOUS
 62
           7
100
AcDbLine
 10
36574.380521192332
 20
4294.998873177825
 11
36575.380521192332
 21
4294.998873177825
  0
LINE
  5
AE
100
AcDbEntity
  8
0
  6
CONTINUOUS
 62
           7
100
AcDbLine
 10
36591.380521192332
 20
4144.998873177824
 11
36591.380521192332
 21
4153.355873177823
  0
LINE
  5
AD
100
AcDbEntity
  8
0
  6
CONTINUOUS
 62
           7
100
AcDbLine
 10
36591.380521192332
 20
4144.998873177824
 11
36582.380521192332
 21
4144.998873177824
  0
LINE
  5
AC
100
AcDbEntity
  8
0
  6
CONTINUOUS
 62
           7
100
AcDbLine
 10
36574.380521192332
 20
4147.998873177824
 11
36577.380521192332
 21
4144.998873177824
  0
LINE
  5
AB
100
AcDbEntity
  8
0
  6
CONTINUOUS
 62
           7
100
AcDbLine
 10
36574.380521192332
 20
4147.998873177824
 11
36591.380521192332
 21
4147.998873177824
  0
LINE
  5
AA
100
AcDbEntity
  8
0
  6
CONTINUOUS
 62
           7
100
AcDbLine
 10
36591.380521192332
 20
4144.998873177824
 11
36591.380521192332
 21
4142.998873177823
  0
LINE
  5
A9
100
AcDbEntity
  8
0
  6
CONTINUOUS
 62
           7
100
AcDbLine
 10
36591.380521192332
 20
4134.998873177823
 11
36586.380521192332
 21
4134.998873177823
  0
LINE
  5
A8
100
AcDbEntity
  8
0
  6
CONTINUOUS
 62
           7
100
AcDbLine
 10
36582.380521192332
 20
4144.998873177824
 11
36586.380521192332
 21
4134.998873177823
  0
LINE
  5
A7
100
AcDbEntity
  8
0
  6
CONTINUOUS
 62
           7
100
AcDbLine
 10
36582.380521192332
 20
4144.998873177824
 11
36577.380521192332
 21
4144.998873177824
  0
LINE
  5
A6
100
AcDbEntity
  8
0
  6
CONTINUOUS
 62
           7
100
AcDbLine
 10
36574.380521192332
 20
4177.998873177824
 11
36571.380521192332
 21
4177.998873177824
  0
LINE
  5
A5
100
AcDbEntity
  8
0
  6
CONTINUOUS
 62
           7
100
AcDbLine
 10
36571.380521192332
 20
4166.998873177824
 11
36574.380521192332
 21
4163.998873177824
  0
LINE
  5
A4
100
AcDbEntity
  8
0
  6
CONTINUOUS
 62
           7
100
AcDbLine
 10
36571.380521192332
 20
4166.998873177824
 11
36571.380521192332
 21
4147.998873177823
  0
LINE
  5
A3
100
AcDbEntity
  8
0
  6
CONTINUOUS
 62
           7
100
AcDbLine
 10
36574.380521192332
 20
4163.998873177824
 11
36574.380521192332
 21
4177.998873177824
  0
LINE
  5
A2
100
AcDbEntity
  8
0
  6
CONTINUOUS
 62
           7
100
AcDbLine
 10
36571.380521192332
 20
4177.998873177824
 11
36571.380521192332
 21
4237.998873177825
  0
LINE
  5
A1
100
AcDbEntity
  8
0
  6
CONTINUOUS
 62
           7
100
AcDbLine
 10
36574.380521192332
 20
4177.998873177824
 11
36574.380521192332
 21
4237.998873177824
  0
LINE
  5
A0
100
AcDbEntity
  8
0
  6
CONTINUOUS
 62
           7
100
AcDbLine
 10
36571.380521192332
 20
4237.998873177825
 11
36574.380521192332
 21
4237.998873177824
  0
LINE
  5
9F
100
AcDbEntity
  8
0
  6
CONTINUOUS
 62
           7
100
AcDbLine
 10
36571.380521192332
 20
4293.998873177824
 11
36574.380521192332
 21
4293.998873177823
  0
LINE
  5
9E
100
AcDbEntity
  8
0
  6
CONTINUOUS
 62
           7
100
AcDbLine
 10
36574.380521192332
 20
4237.998873177824
 11
36574.380521192332
 21
4293.998873177823
  0
LINE
  5
9D
100
AcDbEntity
  8
0
  6
CONTINUOUS
 62
           7
100
AcDbLine
 10
36571.380521192332
 20
4293.998873177824
 11
36571.380543872408
 21
4349.998874445917
  0
LINE
  5
9C
100
AcDbEntity
  8
0
  6
CONTINUOUS
 62
           7
100
AcDbLine
 10
36571.380521192332
 20
4237.998873177825
 11
36571.380521192332
 21
4293.998873177824
  0
LINE
  5
9B
100
AcDbEntity
  8
0
  6
CONTINUOUS
 62
           7
100
AcDbLine
 10
36574.380521192332
 20
4293.998873177823
 11
36574.380521192332
 21
4294.998873177825
  0
LINE
  5
9A
100
AcDbEntity
  8
0
  6
CONTINUOUS
 62
           7
100
AcDbLine
 10
36591.380521192332
 20
4182.998873177824
 11
36591.380521192332
 21
4188.998873177823
  0
LINE
  5
99
100
AcDbEntity
  8
0
  6
CONTINUOUS
 62
           7
100
AcDbLine
 10
36591.380521192332
 20
4188.998873177823
 11
36591.380521192332
 21
4210.665873177823
  0
LINE
  5
98
100
AcDbEntity
  8
0
  6
CONTINUOUS
 62
           7
100
AcDbLine
 10
36591.380521192332
 20
4142.998873177823
 11
36591.380521192332
 21
4136.998873177824
  0
LINE
  5
97
100
AcDbEntity
  8
0
  6
CONTINUOUS
 62
           7
100
AcDbLine
 10
36591.380521192332
 20
4136.998873177824
 11
36591.380521192332
 21
4134.998873177823
  0
LINE
  5
96
100
AcDbEntity
  8
0
  6
CONTINUOUS
 62
           7
100
AcDbLine
 10
36591.380521192332
 20
4153.355873177823
 11
36591.380521192332
 21
4159.998873177824
  0
LINE
  5
95
100
AcDbEntity
  8
0
  6
CONTINUOUS
 62
           7
100
AcDbLine
 10
36591.380521192332
 20
4210.665873177823
 11
36591.380521192332
 21
4253.998873177823
  0
LINE
  5
94
100
AcDbEntity
  8
0
  6
CONTINUOUS
 62
           7
100
AcDbLine
 10
36591.380521192332
 20
4159.998873177824
 11
36591.380521192332
 21
4163.998873177823
  0
LINE
  5
93
100
AcDbEntity
  8
0
  6
CONTINUOUS
 62
           7
100
AcDbLine
 10
36591.380521192332
 20
4163.998873177823
 11
36591.380521192332
 21
4182.998873177824
  0
LINE
  5
92
100
AcDbEntity
  8
0
  6
DOT_CENTER
 62
           3
100
AcDbLine
 10
36605.435317775853
 20
4280.998873177824
 11
36584.380521192332
 21
4280.998873177824
  0
LINE
  5
91
100
AcDbEntity
  8
0
  6
DOT_CENTER
 62
           3
100
AcDbLine
 10
36605.435317775853
 20
4140.998873177823
 11
36581.380521192332
 21
4140.998873177823
  0
LINE
  5
90
100
AcDbEntity
  8
0
  6
CONTINUOUS
 62
           7
100
AcDbLine
 10
36591.380521192332
 20
4294.998873177825
 11
36591.380521192332
 21
4299.998873177823
  0
LINE
  5
8F
100
AcDbEntity
  8
0
  6
CONTINUOUS
 62
           7
100
AcDbLine
 10
36591.380521192332
 20
4299.998873177823
 11
36577.880521192332
 21
4299.998873177823
  0
LINE
  5
8E
100
AcDbEntity
  8
0
  6
CONTINUOUS
 62
           7
100
AcDbLine
 10
36575.380521192332
 20
4297.498873177825
 11
36575.380521192332
 21
4294.998873177825
  0
LINE
  5
8D
100
AcDbEntity
  8
0
  6
CONTINUOUS
 62
           7
100
AcDbLine
 10
36575.380521192332
 20
4294.998873177825
 11
36591.380521192332
 21
4294.998873177825
  0
LINE
  5
8C
100
AcDbEntity
  8
0
  6
CONTINUOUS
 62
           7
100
AcDbLine
 10
36575.380521192332
 20
4297.498873177825
 11
36577.880521192332
 21
4299.998873177823
  0
LINE
  5
8B
100
AcDbEntity
  8
0
  6
CONTINUOUS
 62
           7
100
AcDbLine
 10
36591.380521192332
 20
4253.998873177823
 11
36591.380521192332
 21
4270.998873177824
  0
LINE
  5
8A
100
AcDbEntity
  8
0
  6
CONTINUOUS
 62
           7
100
AcDbLine
 10
36591.380521192332
 20
4270.998873177824
 11
36591.380521192332
 21
4294.998873177825
  0
ENDBLK
  5
CB
100
AcDbEntity
  8
0
100
AcDbBlockEnd
  0
BLOCK
  5
28
100
AcDbEntity
  8
0
100
AcDbBlockBegin
  2
_SEITENTEIL_UNTEN_VA__1
 70
           0
 10
7394.959656233684
 20
1464.666452050727
 30
0.0
  3
_SEITENTEIL_UNTEN_VA__1
  1

  0
INSERT
  5
29
100
AcDbEntity
  8
0
100
AcDbBlockReference
  2
BREMSL_FTHEBEL_VA
 10
13345.722576757589
 20
1362.411518891204
  0
ENDBLK
  5
CC
100
AcDbEntity
  8
0
100
AcDbBlockEnd
  0
BLOCK
  5
2B
100
AcDbEntity
  8
0
100
AcDbBlockBegin
  2
_VORDERANSICHT
 70
           0
 10
7379.960127726913
 20
1403.666452050726
 30
0.0
  3
_VORDERANSICHT
  1

  0
INSERT
  5
2C
100
AcDbEntity
  8
0
100
AcDbBlockReference
  2
_SEITENTEIL_UNTEN_VA__1
 10
7394.959656233684
 20
1464.666452050727
  0
ENDBLK
  5
CD
100
AcDbEntity
  8
0
100
AcDbBlockEnd
  0
BLOCK
  5
2E
100
AcDbEntity
  8
0
100
AcDbBlockBegin
  2
8300079
 70
           0
 10
7734.907763164041
 20
1966.26675977652
 30
0.0
  3
8300079
  1

  0
INSERT
  5
2F
100
AcDbEntity
  8
0
100
AcDbBlockReference
  2
_VORDERANSICHT
 10
7379.960127726913
 20
1403.666452050726
  0
ENDBLK
  5
CE
100
AcDbEntity
  8
0
100
AcDbBlockEnd
  0
BLOCK
  5
31
100
AcDbEntity
  8
0
100
AcDbBlockBegin
  2
GETRIEBEMOTOR_SA
 70
           0
 10
10921.532771618489
 20
4222.39725031252
 30
0.0
  3
GETRIEBEMOTOR_SA
  1

  0
ARC
  5
109
100
AcDbEntity
  8
0
  6
CONTINUOUS
 62
           7
100
AcDbCircle
 10
37191.32164497512
 20
6148.472924168424
 40
19.999999999992
100
AcDbArc
 50
-104.999999999936
 51
-14.999999999949
  0
ARC
  5
108
100
AcDbEntity
  8
0
  6
CONTINUOUS
 62
           7
100
AcDbCircle
 10
37059.955735059157
 20
6183.672313643272
 40
19.999999999989
100
AcDbArc
 50
165.00000000004
 51
-104.999999999932
  0
LINE
  5
107
100
AcDbEntity
  8
1
  6
DOT_CENTER
 62
           3
100
AcDbLine
 10
37179.515980957018
 20
6429.42837961131
 11
37230.9446939888
 21
6219.074242452351
  0
LINE
  5
106
100
AcDbEntity
  8
0
  6
CONTINUOUS
 62
           7
100
AcDbLine
 10
37230.9446939888
 20
6219.074242452351
 11
37210.640161500909
 21
6143.29654326639
  0
LINE
  5
105
100
AcDbEntity
  8
1
  6
DOT_CENTER
 62
           3
100
AcDbLine
 10
37157.84202415662
 20
6518.079372661656
 11
37179.515980957018
 21
6429.42837961131
  0
LINE
  5
104
100
AcDbEntity
  8
1
  6
CONTINUOUS
 62
           7
100
AcDbLine
 10
37466.514072221777
 20
6376.389537789821
 11
37462.858427985557
 21
6376.389537789821
  0
LINE
  5
103
100
AcDbEntity
  8
0
  6
CONTINUOUS
 62
           7
100
AcDbLine
 10
37136.048514023452
 20
6467.654512010513
 11
37138.357076748282
 21
6467.035934492722
  0
LINE
  5
102
100
AcDbEntity
  8
0
  6
CONTINUOUS
 62
           7
100
AcDbLine
 10
37143.824462306802
 20
6460.394572045565
 11
37137.062981522773
 21
6462.206305361277
  0
LINE
  5
101
100
AcDbEntity
  8
1
  6
CONTINUOUS
 62
           7
100
AcDbLine
 10
37137.062981522773
 20
6462.206305361277
 11
37138.357076748282
 21
6467.035934492722
  0
LINE
  5
100
100
AcDbEntity
  8
0
  6
CONTINUOUS
 62
           7
100
AcDbLine
 10
37111.46080133137
 20
6375.891532631131
 11
37113.76926746362
 21
6375.272980995242
  0
LINE
  5
FF
100
AcDbEntity
  8
0
  6
CONTINUOUS
 62
           7
100
AcDbLine
 10
37123.118938698659
 20
6383.120505942423
 11
37116.35745791463
 21
6384.932239258133
  0
LINE
  5
FE
100
AcDbEntity
  8
1
  6
CONTINUOUS
 62
           7
100
AcDbLine
 10
37116.35745791463
 20
6384.932239258133
 11
37113.76926746362
 21
6375.272980995242
  0
LINE
  5
FD
100
AcDbEntity
  8
0
  6
CONTINUOUS
 62
           7
100
AcDbLine
 10
37113.76926746362
 20
6375.272980995242
 11
37120.530748247642
 21
6373.461247679528
  0
LINE
  5
FC
100
AcDbEntity
  8
0
  6
CONTINUOUS
 62
           7
100
AcDbLine
 10
37133.850374628732
 20
6380.24502635134
 11
37123.118938698659
 21
6383.120505942423
  0
LINE
  5
FB
100
AcDbEntity
  8
1
  6
CONTINUOUS
 62
           7
100
AcDbLine
 10
37123.118938698659
 20
6383.120505942423
 11
37120.530748247642
 21
6373.461247679528
  0
LINE
  5
FA
100
AcDbEntity
  8
0
  6
CONTINUOUS
 62
           7
100
AcDbLine
 10
37155.849993462383
 20
6462.34872158593
 11
37145.118557532311
 21
6465.224201177009
  0
LINE
  5
F9
100
AcDbEntity
  8
0
  6
CONTINUOUS
 62
           7
100
AcDbLine
 10
37154.555898236868
 20
6457.519092454482
 11
37143.824462306802
 21
6460.394572045565
  0
LINE
  5
F8
100
AcDbEntity
  8
1
  6
CONTINUOUS
 62
           7
100
AcDbLine
 10
37143.824462306802
 20
6460.394572045565
 11
37145.118557532311
 21
6465.224201177009
  0
LINE
  5
F7
100
AcDbEntity
  8
0
  6
CONTINUOUS
 62
           7
100
AcDbLine
 10
37172.562223878551
 20
6457.870692942212
 11
37155.849993462383
 21
6462.34872158593
  0
LINE
  5
F6
100
AcDbEntity
  8
0
  6
CONTINUOUS
 62
           7
100
AcDbLine
 10
37158.472147906992
 20
6456.469736518026
 11
37154.555898236868
 21
6457.519092454482
  0
LINE
  5
F5
100
AcDbEntity
  8
1
  6
CONTINUOUS
 62
           7
100
AcDbLine
 10
37154.555898236868
 20
6457.519092454482
 11
37155.849993462383
 21
6462.34872158593
  0
LINE
  5
F4
100
AcDbEntity
  8
0
  6
CONTINUOUS
 62
           7
100
AcDbLine
 10
37120.530748247642
 20
6373.461247679528
 11
37131.262184177722
 21
6370.585768088449
  0
LINE
  5
F3
100
AcDbEntity
  8
0
  6
CONTINUOUS
 62
           7
100
AcDbLine
 10
37137.766624298842
 20
6379.195670414882
 11
37133.850374628732
 21
6380.24502635134
  0
LINE
  5
F2
100
AcDbEntity
  8
1
  6
CONTINUOUS
 62
           7
100
AcDbLine
 10
37133.850374628732
 20
6380.24502635134
 11
37131.262184177722
 21
6370.585768088449
  0
LINE
  5
F1
100
AcDbEntity
  8
0
  6
CONTINUOUS
 62
           7
100
AcDbLine
 10
37131.262184177722
 20
6370.585768088449
 11
37145.268108658922
 21
6366.832891934473
  0
LINE
  5
F0
100
AcDbEntity
  8
1
  6
CONTINUOUS
 62
           7
100
AcDbLine
 10
37145.268108658922
 20
6366.832891934473
 11
37169.855917943583
 21
6458.595845431953
  0
LINE
  5
EF
100
AcDbEntity
  8
0
  6
CONTINUOUS
 62
           7
100
AcDbLine
 10
37145.268108658922
 20
6366.832891934473
 11
37161.572936606673
 21
6362.464026453157
  0
LINE
  5
EE
100
AcDbEntity
  8
1
  6
CONTINUOUS
 62
           7
100
AcDbLine
 10
37179.515980957018
 20
6429.42837961131
 11
37161.572936606673
 21
6362.464026453157
  0
LINE
  5
ED
100
AcDbEntity
  8
0
  6
CONTINUOUS
 62
           7
100
AcDbLine
 10
37161.572936606673
 20
6362.464026453157
 11
37198.293405424811
 21
6352.624806487677
  0
LINE
  5
EC
100
AcDbEntity
  8
0
  6
CONTINUOUS
 62
           7
100
AcDbLine
 10
37134.754418797937
 20
6462.824882879069
 11
37136.048514023452
 21
6467.654512010513
  0
LINE
  5
EB
100
AcDbEntity
  8
0
  6
DOT_CENTER
 62
           3
100
AcDbLine
 10
37151.017163581782
 20
6417.056246331145
 11
37061.616478285068
 21
6441.011087759111
  0
LINE
  5
EA
100
AcDbEntity
  8
0
  6
CONTINUOUS
 62
           7
100
AcDbLine
 10
37110.078587416567
 20
6149.536412223608
 11
37054.77935415713
 21
6164.353797117487
  0
LINE
  5
E9
100
AcDbEntity
  8
0
  6
CONTINUOUS
 62
           7
100
AcDbLine
 10
37040.637218533382
 20
6188.848694545306
 11
37092.142111916037
 21
6381.067959858779
  0
LINE
  5
E8
100
AcDbEntity
  8
0
  6
CONTINUOUS
 62
           7
100
AcDbLine
 10
37138.357076748282
 20
6467.035934492722
 11
37143.775920633772
 21
6465.583959649701
  0
LINE
  5
E7
100
AcDbEntity
  8
0
  6
CONTINUOUS
 62
           7
100
AcDbLine
 10
37145.118557532311
 20
6465.224201177009
 11
37143.775920633772
 21
6465.583959649701
  0
LINE
  5
E6
100
AcDbEntity
  8
0
  6
CONTINUOUS
 62
           7
100
AcDbLine
 10
37143.775920633772
 20
6465.583959649701
 11
37157.84202415662
 21
6518.079372661656
  0
LINE
  5
E5
100
AcDbEntity
  8
0
  6
CONTINUOUS
 62
           7
100
AcDbLine
 10
37077.455208019019
 20
6488.530921938267
 11
37084.216688803048
 21
6486.719188622557
  0
LINE
  5
E4
100
AcDbEntity
  8
0
  6
CONTINUOUS
 62
           7
100
AcDbLine
 10
37084.216688803048
 20
6486.719188622557
 11
37083.699050712843
 21
6484.787336969979
  0
LINE
  5
E3
100
AcDbEntity
  8
0
  6
CONTINUOUS
 62
           7
100
AcDbLine
 10
37058.852422383083
 20
6392.058457646208
 11
37058.334784292878
 21
6390.126605993632
  0
LINE
  5
E2
100
AcDbEntity
  8
0
  6
CONTINUOUS
 62
           7
100
AcDbLine
 10
37058.334784292878
 20
6390.126605993632
 11
37051.573303508849
 21
6391.938339309343
  0
LINE
  5
E1
100
AcDbEntity
  8
0
  6
CONTINUOUS
 62
           7
100
AcDbLine
 10
37051.573303508849
 20
6391.938339309343
 11
37077.455208019019
 21
6488.530921938267
  0
LINE
  5
E0
100
AcDbEntity
  8
0
  6
CONTINUOUS
 62
           7
100
AcDbLine
 10
37108.25334023207
 20
6387.103731046538
 11
37106.182787871272
 21
6379.376324436224
  0
LINE
  5
DF
100
AcDbEntity
  8
0
  6
CONTINUOUS
 62
           7
100
AcDbLine
 10
37106.182787871272
 20
6379.376324436224
 11
37058.852422383083
 21
6392.058457646208
  0
LINE
  5
DE
100
AcDbEntity
  8
0
  6
CONTINUOUS
 62
           7
100
AcDbLine
 10
37083.699050712843
 20
6484.787336969979
 11
37058.852422383083
 21
6392.058457646208
  0
LINE
  5
DD
100
AcDbEntity
  8
0
  6
CONTINUOUS
 62
           7
100
AcDbLine
 10
37083.699050712843
 20
6484.787336969979
 11
37131.029416201032
 21
6472.105203759993
  0
LINE
  5
DC
100
AcDbEntity
  8
0
  6
CONTINUOUS
 62
           7
100
AcDbLine
 10
37131.029416201032
 20
6472.105203759993
 11
37128.958863840213
 21
6464.37779714968
  0
LINE
  5
DB
100
AcDbEntity
  8
0
  6
CONTINUOUS
 62
           7
100
AcDbLine
 10
37128.958863840213
 20
6464.37779714968
 11
37108.25334023207
 21
6387.103731046538
  0
LINE
  5
DA
100
AcDbEntity
  8
0
  6
CONTINUOUS
 62
           7
100
AcDbLine
 10
37114.048991782387
 20
6385.550790894024
 11
37108.25334023207
 21
6387.103731046538
  0
LINE
  5
D9
100
AcDbEntity
  8
0
  6
CONTINUOUS
 62
           7
100
AcDbLine
 10
37158.472147906992
 20
6456.469736518026
 11
37137.766624298842
 21
6379.195670414882
  0
LINE
  5
D8
100
AcDbEntity
  8
0
  6
CONTINUOUS
 62
           7
100
AcDbLine
 10
37137.062981522773
 20
6462.206305361277
 11
37134.754418797937
 21
6462.824882879069
  0
LINE
  5
D7
100
AcDbEntity
  8
0
  6
CONTINUOUS
 62
           7
100
AcDbLine
 10
37134.754418797937
 20
6462.824882879069
 11
37128.958863840213
 21
6464.37779714968
  0
LINE
  5
D6
100
AcDbEntity
  8
1
  6
CONTINUOUS
 62
           7
100
AcDbLine
 10
37111.46080133137
 20
6375.891532631131
 11
37114.048991782387
 21
6385.550790894024
  0
LINE
  5
D5
100
AcDbEntity
  8
0
  6
CONTINUOUS
 62
           7
100
AcDbLine
 10
37116.35745791463
 20
6384.932239258133
 11
37114.048991782387
 21
6385.550790894024
  0
LINE
  5
D4
100
AcDbEntity
  8
0
  6
CONTINUOUS
 62
           7
100
AcDbLine
 10
37092.142111916037
 20
6381.067959858779
 11
37111.46080133137
 21
6375.891532631131
  0
LINE
  5
D3
100
AcDbEntity
  8
0
  6
DOT_CENTER
 62
           3
100
AcDbLine
 10
37219.331165278039
 20
6515.737773131268
 11
37207.566451229883
 21
6471.831262566882
  0
LINE
  5
D2
100
AcDbEntity
  8
0
  6
DOT_CENTER
 62
           3
100
AcDbLine
 10
37207.566451229883
 20
6471.831262566882
 11
37158.99937600681
 21
6290.576470258764
  0
LINE
  5
D1
100
AcDbEntity
  8
0
  6
CONTINUOUS
 62
           7
100
AcDbLine
 10
37186.145264073093
 20
6129.154407642644
 11
37110.078587416567
 21
6149.536412223608
  0
LINE
  5
D0
100
AcDbEntity
  8
0
  6
DOT_CENTER
 62
           3
100
AcDbLine
 10
37158.99937600681
 20
6290.576470258764
 11
37120.462290049181
 21
6146.754107488761
  0
LINE
  5
CF
100
AcDbEntity
  8
1
  6
CONTINUOUS
 62
           7
100
AcDbLine
 10
37506.380521192317
 20
6416.389537789821
 11
37506.380521192317
 21
6398.14958099276
  0
ENDBLK
  5
10A
100
AcDbEntity
  8
0
100
AcDbBlockEnd
  0
BLOCK
  5
33
100
AcDbEntity
  8
0
100
AcDbBlockBegin
  2
SEITENTEILPROFIL_UNTEN_VA
 70
           0
 10
10139.766772719689
 20
652.746559109277
 30
0.0
  3
SEITENTEILPROFIL_UNTEN_VA
  1

  0
HATCH
  5
248
100
AcDbEntity
  8
0
  6
CONTINUOUS
 62
           6
100
AcDbHatch
 10
0.0
 20
0.0
 30
0.0
210
0.0
220
0.0
230
1.0
  2
USER
 70
           0
 71
           1
 91
        2
 92
        1
 93
        7
 72
           1
 10
36763.380521192332
 20
3036.3521591533699
 11
36763.380521192332
 21
3051.3895377898189
 72
           1
 10
36763.380521192332
 20
3036.3521591533699
 11
36758.865481978719
 21
3004.389537789817
 72
           1
 10
36758.865481978719
 20
3004.389537789817
 11
36755.89497292263
 21
3004.809151835866
 72
           1
 10
36759.44781229207
 20
3029.9602201121329
 11
36755.89497292263
 21
3004.809151835866
 72
           2
 10
36752.380521192332
 20
3038.3895377898189
 40
11.0
 50
180.0
 51
-50.022928138485
 73
           1
 72
           1
 10
36741.380521192332
 20
3038.3895377898189
 11
36741.380521192332
 21
3051.3895377898189
 72
           1
 10
36741.380521192332
 20
3051.3895377898189
 11
36763.380521192332
 21
3051.3895377898189
 97
        7
330
141
330
140
330
13B
330
13F
330
18F
330
142
330
14E
 92
       16
 93
        4
 72
           1
 10
36744.380521192332
 20
3038.3895377898202
 11
36744.380521192332
 21
3048.3895377898189
 72
           1
 10
36744.380521192332
 20
3048.3895377898189
 11
36760.380521192332
 21
3048.3895377898189
 72
           1
 10
36760.380521192332
 20
3038.3895377898202
 11
36760.380521192332
 21
3048.3895377898189
 72
           2
 10
36752.380521192332
 20
3038.3895377898189
 40
8.0
 50
179.99999999999
 51
0.00000000001
 73
           1
 97
        4
330
13E
330
13C
330
13D
330
18E
 75
           1
 76
           0
 52
45.0
 41
1.0
 77
           0
 78
           1
 53
45.0
 43
0.0
 44
0.0
 45
-0.7071067811865475
 46
0.7071067811865476
 79
           0
 98
        1
 10
0.0
 20
0.0
  0
DIMENSION
  5
247
100
AcDbEntity
  8
0
100
AcDbDimension
  2
*D46
 10
36031.820988226325
 20
6208.389537789814
 11
35923.487654892997
 21
5823.74760756065
 31
0.0
 53
90.0
  1
<>
  3
ME10_DIM_13
100
AcDbAlignedDimension
 13
36436.380521192332
 23
5443.389537789815
 14
36486.380521192332
 24
6208.389537789814
 50
90.0
100
AcDbRotatedDimension
  0
DIMENSION
  5
23C
100
AcDbEntity
  8
0
100
AcDbDimension
  2
*D45
 10
36204.238834514028
 20
5708.389537789819
 11
36095.9055011807
 21
5870.95725594897
 31
0.0
 53
90.0
  1
<>
  3
ME10_DIM_12
100
AcDbAlignedDimension
 13
36486.380521192332
 23
6208.389537789814
 14
36486.380521192332
 24
5708.389537789819
 50
90.0
100
AcDbRotatedDimension
  0
DIMENSION
  5
231
100
AcDbEntity
  8
0
100
AcDbDimension
  2
*D44
 10
37409.018023393437
 20
5708.389537789822
 11
37300.684690060101
 21
4339.167005023714
 31
0.0
 53
90.0
  1
<>
  3
ME10_DIM_11
100
AcDbAlignedDimension
 13
36856.380521192332
 23
3001.389537789818
 14
36850.380521192332
 24
5708.389537789821
 50
90.0
100
AcDbRotatedDimension
  0
DIMENSION
  5
226
100
AcDbEntity
  8
0
100
AcDbDimension
  2
*D43
 10
36856.380521192332
 20
2428.375650347767
 11
36287.815619016139
 21
2536.7089836811
 31
0.0
  1
<>
  3
ME10_DIM_10
100
AcDbAlignedDimension
 13
36591.380521192332
 23
3001.389537789818
 14
36856.380521192332
 24
3001.389537789818
100
AcDbRotatedDimension
  0
DIMENSION
  5
21A
100
AcDbEntity
  8
0
100
AcDbDimension
  2
*D42
 10
36856.380521192332
 20
2597.728020607367
 11
37016.424653853959
 21
2706.0613539407
 31
0.0
  1
<>
  3
ME10_DIM_9
100
AcDbAlignedDimension
 13
36763.380521192332
 23
3051.389537789819
 14
36856.380521192332
 24
3001.389537789818
100
AcDbRotatedDimension
  0
DIMENSION
  5
20D
100
AcDbEntity
  8
0
100
AcDbDimension
  2
*D41
 10
41183.0
 20
2415.344912342157
 11
39880.805194019224
 21
2523.67824567549
 31
0.0
 70
           1
  1
<>
  3
ME10_DIM_8
100
AcDbAlignedDimension
 13
38643.999999999978
 23
3001.389537789817
 14
41182.999999999993
 24
3001.389537789818
  0
DIMENSION
  5
202
100
AcDbEntity
  8
0
100
AcDbDimension
  2
*D40
 10
37409.532911790498
 20
6188.389537789822
 11
37301.19957845717
 21
5956.254764034841
 31
0.0
 53
90.0
  1
<>
  3
ME10_DIM_7
100
AcDbAlignedDimension
 13
36850.380521192332
 23
5708.389537789821
 14
36594.380521192332
 24
6188.389537789822
 50
90.0
100
AcDbRotatedDimension
  0
DIMENSION
  5
1F7
100
AcDbEntity
  8
0
100
AcDbDimension
  2
*D39
 10
37211.458994211498
 20
6208.389537789819
 11
37103.12566087817
 21
6650.877683158801
 31
0.0
 53
90.0
  1
<>
  3
ME10_DIM_6
100
AcDbAlignedDimension
 13
36594.380521192332
 23
6188.389537789822
 14
36856.380521192332
 24
6208.389537789819
 50
90.0
100
AcDbRotatedDimension
  0
DIMENSION
  5
1EA
100
AcDbEntity
  8
0
100
AcDbDimension
  2
*D38
 10
36286.327870803798
 20
6244.17703943878
 11
36177.994537470469
 21
6425.91425639972
 31
0.0
 53
90.0
  1
<>
  3
ME10_DIM_5
100
AcDbAlignedDimension
 13
36486.380521192332
 23
6208.389537789814
 14
36820.380521192332
 24
6244.17703943878
 50
90.0
100
AcDbRotatedDimension
  0
DIMENSION
  5
1DD
100
AcDbEntity
  8
0
100
AcDbDimension
  2
*D37
 10
36346.380521192332
 20
6381.553786446367
 11
36608.7481580807
 21
6489.8871197797
 31
0.0
  1
<>
  3
ME10_DIM_4
100
AcDbAlignedDimension
 13
36856.380521192332
 23
6161.389537789824
 14
36346.380521192332
 24
6068.389537789815
100
AcDbRotatedDimension
  0
DIMENSION
  5
1D2
100
AcDbEntity
  8
0
100
AcDbDimension
  2
*D36
 10
38562.999999999978
 20
6409.441297912618
 11
38725.902819352967
 21
6517.774631245951
 31
0.0
 70
           1
  1
<>
  3
ME10_DIM_3
100
AcDbAlignedDimension
 13
38923.0
 23
6161.389537789823
 14
38562.999999999993
 24
6161.389537789823
  0
DIMENSION
  5
1C7
100
AcDbEntity
  8
0
100
AcDbDimension
  2
*D35
 10
38643.999999999978
 20
2592.482100337958
 11
38844.270136004277
 21
2700.815433671291
 31
0.0
 70
           1
  1
<>
  3
ME10_DIM_2
100
AcDbAlignedDimension
 13
38923.0
 23
3001.389537789818
 14
38643.999999999978
 24
3001.389537789817
  0
DIMENSION
  5
1BC
100
AcDbEntity
  8
0
100
AcDbDimension
  2
*D34
 10
40822.999999999993
 20
2598.994018844036
 11
40991.855299867413
 21
2707.32735217737
 31
0.0
 70
           1
  1
<>
  3
ME10_DIM_1
100
AcDbAlignedDimension
 13
41182.999999999993
 23
3001.389537789818
 14
40822.999999999993
 24
3001.389537789817
  0
DIMENSION
  5
1B1
100
AcDbEntity
  8
0
100
AcDbDimension
  2
*D33
 10
36146.380521192325
 20
5066.684504654948
 11
36255.936615267397
 21
5175.017837988281
 31
0.0
  1
<>
  3
ME10_DIM_0
100
AcDbAlignedDimension
 13
36346.380521192332
 23
5533.389537789814
 14
36146.380521192332
 24
5417.389537789816
100
AcDbRotatedDimension
  0
MTEXT
  5
1A3
100
AcDbEntity
  8
1
 62
           3
100
AcDbMText
 10
36246.32491164816
 20
6535.372170070085
 30
0.0
 40
66.666666666667
 41
0.0
 71
           7
 72
           1
  1
with top roll cover
  7
CONVERTER_1
 11
0.0
 21
1.0
 31
0.0
  0
MTEXT
  5
1A2
100
AcDbEntity
  8
1
 62
           3
100
AcDbMText
 10
36149.565982930457
 20
6535.372170070085
 30
0.0
 40
66.666666666667
 41
0.0
 71
           7
 72
           1
  1
mit Wellenverkleidung
  7
CONVERTER_1
 11
0.0
 21
1.0
 31
0.0
  0
TEXT
  5
1A1
100
AcDbEntity
  8
1
 62
           3
100
AcDbText
 10
37199.045438617359
 20
1685.729465000081
 40
83.333333333333
  1
DW
 41
0.665
  7
CONVERTER_1
100
AcDbText
  0
TEXT
  5
1A0
100
AcDbEntity
  8
1
 62
           3
100
AcDbText
 10
37587.3261462179
 20
1689.165577456721
 40
83.333333333333
  1
C
 41
0.665
  7
CONVERTER_1
100
AcDbText
  0
TEXT
  5
19F
100
AcDbEntity
  8
1
 62
           3
100
AcDbText
 10
37144.067639311092
 20
1503.61550479805
 40
83.333333333333
  1
<=3800
 41
0.665
  7
CONVERTER_1
100
AcDbText
  0
TEXT
  5
19E
100
AcDbEntity
  8
1
 62
           3
100
AcDbText
 10
37164.684314050952
 20
1347.94822895746
 40
83.333333333333
  1
>3800
 41
0.665
  7
CONVERTER_1
100
AcDbText
  0
TEXT
  5
19D
100
AcDbEntity
  8
1
 62
           3
100
AcDbText
 10
37563.688646135102
 20
1505.178827735628
 40
83.333333333333
  1
175
 41
0.665
  7
CONVERTER_1
100
AcDbText
  0
TEXT
  5
19C
100
AcDbEntity
  8
1
 62
           3
100
AcDbText
 10
37563.273359021412
 20
1347.94822895746
 40
83.333333333333
  1
360
 41
0.665
  7
CONVERTER_1
100
AcDbText
  0
TEXT
  5
19B
100
AcDbEntity
  8
1
 62
           3
100
AcDbText
 10
36414.682019268461
 20
3927.4878602116
 40
83.333333333333
  1
A
 41
0.665
  7
CONVERTER_1
100
AcDbText
  0
TEXT
  5
19A
100
AcDbEntity
  8
1
 62
           3
100
AcDbText
 10
36936.43691261702
 20
3930.70685947608
 40
83.333333333333
  1
A
 41
0.665
  7
CONVERTER_1
100
AcDbText
  0
MTEXT
  5
199
100
AcDbEntity
  8
1
 62
           3
100
AcDbMText
 10
36107.490486852948
 20
1417.28473086499
 30
0.0
 40
83.333333333333
 41
0.0
 71
           7
 72
           1
  1
Schnitt/view\PA-A
  7
CONVERTER_1
  0
TEXT
  5
198
100
AcDbEntity
  8
1
 62
           3
100
AcDbText
 10
39416.960010044502
 20
2237.815512582291
 40
83.333333333333
  1
DW + 720 (DW>3800)
 41
0.665
  7
CONVERTER_1
100
AcDbText
  0
TEXT
  5
197
100
AcDbEntity
  8
1
 62
           3
100
AcDbText
 10
37887.3261462179
 20
1689.165577456721
 40
83.333333333333
  1
E
 41
0.665
  7
CONVERTER_1
100
AcDbText
  0
TEXT
  5
196
100
AcDbEntity
  8
1
 62
           3
100
AcDbText
 10
37863.688646135102
 20
1505.178827735628
 40
83.333333333333
  1
220
 41
0.665
  7
CONVERTER_1
100
AcDbText
  0
TEXT
  5
195
100
AcDbEntity
  8
1
 62
           3
100
AcDbText
 10
37863.273359021412
 20
1347.94822895746
 40
83.333333333333
  1
360
 41
0.665
  7
CONVERTER_1
100
AcDbText
  0
ARC
  5
193
100
AcDbEntity
  8
1
  6
DASHED
 62
           3
100
AcDbCircle
 10
36807.380521192332
 20
5714.389537789822
 40
3.0
100
AcDbArc
 50
180.0
 51
-90.0
  0
ARC
  5
192
100
AcDbEntity
  8
1
  6
DASHED
 62
           3
100
AcDbCircle
 10
36850.380521192332
 20
5714.389537789822
 40
3.0
100
AcDbArc
 50
-90.0
 51
0.0
  0
ARC
  5
191
100
AcDbEntity
  8
1
  6
DASHED
 62
           3
100
AcDbCircle
 10
36807.380521192332
 20
5714.389537789822
 40
6.0
100
AcDbArc
 50
-179.999999999991
 51
-90.0
  0
ARC
  5
190
100
AcDbEntity
  8
1
  6
DASHED
 62
           3
100
AcDbCircle
 10
36850.380521192332
 20
5714.389537789822
 40
6.000000000001
100
AcDbArc
 50
-90.0
 51
-0.000000000009
  0
ARC
  5
18F
100
AcDbEntity
  8
1
  6
CONTINUOUS
 62
           7
100
AcDbCircle
 10
36752.380521192332
 20
3038.389537789819
 40
11.0
100
AcDbArc
 50
180.0
 51
-50.022928138485
  0
ARC
  5
18E
100
AcDbEntity
  8
1
  6
CONTINUOUS
 62
           7
100
AcDbCircle
 10
36752.380521192332
 20
3038.389537789819
 40
8.0
100
AcDbArc
 50
179.99999999999
 51
0.00000000001
  0
ARC
  5
18D
100
AcDbEntity
  8
1
  6
CONTINUOUS
 62
           7
100
AcDbCircle
 10
36581.380521192332
 20
5958.389537789821
 40
229.999999999992
100
AcDbArc
 50
55.177705196288
 51
-134.426348678364
  0
ARC
  5
18C
100
AcDbEntity
  8
1
  6
DOT_CENTER
 62
           3
100
AcDbCircle
 10
36581.380521192332
 20
5958.389537789821
 40
230.000000000004
100
AcDbArc
 50
-134.426348678364
 51
55.177705196288
  0
LINE
  5
18B
100
AcDbEntity
  8
1
  6
DASHED
 62
           3
100
AcDbLine
 10
36856.380521192332
 20
6244.17703943878
 11
36820.380521192332
 21
6244.17703943878
  0
LINE
  5
18A
100
AcDbEntity
  8
1
  6
DOT_CENTER
 62
           3
100
AcDbLine
 10
36581.380521192332
 20
6188.389537789822
 11
36594.380521192332
 21
6188.389537789822
  0
LINE
  5
189
100
AcDbEntity
  8
1
  6
CONTINUOUS
 62
           7
100
AcDbLine
 10
36756.380521192332
 20
6161.389537789824
 11
36712.71812227527
 21
6147.202764396898
  0
LINE
  5
188
100
AcDbEntity
  8
1
  6
CONTINUOUS
 62
           7
100
AcDbLine
 10
36856.380521192332
 20
6161.389537789824
 11
36756.380521192332
 21
6161.389537789824
  0
LINE
  5
187
100
AcDbEntity
  8
1
  6
DOT_CENTER
 62
           3
100
AcDbLine
 10
36740.598932924921
 20
5958.38953778982
 11
36581.380521192332
 21
5958.389537789821
  0
LINE
  5
186
100
AcDbEntity
  8
1
  6
DOT_CENTER
 62
           3
100
AcDbLine
 10
36581.380521192332
 20
5958.389537789821
 11
36581.380521192332
 21
6117.607949522422
  0
LINE
  5
185
100
AcDbEntity
  8
1
  6
DOT_CENTER
 62
           3
100
AcDbLine
 10
36581.380521192332
 20
5958.389537789821
 11
36422.162109459721
 21
5958.38953778982
  0
LINE
  5
184
100
AcDbEntity
  8
1
  6
CONTINUOUS
 62
           7
100
AcDbLine
 10
36591.380521192332
 20
5508.389537789821
 11
36455.622671900383
 21
6063.667388758227
  0
LINE
  5
183
100
AcDbEntity
  8
1
  6
CONTINUOUS
 62
           7
100
AcDbLine
 10
38086.979236650899
 20
1468.15072039483
 11
38086.979236650899
 21
1303.15072039483
  0
LINE
  5
182
100
AcDbEntity
  8
1
  6
CONTINUOUS
 62
           7
100
AcDbLine
 10
38086.979236650899
 20
1800.15072039483
 11
38086.979236650899
 21
1468.15072039483
  0
LINE
  5
181
100
AcDbEntity
  8
1
  6
CONTINUOUS
 62
           7
100
AcDbLine
 10
38085.979236650899
 20
1303.15072039483
 11
38086.979236650899
 21
1303.15072039483
  0
LINE
  5
180
100
AcDbEntity
  8
1
  6
CONTINUOUS
 62
           7
100
AcDbLine
 10
38085.979236650899
 20
1636.15072039483
 11
38086.979236650899
 21
1636.15072039483
  0
LINE
  5
17F
100
AcDbEntity
  8
1
  6
CONTINUOUS
 62
           7
100
AcDbLine
 10
38085.979236650899
 20
1800.15072039483
 11
38086.979236650899
 21
1800.15072039483
  0
LINE
  5
17E
100
AcDbEntity
  8
1
  6
CONTINUOUS
 62
           7
100
AcDbLine
 10
38923.0
 20
5676.38953778982
 11
40822.999999999993
 21
5676.38953778982
  0
LINE
  5
17D
100
AcDbEntity
  8
1
  6
CONTINUOUS
 62
           7
100
AcDbLine
 10
38923.0
 20
5551.38953778982
 11
40822.999999999993
 21
5551.38953778982
  0
LINE
  5
17C
100
AcDbEntity
  8
1
  6
CONTINUOUS
 62
           7
100
AcDbLine
 10
38923.0
 20
5426.38953778982
 11
40822.999999999993
 21
5426.38953778982
  0
LINE
  5
17B
100
AcDbEntity
  8
1
  6
CONTINUOUS
 62
           7
100
AcDbLine
 10
38923.0
 20
5301.38953778982
 11
40822.999999999993
 21
5301.38953778982
  0
LINE
  5
17A
100
AcDbEntity
  8
1
  6
CONTINUOUS
 62
           7
100
AcDbLine
 10
38923.0
 20
5176.38953778982
 11
40822.999999999993
 21
5176.38953778982
  0
LINE
  5
179
100
AcDbEntity
  8
1
  6
CONTINUOUS
 62
           7
100
AcDbLine
 10
38923.0
 20
5051.38953778982
 11
40822.999999999993
 21
5051.38953778982
  0
LINE
  5
178
100
AcDbEntity
  8
1
  6
CONTINUOUS
 62
           7
100
AcDbLine
 10
38923.0
 20
4926.38953778982
 11
40822.999999999993
 21
4926.38953778982
  0
LINE
  5
177
100
AcDbEntity
  8
1
  6
CONTINUOUS
 62
           7
100
AcDbLine
 10
38923.0
 20
4801.38953778982
 11
40822.999999999993
 21
4801.38953778982
  0
LINE
  5
176
100
AcDbEntity
  8
1
  6
CONTINUOUS
 62
           7
100
AcDbLine
 10
38923.0
 20
4676.38953778982
 11
40822.999999999993
 21
4676.38953778982
  0
LINE
  5
175
100
AcDbEntity
  8
1
  6
CONTINUOUS
 62
           7
100
AcDbLine
 10
38923.0
 20
4551.38953778982
 11
40822.999999999993
 21
4551.38953778982
  0
LINE
  5
174
100
AcDbEntity
  8
1
  6
CONTINUOUS
 62
           7
100
AcDbLine
 10
38923.0
 20
4426.38953778982
 11
40822.999999999993
 21
4426.38953778982
  0
LINE
  5
173
100
AcDbEntity
  8
1
  6
CONTINUOUS
 62
           7
100
AcDbLine
 10
38923.0
 20
4301.38953778982
 11
40822.999999999993
 21
4301.38953778982
  0
LINE
  5
172
100
AcDbEntity
  8
1
  6
CONTINUOUS
 62
           7
100
AcDbLine
 10
38923.0
 20
4176.38953778982
 11
40822.999999999993
 21
4176.38953778982
  0
LINE
  5
171
100
AcDbEntity
  8
1
  6
CONTINUOUS
 62
           7
100
AcDbLine
 10
38923.0
 20
4051.38953778982
 11
40822.999999999993
 21
4051.38953778982
  0
LINE
  5
170
100
AcDbEntity
  8
1
  6
CONTINUOUS
 62
           7
100
AcDbLine
 10
38923.0
 20
3926.38953778982
 11
40822.999999999993
 21
3926.38953778982
  0
LINE
  5
16F
100
AcDbEntity
  8
1
  6
CONTINUOUS
 62
           7
100
AcDbLine
 10
38923.0
 20
3801.38953778982
 11
40822.999999999993
 21
3801.38953778982
  0
LINE
  5
16E
100
AcDbEntity
  8
1
  6
CONTINUOUS
 62
           7
100
AcDbLine
 10
38923.0
 20
3676.38953778982
 11
40822.999999999993
 21
3676.38953778982
  0
LINE
  5
16D
100
AcDbEntity
  8
1
  6
CONTINUOUS
 62
           7
100
AcDbLine
 10
38923.0
 20
3551.38953778982
 11
40822.999999999993
 21
3551.38953778982
  0
LINE
  5
16C
100
AcDbEntity
  8
1
  6
CONTINUOUS
 62
           7
100
AcDbLine
 10
38923.0
 20
3426.38953778982
 11
40822.999999999993
 21
3426.38953778982
  0
LINE
  5
16B
100
AcDbEntity
  8
1
  6
CONTINUOUS
 62
           7
100
AcDbLine
 10
38923.0
 20
3301.38953778982
 11
40822.999999999993
 21
3301.38953778982
  0
LINE
  5
16A
100
AcDbEntity
  8
1
  6
CONTINUOUS
 62
           7
100
AcDbLine
 10
38923.0
 20
3176.38953778982
 11
40822.999999999993
 21
3176.38953778982
  0
LINE
  5
169
100
AcDbEntity
  8
1
  6
CONTINUOUS
 62
           7
100
AcDbLine
 10
38923.0
 20
3051.38953778982
 11
40822.999999999993
 21
3051.38953778982
  0
LINE
  5
168
100
AcDbEntity
  8
1
  6
DASH_CENTER
 62
           3
100
AcDbLine
 10
38768.0
 20
6208.389537789821
 11
40977.999999999993
 21
6208.389537789821
  0
LINE
  5
167
100
AcDbEntity
  8
1
  6
DASH_CENTER
 62
           3
100
AcDbLine
 10
40977.999999999993
 20
6161.389537789823
 11
40977.999999999993
 21
6208.389537789821
  0
LINE
  5
166
100
AcDbEntity
  8
1
  6
DASH_CENTER
 62
           3
100
AcDbLine
 10
38768.0
 20
6161.389537789823
 11
38768.0
 21
6208.389537789821
  0
LINE
  5
165
100
AcDbEntity
  8
1
  6
CONTINUOUS
 62
           7
100
AcDbLine
 10
38923.0
 20
5904.389537789823
 11
40822.999999999993
 21
5904.389537789823
  0
LINE
  5
164
100
AcDbEntity
  8
1
  6
CONTINUOUS
 62
           7
100
AcDbLine
 10
38923.0
 20
6012.389537789822
 11
40822.999999999993
 21
6012.389537789822
  0
LINE
  5
163
100
AcDbEntity
  8
1
  6
CONTINUOUS
 62
           7
100
AcDbLine
 10
40822.999999999993
 20
6161.389537789823
 11
41182.999999999993
 21
6161.389537789824
  0
LINE
  5
162
100
AcDbEntity
  8
1
  6
CONTINUOUS
 62
           7
100
AcDbLine
 10
40977.999999999993
 20
6161.389537789823
 11
40977.999999999993
 21
5443.389537789817
  0
LINE
  5
161
100
AcDbEntity
  8
1
  6
CONTINUOUS
 62
           7
100
AcDbLine
 10
40822.999999999993
 20
6161.389537789823
 11
40822.999999999993
 21
3001.389537789817
  0
LINE
  5
160
100
AcDbEntity
  8
1
  6
CONTINUOUS
 62
           7
100
AcDbLine
 10
40822.999999999993
 20
3001.389537789817
 11
41182.999999999993
 21
3001.389537789818
  0
LINE
  5
15F
100
AcDbEntity
  8
1
  6
DOT_CENTER
 62
           3
100
AcDbLine
 10
38543.999999999978
 20
5958.389537789822
 11
41197.626931231804
 21
5958.389537789822
  0
LINE
  5
15E
100
AcDbEntity
  8
1
  6
CONTINUOUS
 62
           7
100
AcDbLine
 10
38643.999999999978
 20
6161.389537789823
 11
38923.0
 21
6161.389537789823
  0
LINE
  5
15D
100
AcDbEntity
  8
1
  6
CONTINUOUS
 62
           7
100
AcDbLine
 10
38923.0
 20
3001.389537789818
 11
38923.0
 21
6161.389537789823
  0
LINE
  5
15C
100
AcDbEntity
  8
1
  6
CONTINUOUS
 62
           7
100
AcDbLine
 10
36591.380521192332
 20
3001.389537789818
 11
36591.380521192332
 21
5508.389537789821
  0
LINE
  5
15B
100
AcDbEntity
  8
1
  6
CONTINUOUS
 62
           7
100
AcDbLine
 10
36856.380521192332
 20
3001.389537789818
 11
36856.380521192332
 21
6161.389537789824
  0
LINE
  5
15A
100
AcDbEntity
  8
1
  6
CONTINUOUS
 62
           7
100
AcDbLine
 10
38643.999999999978
 20
3001.389537789817
 11
38643.999999999978
 21
5688.389537789823
  0
LINE
  5
159
100
AcDbEntity
  8
1
  6
CONTINUOUS
 62
           7
100
AcDbLine
 10
38643.999999999978
 20
3001.389537789817
 11
38923.0
 21
3001.389537789818
  0
LINE
  5
158
100
AcDbEntity
  8
1
  6
CONTINUOUS
 62
           7
100
AcDbLine
 10
36591.380521192332
 20
3001.389537789818
 11
36856.380521192332
 21
3001.389537789818
  0
LINE
  5
157
100
AcDbEntity
  8
1
  6
DOT_CENTER
 62
           3
100
AcDbLine
 10
36581.380521192332
 20
5799.171126057217
 11
36581.380521192332
 21
5958.389537789821
  0
LINE
  5
156
100
AcDbEntity
  8
1
  6
DASHED
 62
           3
100
AcDbLine
 10
36853.380521192332
 20
5748.389537789821
 11
36856.380521192332
 21
5748.389537789821
  0
LINE
  5
155
100
AcDbEntity
  8
1
  6
DASHED
 62
           3
100
AcDbLine
 10
36856.380521192332
 20
5748.389537789821
 11
36856.380521192332
 21
5714.389537789821
  0
LINE
  5
154
100
AcDbEntity
  8
1
  6
DASHED
 62
           3
100
AcDbLine
 10
36850.380521192332
 20
5708.389537789821
 11
36807.380521192332
 21
5708.389537789821
  0
LINE
  5
153
100
AcDbEntity
  8
1
  6
DASHED
 62
           3
100
AcDbLine
 10
36801.380521192332
 20
5714.389537789821
 11
36801.380521192332
 21
5748.389537789821
  0
LINE
  5
152
100
AcDbEntity
  8
1
  6
DASHED
 62
           3
100
AcDbLine
 10
36804.380521192332
 20
5714.389537789822
 11
36804.380521192332
 21
5748.389537789821
  0
LINE
  5
151
100
AcDbEntity
  8
1
  6
DASHED
 62
           3
100
AcDbLine
 10
36850.380521192332
 20
5711.389537789822
 11
36807.380521192332
 21
5711.389537789822
  0
LINE
  5
150
100
AcDbEntity
  8
1
  6
DASHED
 62
           3
100
AcDbLine
 10
36853.380521192332
 20
5748.389537789821
 11
36853.380521192332
 21
5714.389537789822
  0
LINE
  5
14F
100
AcDbEntity
  8
1
  6
DASHED
 62
           3
100
AcDbLine
 10
36804.380521192332
 20
5748.389537789821
 11
36801.380521192332
 21
5748.389537789821
  0
LINE
  5
14E
100
AcDbEntity
  8
1
  6
CONTINUOUS
 62
           7
100
AcDbLine
 10
36741.380521192332
 20
3051.389537789819
 11
36763.380521192332
 21
3051.389537789819
  0
LINE
  5
14D
100
AcDbEntity
  8
1
  6
CONTINUOUS
 62
           7
100
AcDbLine
 10
36763.380521192332
 20
3051.389537789819
 11
36763.380521192332
 21
3731.588571100335
  0
LINE
  5
14C
100
AcDbEntity
  8
1
  6
CONTINUOUS
 62
           7
100
AcDbLine
 10
36741.380521192332
 20
3728.407848208768
 11
36741.380521192332
 21
3051.389537789819
  0
LINE
  5
14B
100
AcDbEntity
  8
1
  6
CONTINUOUS
 62
           7
100
AcDbLine
 10
36741.380521192332
 20
3176.38953778982
 11
36763.380521192332
 21
3176.38953778982
  0
LINE
  5
14A
100
AcDbEntity
  8
1
  6
CONTINUOUS
 62
           7
100
AcDbLine
 10
36741.380521192332
 20
3301.38953778982
 11
36763.380521192332
 21
3301.38953778982
  0
LINE
  5
149
100
AcDbEntity
  8
1
  6
CONTINUOUS
 62
           7
100
AcDbLine
 10
36741.380521192332
 20
3426.38953778982
 11
36763.380521192332
 21
3426.38953778982
  0
LINE
  5
148
100
AcDbEntity
  8
1
  6
CONTINUOUS
 62
           7
100
AcDbLine
 10
36741.380521192332
 20
3551.38953778982
 11
36763.380521192332
 21
3551.38953778982
  0
LINE
  5
147
100
AcDbEntity
  8
1
  6
CONTINUOUS
 62
           7
100
AcDbLine
 10
36591.380521192332
 20
3794.20302893166
 11
36705.380521192332
 21
3723.20302893166
  0
LINE
  5
146
100
AcDbEntity
  8
1
  6
CONTINUOUS
 62
           7
100
AcDbLine
 10
36705.380521192332
 20
3723.20302893166
 11
36788.380521192332
 21
3735.20302893166
  0
LINE
  5
145
100
AcDbEntity
  8
1
  6
CONTINUOUS
 62
           7
100
AcDbLine
 10
36788.380521192332
 20
3735.20302893166
 11
36856.380521192332
 21
3677.104061983071
  0
LINE
  5
144
100
AcDbEntity
  8
1
  6
CONTINUOUS
 62
           7
100
AcDbLine
 10
36741.380521192332
 20
3676.38953778982
 11
36763.380521192332
 21
3676.38953778982
  0
LINE
  5
143
100
AcDbEntity
  8
1
  6
CONTINUOUS
 62
           7
100
AcDbLine
 10
36856.380521192332
 20
3004.389537789817
 11
36591.380521192332
 21
3004.389537789817
  0
LINE
  5
142
100
AcDbEntity
  8
1
  6
CONTINUOUS
 62
           7
100
AcDbLine
 10
36741.380521192332
 20
3038.389537789819
 11
36741.380521192332
 21
3051.389537789819
  0
LINE
  5
141
100
AcDbEntity
  8
1
  6
CONTINUOUS
 62
           7
100
AcDbLine
 10
36763.380521192332
 20
3036.35215915337
 11
36763.380521192332
 21
3051.389537789819
  0
LINE
  5
140
100
AcDbEntity
  8
1
  6
CONTINUOUS
 62
           7
100
AcDbLine
 10
36763.380521192332
 20
3036.35215915337
 11
36758.865481978719
 21
3004.389537789817
  0
LINE
  5
13F
100
AcDbEntity
  8
1
  6
CONTINUOUS
 62
           7
100
AcDbLine
 10
36759.44781229207
 20
3029.960220112133
 11
36755.89497292263
 21
3004.809151835866
  0
LINE
  5
13E
100
AcDbEntity
  8
1
  6
CONTINUOUS
 62
           7
100
AcDbLine
 10
36744.380521192332
 20
3038.38953778982
 11
36744.380521192332
 21
3048.389537789819
  0
LINE
  5
13D
100
AcDbEntity
  8
1
  6
CONTINUOUS
 62
           7
100
AcDbLine
 10
36760.380521192332
 20
3038.38953778982
 11
36760.380521192332
 21
3048.389537789819
  0
LINE
  5
13C
100
AcDbEntity
  8
1
  6
CONTINUOUS
 62
           7
100
AcDbLine
 10
36744.380521192332
 20
3048.389537789819
 11
36760.380521192332
 21
3048.389537789819
  0
LINE
  5
13B
100
AcDbEntity
  8
1
  6
CONTINUOUS
 62
           7
100
AcDbLine
 10
36758.865481978719
 20
3004.389537789817
 11
36755.89497292263
 21
3004.809151835866
  0
LINE
  5
13A
100
AcDbEntity
  8
1
  6
CONTINUOUS
 62
           7
100
AcDbLine
 10
38085.979236650899
 20
1303.15072039483
 11
37480.979236650899
 21
1303.15072039483
  0
LINE
  5
139
100
AcDbEntity
  8
1
  6
CONTINUOUS
 62
           7
100
AcDbLine
 10
37114.979236650899
 20
1303.15072039483
 11
37114.979236650899
 21
1468.15072039483
  0
LINE
  5
138
100
AcDbEntity
  8
1
  6
CONTINUOUS
 62
           7
100
AcDbLine
 10
37114.979236650899
 20
1800.15072039483
 11
37480.979236650899
 21
1800.15072039483
  0
LINE
  5
137
100
AcDbEntity
  8
1
  6
CONTINUOUS
 62
           7
100
AcDbLine
 10
37480.979236650899
 20
1303.15072039483
 11
37114.979236650899
 21
1303.15072039483
  0
LINE
  5
136
100
AcDbEntity
  8
1
  6
CONTINUOUS
 62
           3
100
AcDbLine
 10
37114.979236650899
 20
1468.15072039483
 11
38086.979236650899
 21
1468.15072039483
  0
LINE
  5
135
100
AcDbEntity
  8
1
  6
CONTINUOUS
 62
           7
100
AcDbLine
 10
37114.979236650899
 20
1468.15072039483
 11
37114.979236650899
 21
1636.15072039483
  0
LINE
  5
134
100
AcDbEntity
  8
1
  6
CONTINUOUS
 62
           7
100
AcDbLine
 10
37114.979236650899
 20
1636.15072039483
 11
38085.979236650899
 21
1636.15072039483
  0
LINE
  5
133
100
AcDbEntity
  8
1
  6
CONTINUOUS
 62
           7
100
AcDbLine
 10
37114.979236650899
 20
1636.15072039483
 11
37114.979236650899
 21
1800.15072039483
  0
LINE
  5
132
100
AcDbEntity
  8
1
  6
DOT_CENTER
 62
           3
100
AcDbLine
 10
36826.5689702706
 20
3871.61100776721
 11
37040.5689702706
 21
3871.61100776721
  0
LINE
  5
131
100
AcDbEntity
  8
1
  6
DOT_CENTER
 62
           3
100
AcDbLine
 10
36611.056893339439
 20
3871.61100776721
 11
36493.489292586113
 21
3871.61100776721
  0
LINE
  5
130
100
AcDbEntity
  8
1
  6
CONTINUOUS
 62
           7
100
AcDbLine
 10
36493.489292586113
 20
4012.51232829992
 11
36493.489292586113
 21
3896.61100776721
  0
LINE
  5
12F
100
AcDbEntity
  8
1
  6
DOT_CENTER
 62
           3
100
AcDbLine
 10
36493.489292586113
 20
3871.61100776721
 11
36375.056893339439
 21
3871.61100776721
  0
LINE
  5
12E
100
AcDbEntity
  8
1
  6
CONTINUOUS
 62
           7
100
AcDbLine
 10
36493.489292586113
 20
3871.61100776721
 11
36487.489292586113
 21
3896.61100776721
  0
LINE
  5
12D
100
AcDbEntity
  8
1
  6
CONTINUOUS
 62
           7
100
AcDbLine
 10
36493.489292586113
 20
3871.61100776721
 11
36498.697625919449
 21
3896.61100776721
  0
LINE
  5
12C
100
AcDbEntity
  8
1
  6
CONTINUOUS
 62
           7
100
AcDbLine
 10
36487.489292586113
 20
3896.61100776721
 11
36493.489292586113
 21
3896.61100776721
  0
LINE
  5
12B
100
AcDbEntity
  8
1
  6
CONTINUOUS
 62
           7
100
AcDbLine
 10
36493.489292586113
 20
3896.61100776721
 11
36498.697625919449
 21
3896.61100776721
  0
LINE
  5
12A
100
AcDbEntity
  8
1
  6
CONTINUOUS
 62
           7
100
AcDbLine
 10
36911.489292586113
 20
4012.51232829992
 11
36911.489292586113
 21
3896.61100776721
  0
LINE
  5
129
100
AcDbEntity
  8
1
  6
CONTINUOUS
 62
           7
100
AcDbLine
 10
36911.489292586113
 20
3871.61100776721
 11
36905.489292586113
 21
3896.61100776721
  0
LINE
  5
128
100
AcDbEntity
  8
1
  6
CONTINUOUS
 62
           7
100
AcDbLine
 10
36911.489292586113
 20
3871.61100776721
 11
36916.697625919449
 21
3896.61100776721
  0
LINE
  5
127
100
AcDbEntity
  8
1
  6
CONTINUOUS
 62
           7
100
AcDbLine
 10
36905.489292586113
 20
3896.61100776721
 11
36911.489292586113
 21
3896.61100776721
  0
LINE
  5
126
100
AcDbEntity
  8
1
  6
CONTINUOUS
 62
           7
100
AcDbLine
 10
36911.489292586113
 20
3896.61100776721
 11
36916.697625919449
 21
3896.61100776721
  0
LINE
  5
125
100
AcDbEntity
  8
1
  6
CONTINUOUS
 62
           7
100
AcDbLine
 10
36336.741340030363
 20
5790.591381174632
 11
36336.741340030363
 21
5790.591381174628
  0
LINE
  5
124
100
AcDbEntity
  8
1
  6
CONTINUOUS
 62
           7
100
AcDbLine
 10
41182.999999999993
 20
5912.389537789824
 11
41182.999999999993
 21
5443.389537789817
  0
LINE
  5
123
100
AcDbEntity
  8
1
  6
CONTINUOUS
 62
           7
100
AcDbLine
 10
41182.999999999993
 20
6161.389537789824
 11
41182.999999999993
 21
5912.389537789824
  0
LINE
  5
122
100
AcDbEntity
  8
1
  6
CONTINUOUS
 62
           7
100
AcDbLine
 10
36712.71812227527
 20
6147.202764396898
 11
36455.622671900383
 21
6063.667388758227
  0
LINE
  5
121
100
AcDbEntity
  8
1
  6
DOT_CENTER
 62
           3
100
AcDbLine
 10
36856.380521192332
 20
6208.389537789819
 11
36486.380521192332
 21
6208.389537789814
  0
LINE
  5
120
100
AcDbEntity
  8
1
  6
DOT_CENTER
 62
           3
100
AcDbLine
 10
36486.380521192332
 20
6208.389537789814
 11
36346.380521192332
 21
6068.389537789815
  0
LINE
  5
11F
100
AcDbEntity
  8
1
  6
DOT_CENTER
 62
           3
100
AcDbLine
 10
36346.380521192332
 20
6068.389537789815
 11
36346.380521192332
 21
5849.714879787748
  0
LINE
  5
11E
100
AcDbEntity
  8
1
  6
DOT_CENTER
 62
           3
100
AcDbLine
 10
36346.380521192332
 20
5849.714879787748
 11
36486.380521192332
 21
5708.389537789819
  0
LINE
  5
11D
100
AcDbEntity
  8
1
  6
DOT_CENTER
 62
           3
100
AcDbLine
 10
36486.380521192332
 20
5708.389537789819
 11
36856.380521192332
 21
5708.389537789821
  0
LINE
  5
11C
100
AcDbEntity
  8
1
  6
DOT_CENTER
 62
           3
100
AcDbLine
 10
36436.380521192332
 20
5443.389537789815
 11
36346.380521192332
 21
5533.389537789814
  0
LINE
  5
11B
100
AcDbEntity
  8
1
  6
DOT_CENTER
 62
           3
100
AcDbLine
 10
36436.380521192332
 20
5443.389537789815
 11
36856.380521192332
 21
5443.389537789815
  0
LINE
  5
11A
100
AcDbEntity
  8
1
  6
DOT_CENTER
 62
           3
100
AcDbLine
 10
36346.380521192332
 20
5533.389537789814
 11
36346.380521192332
 21
5849.714879787748
  0
LINE
  5
119
100
AcDbEntity
  8
1
  6
DOT_CENTER
 62
           3
100
AcDbLine
 10
41182.999999999993
 20
6161.389537789824
 11
41297.999999999993
 21
6161.389537789824
  0
LINE
  5
118
100
AcDbEntity
  8
1
  6
DOT_CENTER
 62
           3
100
AcDbLine
 10
41182.999999999993
 20
5443.389537789817
 11
41298.0
 21
5443.389537789817
  0
LINE
  5
117
100
AcDbEntity
  8
1
  6
CONTINUOUS
 62
           7
100
AcDbLine
 10
41182.999999999993
 20
5443.389537789817
 11
41182.999999999993
 21
3001.389537789818
  0
LINE
  5
116
100
AcDbEntity
  8
1
  6
DOT_CENTER
 62
           3
100
AcDbLine
 10
41298.0
 20
5443.389537789817
 11
41298.0
 21
6161.389537789824
  0
LINE
  5
115
100
AcDbEntity
  8
1
  6
DOT_CENTER
 62
           3
100
AcDbLine
 10
41182.999999999993
 20
5443.389537789817
 11
40977.999999999993
 21
5443.389537789817
  0
LINE
  5
114
100
AcDbEntity
  8
1
  6
CONTINUOUS
 62
           7
100
AcDbLine
 10
40977.999999999993
 20
5443.389537789817
 11
40977.999999999993
 21
3001.389537789818
  0
LINE
  5
113
100
AcDbEntity
  8
1
  6
CONTINUOUS
 62
           7
100
AcDbLine
 10
38643.999999999978
 20
5688.389537789823
 11
38562.999999999993
 21
5688.389537789823
  0
LINE
  5
112
100
AcDbEntity
  8
1
  6
CONTINUOUS
 62
           7
100
AcDbLine
 10
38643.999999999978
 20
5688.389537789823
 11
38643.999999999978
 21
6161.389537789823
  0
LINE
  5
111
100
AcDbEntity
  8
1
  6
CONTINUOUS
 62
           7
100
AcDbLine
 10
38562.999999999993
 20
5688.389537789823
 11
38562.999999999993
 21
6161.389537789823
  0
LINE
  5
110
100
AcDbEntity
  8
1
  6
CONTINUOUS
 62
           7
100
AcDbLine
 10
38643.999999999978
 20
6161.389537789823
 11
38562.999999999993
 21
6161.389537789823
  0
LINE
  5
10F
100
AcDbEntity
  8
1
  6
CONTINUOUS
 62
           3
100
AcDbLine
 10
37480.979236650899
 20
1800.15072039483
 11
37480.979236650899
 21
1303.15072039483
  0
LINE
  5
10E
100
AcDbEntity
  8
1
  6
CONTINUOUS
 62
           3
100
AcDbLine
 10
37780.979236650899
 20
1800.15072039483
 11
37780.979236650899
 21
1303.15072039483
  0
LINE
  5
10D
100
AcDbEntity
  8
1
  6
CONTINUOUS
 62
           7
100
AcDbLine
 10
37780.979236650899
 20
1800.15072039483
 11
38085.979236650899
 21
1800.15072039483
  0
LINE
  5
10C
100
AcDbEntity
  8
1
  6
CONTINUOUS
 62
           7
100
AcDbLine
 10
37480.979236650899
 20
1800.15072039483
 11
37780.979236650899
 21
1800.15072039483
  0
LWPOLYLINE
  5
10B
100
AcDbEntity
  8
1
  6
DASHED
 62
           3
100
AcDbPolyline
 90
        2
 70
           0
 43
0.5
 39
0.5
 10
36146.380521192332
 20
5443.389537789816
 10
36146.380521192332
 20
5417.389537789816
  0
ENDBLK
  5
249
100
AcDbEntity
  8
0
100
AcDbBlockEnd
  0
BLOCK
  5
35
100
AcDbEntity
  8
0
100
AcDbBlockBegin
  2
_SEITENTEIL_UNTEN_VA__2
 70
           0
 10
4944.011680487134
 20
1740.893124144855
 30
0.0
  3
_SEITENTEIL_UNTEN_VA__2
  1

  0
INSERT
  5
36
100
AcDbEntity
  8
0
100
AcDbBlockReference
  2
SEITENTEILPROFIL_UNTEN_VA
 10
10139.766772719689
 20
652.746559109277
  0
ENDBLK
  5
24A
100
AcDbEntity
  8
0
100
AcDbBlockEnd
  0
BLOCK
  5
38
100
AcDbEntity
  8
0
100
AcDbBlockBegin
  2
GETRIEBEMOTOR_VA
 70
           0
 10
9434.487744224958
 20
6897.622937789765
 30
0.0
  3
GETRIEBEMOTOR_VA
  1

  0
ARC
  5
2B5
100
AcDbEntity
  8
1
  6
CONTINUOUS
 62
           7
100
AcDbCircle
 10
42129.0
 20
6154.389537789821
 40
20.0
100
AcDbArc
 50
-90.0
 51
0.0
  0
ARC
  5
2B4
100
AcDbEntity
  8
1
  6
CONTINUOUS
 62
           7
100
AcDbCircle
 10
41993.0
 20
6154.389537789821
 40
20.0
100
AcDbArc
 50
180.0
 51
-90.0
  0
ARC
  5
2B3
100
AcDbEntity
  8
1
  6
CONTINUOUS
 62
           7
100
AcDbCircle
 10
42001.0
 20
6450.389537789821
 40
5.0
100
AcDbArc
 50
90.0
 51
180.0
  0
ARC
  5
2B2
100
AcDbEntity
  8
1
  6
CONTINUOUS
 62
           7
100
AcDbCircle
 10
42001.0
 20
6353.389537789821
 40
5.0
100
AcDbArc
 50
180.0
 51
-90.0
  0
ARC
  5
2B1
100
AcDbEntity
  8
1
  6
CONTINUOUS
 62
           7
100
AcDbCircle
 10
42121.0
 20
6353.389537789821
 40
5.0
100
AcDbArc
 50
-90.0
 51
0.0
  0
ARC
  5
2B0
100
AcDbEntity
  8
1
  6
CONTINUOUS
 62
           7
100
AcDbCircle
 10
42121.0
 20
6450.389537789821
 40
5.0
100
AcDbArc
 50
0.0
 51
90.0
  0
CIRCLE
  5
2AF
100
AcDbEntity
  8
0
  6
CONTINUOUS
 62
           7
100
AcDbCircle
 10
42013.5
 20
6571.389537789821
 40
5.5
  0
CIRCLE
  5
2AE
100
AcDbEntity
  8
0
  6
CONTINUOUS
 62
           7
100
AcDbCircle
 10
42108.5
 20
6661.389537789821
 40
5.5
  0
CIRCLE
  5
2AD
100
AcDbEntity
  8
0
  6
CONTINUOUS
 62
           7
100
AcDbCircle
 10
42013.5
 20
6661.389537789821
 40
5.5
  0
ARC
  5
2AC
100
AcDbEntity
  8
1
  6
CONTINUOUS
 62
           7
100
AcDbCircle
 10
42108.5
 20
6571.389537789821
 40
5.5
100
AcDbArc
 50
0.0
 51
90.0
  0
ARC
  5
2AB
100
AcDbEntity
  8
1
  6
CONTINUOUS
 62
           7
100
AcDbCircle
 10
42108.5
 20
6571.389537789821
 40
5.5
100
AcDbArc
 50
180.0
 51
-90.0
  0
ARC
  5
2AA
100
AcDbEntity
  8
1
  6
CONTINUOUS
 62
           7
100
AcDbCircle
 10
42108.5
 20
6571.389537789821
 40
5.5
100
AcDbArc
 50
90.0
 51
180.0
  0
ARC
  5
2A9
100
AcDbEntity
  8
1
  6
CONTINUOUS
 62
           7
100
AcDbCircle
 10
42108.5
 20
6571.389537789821
 40
5.5
100
AcDbArc
 50
-90.0
 51
0.0
  0
LINE
  5
2A8
100
AcDbEntity
  8
1
  6
CONTINUOUS
 62
           7
100
AcDbLine
 10
41997.000000000022
 20
6643.889537789823
 11
41997.000000000022
 21
6608.889537789823
  0
LINE
  5
2A7
100
AcDbEntity
  8
1
  6
CONTINUOUS
 62
           7
100
AcDbLine
 10
42001.0
 20
6505.389537789821
 11
42001.0
 21
6455.389537789821
  0
LINE
  5
2A6
100
AcDbEntity
  8
1
  6
CONTINUOUS
 62
           7
100
AcDbLine
 10
42050.25
 20
6134.389537789821
 11
41993.0
 21
6134.389537789821
  0
LINE
  5
2A5
100
AcDbEntity
  8
1
  6
CONTINUOUS
 62
           7
100
AcDbLine
 10
42129.0
 20
6134.389537789821
 11
42050.25
 21
6134.389537789821
  0
LINE
  5
2A4
100
AcDbEntity
  8
0
  6
DOT_CENTER
 62
           3
100
AcDbLine
 10
42108.5
 20
6652.889537789821
 11
42108.5
 21
6669.889537789821
  0
LINE
  5
2A3
100
AcDbEntity
  8
0
  6
DOT_CENTER
 62
           3
100
AcDbLine
 10
42100.0
 20
6661.389537789821
 11
42117.0
 21
6661.389537789821
  0
LINE
  5
2A2
100
AcDbEntity
  8
0
  6
DOT_CENTER
 62
           3
100
AcDbLine
 10
42013.5
 20
6652.889537789821
 11
42013.5
 21
6669.889537789821
  0
LINE
  5
2A1
100
AcDbEntity
  8
0
  6
DOT_CENTER
 62
           3
100
AcDbLine
 10
42005.0
 20
6661.389537789821
 11
42022.0
 21
6661.389537789821
  0
LINE
  5
2A0
100
AcDbEntity
  8
0
  6
DOT_CENTER
 62
           3
100
AcDbLine
 10
42108.5
 20
6562.889537789821
 11
42108.5
 21
6579.889537789821
  0
LINE
  5
29F
100
AcDbEntity
  8
0
  6
DOT_CENTER
 62
           3
100
AcDbLine
 10
42100.0
 20
6571.389537789821
 11
42114.0
 21
6571.389537789821
  0
LINE
  5
29E
100
AcDbEntity
  8
0
  6
DOT_CENTER
 62
           3
100
AcDbLine
 10
42013.5
 20
6562.889537789821
 11
42013.5
 21
6579.889537789821
  0
LINE
  5
29D
100
AcDbEntity
  8
0
  6
DOT_CENTER
 62
           3
100
AcDbLine
 10
42005.0
 20
6571.389537789821
 11
42022.0
 21
6571.389537789821
  0
LINE
  5
29C
100
AcDbEntity
  8
0
  6
CONTINUOUS
 62
           7
100
AcDbLine
 10
42109.0
 20
6676.389537789821
 11
42109.0
 21
6689.389537789821
  0
LINE
  5
29B
100
AcDbEntity
  8
0
  6
CONTINUOUS
 62
           7
100
AcDbLine
 10
42106.0
 20
6676.389537789821
 11
42106.0
 21
6689.389537789821
  0
LINE
  5
29A
100
AcDbEntity
  8
0
  6
CONTINUOUS
 62
           7
100
AcDbLine
 10
42013.0
 20
6676.389537789821
 11
42013.0
 21
6689.389537789821
  0
LINE
  5
299
100
AcDbEntity
  8
0
  6
CONTINUOUS
 62
           7
100
AcDbLine
 10
42016.0
 20
6676.389537789821
 11
42016.0
 21
6689.389537789821
  0
LINE
  5
298
100
AcDbEntity
  8
0
  6
CONTINUOUS
 62
           7
100
AcDbLine
 10
42016.0
 20
6586.389537789821
 11
42016.0
 21
6646.389537789821
  0
LINE
  5
297
100
AcDbEntity
  8
0
  6
CONTINUOUS
 62
           7
100
AcDbLine
 10
42013.0
 20
6586.389537789821
 11
42013.0
 21
6646.389537789821
  0
LINE
  5
296
100
AcDbEntity
  8
0
  6
CONTINUOUS
 62
           7
100
AcDbLine
 10
42109.0
 20
6586.389537789821
 11
42109.0
 21
6646.389537789821
  0
LINE
  5
295
100
AcDbEntity
  8
0
  6
CONTINUOUS
 62
           7
100
AcDbLine
 10
42106.0
 20
6586.389537789821
 11
42106.0
 21
6646.389537789821
  0
LINE
  5
294
100
AcDbEntity
  8
0
  6
CONTINUOUS
 62
           7
100
AcDbLine
 10
42119.0
 20
6566.389537789821
 11
42122.0
 21
6568.389537789821
  0
LINE
  5
293
100
AcDbEntity
  8
0
  6
CONTINUOUS
 62
           7
100
AcDbLine
 10
42119.0
 20
6566.389537789821
 11
42119.0
 21
6586.389537789821
  0
LINE
  5
292
100
AcDbEntity
  8
0
  6
CONTINUOUS
 62
           7
100
AcDbLine
 10
42106.0
 20
6556.389537789821
 11
42119.0
 21
6556.389537789821
  0
LINE
  5
291
100
AcDbEntity
  8
0
  6
CONTINUOUS
 62
           7
100
AcDbLine
 10
42016.0
 20
6556.389537789821
 11
42106.0
 21
6556.389537789821
  0
LINE
  5
290
100
AcDbEntity
  8
0
  6
CONTINUOUS
 62
           7
100
AcDbLine
 10
42003.0
 20
6566.389537789821
 11
42003.0
 21
6556.389537789821
  0
LINE
  5
28F
100
AcDbEntity
  8
0
  6
CONTINUOUS
 62
           7
100
AcDbLine
 10
42119.0
 20
6646.389537789821
 11
42119.0
 21
6676.389537789821
  0
LINE
  5
28E
100
AcDbEntity
  8
0
  6
CONTINUOUS
 62
           7
100
AcDbLine
 10
42003.0
 20
6646.389537789821
 11
42013.0
 21
6646.389537789821
  0
LINE
  5
28D
100
AcDbEntity
  8
0
  6
CONTINUOUS
 62
           7
100
AcDbLine
 10
42003.0
 20
6676.389537789821
 11
42003.0
 21
6646.389537789821
  0
LINE
  5
28C
100
AcDbEntity
  8
0
  6
CONTINUOUS
 62
           7
100
AcDbLine
 10
42003.0
 20
6676.389537789821
 11
42013.0
 21
6676.389537789821
  0
LINE
  5
28B
100
AcDbEntity
  8
0
  6
DOT_CENTER
 62
           3
100
AcDbLine
 10
41993.0
 20
6405.389537789821
 11
42129.0
 21
6405.389537789821
  0
LINE
  5
28A
100
AcDbEntity
  8
0
  6
DOT_CENTER
 62
           3
100
AcDbLine
 10
41994.0
 20
6626.389537789821
 11
42128.0
 21
6626.389537789821
  0
LINE
  5
289
100
AcDbEntity
  8
0
  6
CONTINUOUS
 62
           7
100
AcDbLine
 10
42144.0
 20
6353.389537789821
 11
42144.0
 21
6450.389537789821
  0
LINE
  5
288
100
AcDbEntity
  8
0
  6
CONTINUOUS
 62
           7
100
AcDbLine
 10
41978.000100000012
 20
6450.389537789821
 11
41978.000100000012
 21
6353.389537789821
  0
LINE
  5
287
100
AcDbEntity
  8
0
  6
CONTINUOUS
 62
           7
100
AcDbLine
 10
42126.0
 20
6450.389537789821
 11
42144.0
 21
6450.389537789821
  0
LINE
  5
286
100
AcDbEntity
  8
0
  6
CONTINUOUS
 62
           7
100
AcDbLine
 10
41978.000100000012
 20
6450.389537789821
 11
41996.0
 21
6450.389537789821
  0
LINE
  5
285
100
AcDbEntity
  8
0
  6
CONTINUOUS
 62
           7
100
AcDbLine
 10
42016.0
 20
6513.389537789821
 11
42001.0
 21
6513.389537789821
  0
LINE
  5
284
100
AcDbEntity
  8
0
  6
CONTINUOUS
 62
           7
100
AcDbLine
 10
41973.0
 20
6353.389537789821
 11
41978.000100000012
 21
6353.389537789821
  0
LINE
  5
283
100
AcDbEntity
  8
0
  6
CONTINUOUS
 62
           7
100
AcDbLine
 10
41978.000100000012
 20
6353.389537789821
 11
41996.0
 21
6353.389537789821
  0
LINE
  5
282
100
AcDbEntity
  8
0
  6
CONTINUOUS
 62
           7
100
AcDbLine
 10
41973.0
 20
6353.389537789821
 11
41973.0
 21
6154.389537789821
  0
LINE
  5
281
100
AcDbEntity
  8
0
  6
CONTINUOUS
 62
           7
100
AcDbLine
 10
42144.0
 20
6353.389537789821
 11
42149.0
 21
6353.389537789821
  0
LINE
  5
280
100
AcDbEntity
  8
0
  6
CONTINUOUS
 62
           7
100
AcDbLine
 10
42149.0
 20
6154.389537789821
 11
42149.0
 21
6353.389537789821
  0
LINE
  5
27F
100
AcDbEntity
  8
0
  6
CONTINUOUS
 62
           7
100
AcDbLine
 10
42121.0
 20
6513.389537789821
 11
42106.0
 21
6513.389537789821
  0
LINE
  5
27E
100
AcDbEntity
  8
0
  6
CONTINUOUS
 62
           7
100
AcDbLine
 10
42121.0
 20
6505.389537789821
 11
42121.0
 21
6513.389537789821
  0
LINE
  5
27D
100
AcDbEntity
  8
0
  6
CONTINUOUS
 62
           7
100
AcDbLine
 10
42001.0
 20
6505.389537789821
 11
42121.0
 21
6505.389537789821
  0
LINE
  5
27C
100
AcDbEntity
  8
0
  6
CONTINUOUS
 62
           7
100
AcDbLine
 10
42001.0
 20
6513.389537789821
 11
42001.0
 21
6505.389537789821
  0
LINE
  5
27B
100
AcDbEntity
  8
0
  6
CONTINUOUS
 62
           7
100
AcDbLine
 10
42106.0
 20
6513.389537789821
 11
42016.0
 21
6513.389537789821
  0
LINE
  5
27A
100
AcDbEntity
  8
0
  6
CONTINUOUS
 62
           7
100
AcDbLine
 10
42106.0
 20
6689.389537789821
 11
42106.0
 21
6694.389537789821
  0
LINE
  5
279
100
AcDbEntity
  8
0
  6
CONTINUOUS
 62
           7
100
AcDbLine
 10
42016.0
 20
6689.389537789821
 11
42016.0
 21
6694.389537789821
  0
LINE
  5
278
100
AcDbEntity
  8
0
  6
CONTINUOUS
 62
           7
100
AcDbLine
 10
42106.0
 20
6513.389537789821
 11
42106.0
 21
6556.389537789821
  0
LINE
  5
277
100
AcDbEntity
  8
0
  6
CONTINUOUS
 62
           7
100
AcDbLine
 10
42016.0
 20
6513.389537789821
 11
42016.0
 21
6556.389537789821
  0
LINE
  5
276
100
AcDbEntity
  8
0
  6
CONTINUOUS
 62
           7
100
AcDbLine
 10
42122.0
 20
6666.389537789821
 11
42122.0
 21
6689.389537789821
  0
LINE
  5
275
100
AcDbEntity
  8
0
  6
CONTINUOUS
 62
           7
100
AcDbLine
 10
42106.0
 20
6689.389537789821
 11
42109.0
 21
6689.389537789821
  0
LINE
  5
274
100
AcDbEntity
  8
0
  6
CONTINUOUS
 62
           7
100
AcDbLine
 10
42122.0
 20
6568.389537789821
 11
42122.0
 21
6586.389537789821
  0
LINE
  5
273
100
AcDbEntity
  8
0
  6
CONTINUOUS
 62
           7
100
AcDbLine
 10
42125.0
 20
6666.389537789821
 11
42125.0
 21
6626.389537789821
  0
LINE
  5
272
100
AcDbEntity
  8
0
  6
CONTINUOUS
 62
           7
100
AcDbLine
 10
42122.0
 20
6666.389537789821
 11
42125.0
 21
6666.389537789821
  0
LINE
  5
271
100
AcDbEntity
  8
0
  6
CONTINUOUS
 62
           7
100
AcDbLine
 10
42122.0
 20
6586.389537789821
 11
42122.0
 21
6666.389537789821
  0
LINE
  5
270
100
AcDbEntity
  8
0
  6
CONTINUOUS
 62
           7
100
AcDbLine
 10
42125.0
 20
6586.389537789821
 11
42122.0
 21
6586.389537789821
  0
LINE
  5
26F
100
AcDbEntity
  8
0
  6
CONTINUOUS
 62
           7
100
AcDbLine
 10
42125.0
 20
6626.389537789821
 11
42125.0
 21
6586.389537789821
  0
LINE
  5
26E
100
AcDbEntity
  8
0
  6
CONTINUOUS
 62
           7
100
AcDbLine
 10
42000.0
 20
6666.389537789821
 11
42000.0
 21
6689.389537789821
  0
LINE
  5
26D
100
AcDbEntity
  8
0
  6
CONTINUOUS
 62
           7
100
AcDbLine
 10
42000.0
 20
6689.389537789821
 11
42013.0
 21
6689.389537789821
  0
LINE
  5
26C
100
AcDbEntity
  8
0
  6
CONTINUOUS
 62
           7
100
AcDbLine
 10
42000.0
 20
6568.389537789821
 11
42003.0
 21
6566.389537789821
  0
LINE
  5
26B
100
AcDbEntity
  8
0
  6
CONTINUOUS
 62
           7
100
AcDbLine
 10
42000.0
 20
6568.389537789821
 11
42000.0
 21
6586.389537789821
  0
LINE
  5
26A
100
AcDbEntity
  8
0
  6
CONTINUOUS
 62
           7
100
AcDbLine
 10
41997.0
 20
6666.389537789821
 11
41997.0
 21
6626.389537789821
  0
LINE
  5
269
100
AcDbEntity
  8
0
  6
CONTINUOUS
 62
           7
100
AcDbLine
 10
42000.0
 20
6666.389537789821
 11
41997.0
 21
6666.389537789821
  0
LINE
  5
268
100
AcDbEntity
  8
0
  6
CONTINUOUS
 62
           7
100
AcDbLine
 10
42000.0
 20
6586.389537789821
 11
42000.0
 21
6666.389537789821
  0
LINE
  5
267
100
AcDbEntity
  8
0
  6
CONTINUOUS
 62
           7
100
AcDbLine
 10
41997.0
 20
6586.389537789821
 11
42000.0
 21
6586.389537789821
  0
LINE
  5
266
100
AcDbEntity
  8
0
  6
CONTINUOUS
 62
           7
100
AcDbLine
 10
41997.0
 20
6626.389537789821
 11
41997.0
 21
6586.389537789821
  0
LINE
  5
265
100
AcDbEntity
  8
0
  6
CONTINUOUS
 62
           7
100
AcDbLine
 10
42119.0
 20
6556.389537789821
 11
42119.0
 21
6566.389537789821
  0
LINE
  5
264
100
AcDbEntity
  8
0
  6
CONTINUOUS
 62
           7
100
AcDbLine
 10
42003.0
 20
6556.389537789821
 11
42016.0
 21
6556.389537789821
  0
LINE
  5
263
100
AcDbEntity
  8
0
  6
CONTINUOUS
 62
           7
100
AcDbLine
 10
42003.0
 20
6586.389537789821
 11
42003.0
 21
6566.389537789821
  0
LINE
  5
262
100
AcDbEntity
  8
0
  6
CONTINUOUS
 62
           7
100
AcDbLine
 10
42003.0
 20
6586.389537789821
 11
42013.0
 21
6586.389537789821
  0
LINE
  5
261
100
AcDbEntity
  8
0
  6
CONTINUOUS
 62
           7
100
AcDbLine
 10
42013.0
 20
6689.389537789821
 11
42016.0
 21
6689.389537789821
  0
LINE
  5
260
100
AcDbEntity
  8
0
  6
CONTINUOUS
 62
           7
100
AcDbLine
 10
42013.0
 20
6676.389537789821
 11
42016.0
 21
6676.389537789821
  0
LINE
  5
25F
100
AcDbEntity
  8
0
  6
CONTINUOUS
 62
           7
100
AcDbLine
 10
42109.0
 20
6689.389537789821
 11
42122.0
 21
6689.389537789821
  0
LINE
  5
25E
100
AcDbEntity
  8
0
  6
CONTINUOUS
 62
           7
100
AcDbLine
 10
42106.0
 20
6646.389537789821
 11
42109.0
 21
6646.389537789821
  0
LINE
  5
25D
100
AcDbEntity
  8
0
  6
CONTINUOUS
 62
           7
100
AcDbLine
 10
42126.0
 20
6353.389537789821
 11
42144.0
 21
6353.389537789821
  0
LINE
  5
25C
100
AcDbEntity
  8
0
  6
CONTINUOUS
 62
           7
100
AcDbLine
 10
42016.0
 20
6676.389537789821
 11
42106.0
 21
6676.389537789821
  0
LINE
  5
25B
100
AcDbEntity
  8
0
  6
CONTINUOUS
 62
           7
100
AcDbLine
 10
42109.0
 20
6646.389537789821
 11
42119.0
 21
6646.389537789821
  0
LINE
  5
25A
100
AcDbEntity
  8
0
  6
CONTINUOUS
 62
           7
100
AcDbLine
 10
42106.0
 20
6676.389537789821
 11
42109.0
 21
6676.389537789821
  0
LINE
  5
259
100
AcDbEntity
  8
0
  6
CONTINUOUS
 62
           7
100
AcDbLine
 10
42109.0
 20
6676.389537789821
 11
42119.0
 21
6676.389537789821
  0
LINE
  5
258
100
AcDbEntity
  8
0
  6
CONTINUOUS
 62
           7
100
AcDbLine
 10
42109.0
 20
6586.389537789821
 11
42119.0
 21
6586.389537789821
  0
LINE
  5
257
100
AcDbEntity
  8
0
  6
CONTINUOUS
 62
           7
100
AcDbLine
 10
42106.0
 20
6586.389537789821
 11
42109.0
 21
6586.389537789821
  0
LINE
  5
256
100
AcDbEntity
  8
0
  6
CONTINUOUS
 62
           7
100
AcDbLine
 10
42013.0
 20
6586.389537789821
 11
42016.0
 21
6586.389537789821
  0
LINE
  5
255
100
AcDbEntity
  8
0
  6
CONTINUOUS
 62
           7
100
AcDbLine
 10
42013.0
 20
6646.389537789821
 11
42016.0
 21
6646.389537789821
  0
LINE
  5
254
100
AcDbEntity
  8
0
  6
CONTINUOUS
 62
           7
100
AcDbLine
 10
42016.0
 20
6586.389537789821
 11
42106.0
 21
6586.389537789821
  0
LINE
  5
253
100
AcDbEntity
  8
0
  6
CONTINUOUS
 62
           7
100
AcDbLine
 10
42016.0
 20
6646.389537789821
 11
42106.0
 21
6646.389537789821
  0
LINE
  5
252
100
AcDbEntity
  8
0
  6
DOT_CENTER
 62
           3
100
AcDbLine
 10
42114.0
 20
6571.389537789821
 11
42117.0
 21
6571.389537789821
  0
LINE
  5
251
100
AcDbEntity
  8
1
  6
CONTINUOUS
 62
           7
100
AcDbLine
 10
42016.0
 20
6694.389537789821
 11
42106.0
 21
6694.389537789821
  0
LINE
  5
250
100
AcDbEntity
  8
0
  6
DOT_CENTER
 62
           3
100
AcDbLine
 10
42068.699486145772
 20
6085.389537789821
 11
42068.699486145772
 21
6705.389537789821
  0
LINE
  5
24F
100
AcDbEntity
  8
1
  6
CONTINUOUS
 62
           7
100
AcDbLine
 10
42121.0
 20
6505.389537789821
 11
42121.0
 21
6455.389537789821
  0
LINE
  5
24E
100
AcDbEntity
  8
0
  6
CONTINUOUS
 62
           7
100
AcDbLine
 10
42121.0
 20
6455.389537789821
 11
42001.0
 21
6455.389537789821
  0
LINE
  5
24D
100
AcDbEntity
  8
1
  6
CONTINUOUS
 62
           7
100
AcDbLine
 10
42001.0
 20
6348.389537789821
 11
42121.0
 21
6348.389537789821
  0
LINE
  5
24C
100
AcDbEntity
  8
0
  6
CONTINUOUS
 62
           7
100
AcDbLine
 10
41996.0
 20
6353.389537789821
 11
41996.0
 21
6450.389537789821
  0
LINE
  5
24B
100
AcDbEntity
  8
0
  6
CONTINUOUS
 62
           7
100
AcDbLine
 10
42126.0
 20
6353.389537789821
 11
42126.0
 21
6450.389537789821
  0
ENDBLK
  5
2B6
100
AcDbEntity
  8
0
100
AcDbBlockEnd
  0
BLOCK
  5
3A
100
AcDbEntity
  8
0
100
AcDbBlockBegin
  2
ANTRIEB_SA
 70
           0
 10
16776.19413407821
 20
19227.437150838039
 30
0.0
  3
ANTRIEB_SA
  1

  0
INSERT
  5
3B
100
AcDbEntity
  8
0
100
AcDbBlockReference
  2
GETRIEBEMOTOR_SA
 10
10271.532771618489
 20
3554.39725031252
  0
INSERT
  5
3C
100
AcDbEntity
  8
0
100
AcDbBlockReference
  2
_SEITENTEIL_UNTEN_VA__2
 10
4944.011680487134
 20
1740.893124144855
  0
INSERT
  5
3D
100
AcDbEntity
  8
0
100
AcDbBlockReference
  2
GETRIEBEMOTOR_VA
 10
8459.487744224958
 20
6229.622937789765
  0
ENDBLK
  5
2B7
100
AcDbEntity
  8
0
100
AcDbBlockEnd
  0
BLOCK
  5
3F
100
AcDbEntity
  8
0
100
AcDbBlockBegin
  2
_SCHALTKASTEN_VA__3
 70
           0
 10
11289.801413323479
 20
16373.16343768791
 30
0.0
  3
_SCHALTKASTEN_VA__3
  1

  0
DIMENSION
  5
33E
100
AcDbEntity
  8
0
100
AcDbDimension
  2
*D51
 10
37050.615293617731
 20
5708.389537789821
 11
36942.281960284403
 21
5493.67864522665
 31
0.0
 53
90.0
  1
<>
  3
ME10_DIM_18
100
AcDbAlignedDimension
 13
36851.380521192332
 23
5648.389537789821
 14
36842.303864224603
 24
5708.389537789821
 50
90.0
100
AcDbRotatedDimension
  0
DIMENSION
  5
331
100
AcDbEntity
  8
0
100
AcDbDimension
  2
*D50
 10
36851.380521192325
 20
5181.991092897627
 11
36744.922271637399
 21
5290.32442623096
 31
0.0
 70
           1
  1
<>
  3
ME10_DIM_17
100
AcDbAlignedDimension
 13
36631.38052119231
 23
5658.389537789821
 14
36851.380521192332
 24
5658.389537789821
  0
DIMENSION
  5
324
100
AcDbEntity
  8
0
100
AcDbDimension
  2
*D49
 10
41257.999999999993
 20
4743.574800567287
 11
41380.366670545198
 21
4851.90813390062
 31
0.0
 70
           1
  1
<>
  3
ME10_DIM_16
100
AcDbAlignedDimension
 13
41182.999999999993
 23
4590.389537789815
 14
41257.999999999993
 24
4590.389537789815
  0
DIMENSION
  5
317
100
AcDbEntity
  8
0
100
AcDbDimension
  2
*D48
 10
41420.509909538407
 20
3001.389537789817
 11
41312.176576205071
 21
3746.2311204146
 31
0.0
 53
90.0
  1
<>
  3
ME10_DIM_15
100
AcDbAlignedDimension
 13
41257.999999999993
 23
4411.389537789815
 14
41271.54123675645
 24
3001.389537789817
 50
90.0
100
AcDbRotatedDimension
  0
DIMENSION
  5
30C
100
AcDbEntity
  8
0
100
AcDbDimension
  2
*D47
 10
40822.999999999993
 20
6426.784570409297
 11
40943.375607447299
 21
6535.11790374263
 31
0.0
  1
<>
  3
ME10_DIM_14
100
AcDbAlignedDimension
 13
41292.999999999993
 23
6013.389537789821
 14
40822.999999999993
 24
6161.389537789824
100
AcDbRotatedDimension
  0
TEXT
  5
301
100
AcDbEntity
  8
1
 62
           3
100
AcDbText
 10
41067.15472128211
 20
6494.536923231751
 40
83.333333333333
  1
(*365)
 41
0.665
  7
CONVERTER_1
100
AcDbText
  0
LINE
  5
300
100
AcDbEntity
  8
1
  6
CONTINUOUS
 62
           7
100
AcDbLine
 10
41272.999999999971
 20
5873.54651807932
 11
41272.999999999971
 21
5658.389537789823
  0
LINE
  5
2FF
100
AcDbEntity
  8
1
  6
CONTINUOUS
 62
           7
100
AcDbLine
 10
41272.999999999971
 20
6013.389537789821
 11
41272.999999999971
 21
5873.54651807932
  0
LINE
  5
2FE
100
AcDbEntity
  8
1
  6
CONTINUOUS
 62
           7
100
AcDbLine
 10
41292.999999999993
 20
1417.269357450717
 11
41292.999999999993
 21
1637.269357450717
  0
LINE
  5
2FD
100
AcDbEntity
  8
1
  6
CONTINUOUS
 62
           7
100
AcDbLine
 10
41192.999999999993
 20
1417.269357450717
 11
41292.999999999993
 21
1417.269357450717
  0
LINE
  5
2FC
100
AcDbEntity
  8
1
  6
CONTINUOUS
 62
           7
100
AcDbLine
 10
41192.999999999993
 20
1637.269357450717
 11
41192.999999999993
 21
1417.269357450717
  0
LINE
  5
2FB
100
AcDbEntity
  8
1
  6
CONTINUOUS
 62
           7
100
AcDbLine
 10
41292.999999999993
 20
1637.269357450717
 11
41192.999999999993
 21
1637.269357450717
  0
LINE
  5
2FA
100
AcDbEntity
  8
1
  6
CONTINUOUS
 62
           7
100
AcDbLine
 10
36611.380521192332
 20
4340.389537789813
 11
36620.934877075997
 21
4340.389537789813
  0
LINE
  5
2F9
100
AcDbEntity
  8
1
  6
CONTINUOUS
 62
           7
100
AcDbLine
 10
36646.380521192332
 20
4340.389537789813
 11
36646.380521192332
 21
4161.389537789813
  0
LINE
  5
2F8
100
AcDbEntity
  8
1
  6
CONTINUOUS
 62
           7
100
AcDbLine
 10
36646.380521192332
 20
4161.389537789813
 11
36620.934877075997
 21
4161.389537789813
  0
LINE
  5
2F7
100
AcDbEntity
  8
1
  6
CONTINUOUS
 62
           7
100
AcDbLine
 10
36611.380521192332
 20
4161.389537789813
 11
36611.380521192332
 21
4316.708612776818
  0
LINE
  5
2F6
100
AcDbEntity
  8
1
  6
CONTINUOUS
 62
           7
100
AcDbLine
 10
36851.380521192332
 20
6023.389537789821
 11
36631.38052119231
 21
6023.389537789821
  0
LINE
  5
2F5
100
AcDbEntity
  8
1
  6
CONTINUOUS
 62
           7
100
AcDbLine
 10
36631.38052119231
 20
6023.389537789821
 11
36631.38052119231
 21
6013.389537789821
  0
LINE
  5
2F4
100
AcDbEntity
  8
1
  6
CONTINUOUS
 62
           7
100
AcDbLine
 10
36631.38052119231
 20
5648.389537789821
 11
36851.380521192332
 21
5648.389537789821
  0
LINE
  5
2F3
100
AcDbEntity
  8
1
  6
CONTINUOUS
 62
           7
100
AcDbLine
 10
36851.380521192332
 20
5648.389537789821
 11
36851.380521192332
 21
5658.389537789821
  0
LINE
  5
2F2
100
AcDbEntity
  8
1
  6
CONTINUOUS
 62
           7
100
AcDbLine
 10
36631.38052119231
 20
5648.389537789821
 11
36851.380521192332
 21
5648.389537789821
  0
LINE
  5
2F1
100
AcDbEntity
  8
1
  6
CONTINUOUS
 62
           7
100
AcDbLine
 10
36631.38052119231
 20
5658.389537789821
 11
36651.380521192332
 21
5658.389537789821
  0
LINE
  5
2F0
100
AcDbEntity
  8
1
  6
CONTINUOUS
 62
           7
100
AcDbLine
 10
36631.38052119231
 20
5658.389537789821
 11
36631.38052119231
 21
5648.389537789821
  0
LINE
  5
2EF
100
AcDbEntity
  8
1
  6
CONTINUOUS
 62
           7
100
AcDbLine
 10
36851.380521192332
 20
5658.389537789821
 11
36851.380521192332
 21
6013.389537789821
  0
LINE
  5
2EE
100
AcDbEntity
  8
1
  6
CONTINUOUS
 62
           7
100
AcDbLine
 10
36631.38052119231
 20
6013.389537789821
 11
36651.380521192332
 21
6013.389537789821
  0
LINE
  5
2ED
100
AcDbEntity
  8
1
  6
CONTINUOUS
 62
           7
100
AcDbLine
 10
36631.38052119231
 20
6013.389537789821
 11
36631.38052119231
 21
5658.389537789821
  0
LINE
  5
2EC
100
AcDbEntity
  8
1
  6
CONTINUOUS
 62
           7
100
AcDbLine
 10
36851.380521192332
 20
6013.389537789821
 11
36851.380521192332
 21
6023.389537789821
  0
LINE
  5
2EB
100
AcDbEntity
  8
1
  6
CONTINUOUS
 62
           7
100
AcDbLine
 10
36651.380521192332
 20
6013.389537789821
 11
36651.380521192332
 21
5658.389537789821
  0
LINE
  5
2EA
100
AcDbEntity
  8
1
  6
CONTINUOUS
 62
           7
100
AcDbLine
 10
36651.380521192332
 20
5658.389537789821
 11
36831.38052119231
 21
5658.389537789821
  0
LINE
  5
2E9
100
AcDbEntity
  8
1
  6
CONTINUOUS
 62
           7
100
AcDbLine
 10
36651.380521192332
 20
6013.389537789821
 11
36831.38052119231
 21
6013.389537789821
  0
LINE
  5
2E8
100
AcDbEntity
  8
1
  6
CONTINUOUS
 62
           7
100
AcDbLine
 10
36831.38052119231
 20
6013.389537789821
 11
36831.38052119231
 21
5658.389537789821
  0
LINE
  5
2E7
100
AcDbEntity
  8
1
  6
CONTINUOUS
 62
           7
100
AcDbLine
 10
36831.38052119231
 20
5658.389537789821
 11
36851.380521192332
 21
5658.389537789821
  0
LINE
  5
2E6
100
AcDbEntity
  8
1
  6
CONTINUOUS
 62
           7
100
AcDbLine
 10
36831.38052119231
 20
6013.389537789821
 11
36851.380521192332
 21
6013.389537789821
  0
LINE
  5
2E5
100
AcDbEntity
  8
1
  6
CONTINUOUS
 62
           7
100
AcDbLine
 10
36611.380521192332
 20
4316.708612776818
 11
36611.380521192332
 21
4340.389537789813
  0
LINE
  5
2E4
100
AcDbEntity
  8
1
  6
CONTINUOUS
 62
           7
100
AcDbLine
 10
36620.934877075997
 20
4340.389537789813
 11
36620.934877075997
 21
4161.389537789813
  0
LINE
  5
2E3
100
AcDbEntity
  8
1
  6
CONTINUOUS
 62
           7
100
AcDbLine
 10
36620.934877075997
 20
4340.389537789813
 11
36646.380521192332
 21
4340.389537789813
  0
LINE
  5
2E2
100
AcDbEntity
  8
1
  6
CONTINUOUS
 62
           7
100
AcDbLine
 10
36620.934877075997
 20
4161.389537789813
 11
36611.380521192332
 21
4161.389537789813
  0
LINE
  5
2E1
100
AcDbEntity
  8
1
  6
CONTINUOUS
 62
           7
100
AcDbLine
 10
41182.999999999993
 20
4412.98959896254
 11
41182.999999999993
 21
4411.389537789815
  0
LINE
  5
2E0
100
AcDbEntity
  8
1
  6
CONTINUOUS
 62
           7
100
AcDbLine
 10
41182.999999999993
 20
4590.389537789815
 11
41182.999999999993
 21
4412.98959896254
  0
LINE
  5
2DF
100
AcDbEntity
  8
1
  6
CONTINUOUS
 62
           7
100
AcDbLine
 10
41182.999999999993
 20
4590.389537789815
 11
41182.999999999993
 21
4648.345999019603
  0
LINE
  5
2DE
100
AcDbEntity
  8
1
  6
CONTINUOUS
 62
           7
100
AcDbLine
 10
41213.0
 20
4446.389537789815
 11
41213.0
 21
4463.389537789815
  0
LINE
  5
2DD
100
AcDbEntity
  8
1
  6
CONTINUOUS
 62
           7
100
AcDbLine
 10
41227.999999999993
 20
4446.389537789815
 11
41213.0
 21
4446.389537789815
  0
LINE
  5
2DC
100
AcDbEntity
  8
1
  6
CONTINUOUS
 62
           7
100
AcDbLine
 10
41227.999999999993
 20
4463.389537789815
 11
41227.999999999993
 21
4446.389537789815
  0
LINE
  5
2DB
100
AcDbEntity
  8
1
  6
CONTINUOUS
 62
           7
100
AcDbLine
 10
41213.0
 20
4463.389537789815
 11
41227.999999999993
 21
4463.389537789815
  0
LINE
  5
2DA
100
AcDbEntity
  8
1
  6
CONTINUOUS
 62
           7
100
AcDbLine
 10
41213.0
 20
4479.389537789815
 11
41213.0
 21
4494.389537789815
  0
LINE
  5
2D9
100
AcDbEntity
  8
1
  6
CONTINUOUS
 62
           7
100
AcDbLine
 10
41227.999999999993
 20
4479.389537789815
 11
41213.0
 21
4479.389537789815
  0
LINE
  5
2D8
100
AcDbEntity
  8
1
  6
CONTINUOUS
 62
           7
100
AcDbLine
 10
41227.999999999993
 20
4494.389537789815
 11
41227.999999999993
 21
4479.389537789815
  0
LINE
  5
2D7
100
AcDbEntity
  8
1
  6
CONTINUOUS
 62
           7
100
AcDbLine
 10
41213.0
 20
4494.389537789815
 11
41227.999999999993
 21
4494.389537789815
  0
LINE
  5
2D6
100
AcDbEntity
  8
1
  6
CONTINUOUS
 62
           7
100
AcDbLine
 10
41213.0
 20
4510.389537789815
 11
41213.0
 21
4525.389537789819
  0
LINE
  5
2D5
100
AcDbEntity
  8
1
  6
CONTINUOUS
 62
           7
100
AcDbLine
 10
41227.999999999993
 20
4510.389537789815
 11
41213.0
 21
4510.389537789815
  0
LINE
  5
2D4
100
AcDbEntity
  8
1
  6
CONTINUOUS
 62
           7
100
AcDbLine
 10
41227.999999999993
 20
4525.389537789819
 11
41227.999999999993
 21
4510.389537789815
  0
LINE
  5
2D3
100
AcDbEntity
  8
1
  6
CONTINUOUS
 62
           7
100
AcDbLine
 10
41213.0
 20
4525.389537789819
 11
41227.999999999993
 21
4525.389537789819
  0
LINE
  5
2D2
100
AcDbEntity
  8
1
  6
CONTINUOUS
 62
           7
100
AcDbLine
 10
41247.999999999993
 20
4540.389537789815
 11
41247.999999999993
 21
4580.389537789815
  0
LINE
  5
2D1
100
AcDbEntity
  8
1
  6
CONTINUOUS
 62
           7
100
AcDbLine
 10
41192.999999999993
 20
4540.389537789815
 11
41247.999999999993
 21
4540.389537789815
  0
LINE
  5
2D0
100
AcDbEntity
  8
1
  6
CONTINUOUS
 62
           7
100
AcDbLine
 10
41192.999999999993
 20
4580.389537789815
 11
41192.999999999993
 21
4540.389537789815
  0
LINE
  5
2CF
100
AcDbEntity
  8
1
  6
CONTINUOUS
 62
           7
100
AcDbLine
 10
41247.999999999993
 20
4580.389537789815
 11
41192.999999999993
 21
4580.389537789815
  0
LINE
  5
2CE
100
AcDbEntity
  8
1
  6
CONTINUOUS
 62
           7
100
AcDbLine
 10
41257.999999999993
 20
4411.389537789815
 11
41257.999999999993
 21
4590.389537789815
  0
LINE
  5
2CD
100
AcDbEntity
  8
1
  6
CONTINUOUS
 62
           7
100
AcDbLine
 10
41182.999999999993
 20
4411.389537789815
 11
41257.999999999993
 21
4411.389537789815
  0
LINE
  5
2CC
100
AcDbEntity
  8
1
  6
CONTINUOUS
 62
           7
100
AcDbLine
 10
41182.999999999993
 20
4590.389537789815
 11
41182.999999999993
 21
4412.98959896254
  0
LINE
  5
2CB
100
AcDbEntity
  8
1
  6
CONTINUOUS
 62
           7
100
AcDbLine
 10
41257.999999999993
 20
4590.389537789815
 11
41182.999999999993
 21
4590.389537789815
  0
LINE
  5
2CA
100
AcDbEntity
  8
1
  6
CONTINUOUS
 62
           7
100
AcDbLine
 10
41272.999999999971
 20
6013.389537789821
 11
41292.999999999993
 21
6013.389537789821
  0
LINE
  5
2C9
100
AcDbEntity
  8
1
  6
CONTINUOUS
 62
           7
100
AcDbLine
 10
41272.999999999971
 20
5658.389537789823
 11
41292.999999999993
 21
5658.389537789823
  0
LINE
  5
2C8
100
AcDbEntity
  8
1
  6
CONTINUOUS
 62
           7
100
AcDbLine
 10
41212.999999999993
 20
6013.389537789821
 11
41272.999999999971
 21
6013.389537789821
  0
LINE
  5
2C7
100
AcDbEntity
  8
1
  6
CONTINUOUS
 62
           7
100
AcDbLine
 10
41212.999999999993
 20
5658.389537789823
 11
41272.999999999971
 21
5658.389537789823
  0
LINE
  5
2C6
100
AcDbEntity
  8
1
  6
CONTINUOUS
 62
           7
100
AcDbLine
 10
41212.999999999993
 20
6013.389537789821
 11
41212.999999999993
 21
5658.389537789823
  0
LINE
  5
2C5
100
AcDbEntity
  8
1
  6
CONTINUOUS
 62
           7
100
AcDbLine
 10
41292.999999999993
 20
6013.389537789821
 11
41292.999999999993
 21
6023.389537789821
  0
LINE
  5
2C4
100
AcDbEntity
  8
1
  6
CONTINUOUS
 62
           7
100
AcDbLine
 10
41192.999999999993
 20
6013.389537789821
 11
41192.999999999993
 21
5658.389537789823
  0
LINE
  5
2C3
100
AcDbEntity
  8
1
  6
CONTINUOUS
 62
           7
100
AcDbLine
 10
41192.999999999993
 20
6013.389537789821
 11
41212.999999999993
 21
6013.389537789821
  0
LINE
  5
2C2
100
AcDbEntity
  8
1
  6
CONTINUOUS
 62
           7
100
AcDbLine
 10
41292.999999999993
 20
5658.389537789823
 11
41292.999999999993
 21
6013.389537789821
  0
LINE
  5
2C1
100
AcDbEntity
  8
1
  6
CONTINUOUS
 62
           7
100
AcDbLine
 10
41192.999999999993
 20
5658.389537789823
 11
41192.999999999993
 21
5648.389537789821
  0
LINE
  5
2C0
100
AcDbEntity
  8
1
  6
CONTINUOUS
 62
           7
100
AcDbLine
 10
41192.999999999993
 20
5658.389537789823
 11
41212.999999999993
 21
5658.389537789823
  0
LINE
  5
2BF
100
AcDbEntity
  8
1
  6
CONTINUOUS
 62
           7
100
AcDbLine
 10
41192.999999999993
 20
5648.389537789821
 11
41292.999999999993
 21
5648.389537789821
  0
LINE
  5
2BE
100
AcDbEntity
  8
1
  6
CONTINUOUS
 62
           7
100
AcDbLine
 10
41292.999999999993
 20
5648.389537789821
 11
41292.999999999993
 21
5658.389537789823
  0
LINE
  5
2BD
100
AcDbEntity
  8
1
  6
CONTINUOUS
 62
           7
100
AcDbLine
 10
41192.999999999993
 20
5648.389537789821
 11
41292.999999999993
 21
5648.389537789821
  0
LINE
  5
2BC
100
AcDbEntity
  8
1
  6
CONTINUOUS
 62
           7
100
AcDbLine
 10
41192.999999999993
 20
6023.389537789821
 11
41192.999999999993
 21
6013.389537789821
  0
LINE
  5
2BB
100
AcDbEntity
  8
1
  6
CONTINUOUS
 62
           7
100
AcDbLine
 10
41292.999999999993
 20
6023.389537789821
 11
41192.999999999993
 21
6023.389537789821
  0
LINE
  5
2BA
100
AcDbEntity
  8
1
  6
CONTINUOUS
 62
           7
100
AcDbLine
 10
41271.54123675645
 20
3001.389537789817
 11
41245.566984324701
 21
3001.389537789817
  0
LINE
  5
2B9
100
AcDbEntity
  8
1
  6
CONTINUOUS
 62
           7
100
AcDbLine
 10
36842.303864224603
 20
5708.389537789821
 11
36850.380521192332
 21
5708.389537789821
  0
LINE
  5
2B8
100
AcDbEntity
  8
1
  6
DOT_CENTER
 62
           3
100
AcDbLine
 10
40822.999999999993
 20
6161.389537789824
 11
40822.999999999993
 21
6132.14584079685
  0
ENDBLK
  5
33F
100
AcDbEntity
  8
0
100
AcDbBlockEnd
  0
BLOCK
  5
41
100
AcDbEntity
  8
0
100
AcDbBlockBegin
  2
8300091
 70
           0
 10
40361.029991788382
 20
20946.93715083797
 30
0.0
  3
8300091
  1

  0
INSERT
  5
42
100
AcDbEntity
  8
0
100
AcDbBlockReference
  2
_SCHALTKASTEN_VA__3
 10
11289.801413323479
 20
16373.16343768791
  0
ENDBLK
  5
340
100
AcDbEntity
  8
0
100
AcDbBlockEnd
  0
BLOCK
  5
44
100
AcDbEntity
  8
0
100
AcDbBlockBegin
  2
_SCHALTKASTEN_VA__4
 70
           0
 10
10428.540802781101
 20
5781.122806826084
 30
0.0
  3
_SCHALTKASTEN_VA__4
  1

  0
INSERT
  5
45
100
AcDbEntity
  8
0
100
AcDbBlockReference
  2
8300091
 10
40361.029991788382
 20
20946.93715083797
  0
ENDBLK
  5
341
100
AcDbEntity
  8
0
100
AcDbBlockEnd
  0
BLOCK
  5
47
100
AcDbEntity
  8
0
100
AcDbBlockBegin
  2
MAUER_SA
 70
           0
 10
-857.287084134616
 20
1199.999999999999
 30
0.0
  3
MAUER_SA
  1

  0
HATCH
  5
352
100
AcDbEntity
  8
0
  6
CONTINUOUS
 62
           6
100
AcDbHatch
 10
0.0
 20
0.0
 30
0.0
210
0.0
220
0.0
230
1.0
  2
USER
 70
           0
 71
           1
 91
        1
 92
        1
 93
        4
 72
           1
 10
37242.54123675645
 20
3001.389537789817
 11
37242.54123675645
 21
2852.389537789817
 72
           1
 10
37242.54123675645
 20
2852.389537789817
 11
36271.54123675645
 21
2852.389537789817
 72
           1
 10
36271.54123675645
 20
3001.389537789817
 11
36271.54123675645
 21
2852.389537789817
 72
           1
 10
37242.54123675645
 20
3001.389537789817
 11
36271.54123675645
 21
3001.389537789817
 97
        4
330
343
330
342
330
344
330
345
 75
           1
 76
           0
 52
45.0
 41
50.0
 77
           0
 78
           1
 53
45.0
 43
0.0
 44
0.0
 45
-35.355339059327378
 46
35.355339059327378
 79
           0
 98
        1
 10
0.0
 20
0.0
  0
HATCH
  5
351
100
AcDbEntity
  8
0
  6
CONTINUOUS
 62
           6
100
AcDbHatch
 10
0.0
 20
0.0
 30
0.0
210
0.0
220
0.0
230
1.0
  2
USER
 70
           0
 71
           1
 91
        1
 92
        1
 93
        4
 72
           1
 10
36856.380521192332
 20
6588.3895377898207
 11
36856.380521192332
 21
5708.3895377898207
 72
           1
 10
36856.380521192332
 20
5708.3895377898207
 11
37006.380521192332
 21
5708.3895377898207
 72
           1
 10
37006.380521192332
 20
5708.3895377898207
 11
37006.380521192332
 21
6588.3895377898207
 72
           1
 10
37006.380521192332
 20
6588.3895377898207
 11
36856.380521192332
 21
6588.3895377898207
 97
        4
330
34A
330
34B
330
348
330
349
 75
           1
 76
           0
 52
45.0
 41
50.0
 77
           0
 78
           1
 53
45.0
 43
0.0
 44
0.0
 45
-35.355339059327378
 46
35.355339059327378
 79
           0
 98
        1
 10
0.0
 20
0.0
  0
HATCH
  5
350
100
AcDbEntity
  8
0
  6
CONTINUOUS
 62
           6
100
AcDbHatch
 10
0.0
 20
0.0
 30
0.0
210
0.0
220
0.0
230
1.0
  2
USER
 70
           0
 71
           1
 91
        1
 92
        1
 93
        4
 72
           1
 10
41271.54123675645
 20
3001.389537789817
 11
41271.54123675645
 21
2852.389537789817
 72
           1
 10
41271.54123675645
 20
2852.389537789817
 11
38340.54123675645
 21
2852.389537789817
 72
           1
 10
38340.54123675645
 20
3001.389537789817
 11
38340.54123675645
 21
2852.389537789817
 72
           1
 10
41271.54123675645
 20
3001.389537789817
 11
38340.54123675645
 21
3001.389537789817
 97
        4
330
34D
330
34C
330
34E
330
34F
 75
           1
 76
           0
 52
45.0
 41
50.0
 77
           0
 78
           1
 53
45.0
 43
0.0
 44
0.0
 45
-35.355339059327378
 46
35.355339059327378
 79
           0
 98
        1
 10
0.0
 20
0.0
  0
LINE
  5
34F
100
AcDbEntity
  8
1
  6
CONTINUOUS
 62
           7
100
AcDbLine
 10
41271.54123675645
 20
3001.389537789817
 11
38340.54123675645
 21
3001.389537789817
  0
LINE
  5
34E
100
AcDbEntity
  8
1
  6
CONTINUOUS
 62
         250
100
AcDbLine
 10
38340.54123675645
 20
3001.389537789817
 11
38340.54123675645
 21
2852.389537789817
  0
LINE
  5
34D
100
AcDbEntity
  8
1
  6
CONTINUOUS
 62
         250
100
AcDbLine
 10
41271.54123675645
 20
3001.389537789817
 11
41271.54123675645
 21
2852.389537789817
  0
LINE
  5
34C
100
AcDbEntity
  8
1
  6
CONTINUOUS
 62
         250
100
AcDbLine
 10
41271.54123675645
 20
2852.389537789817
 11
38340.54123675645
 21
2852.389537789817
  0
LINE
  5
34B
100
AcDbEntity
  8
1
  6
CONTINUOUS
 62
           7
100
AcDbLine
 10
36856.380521192332
 20
5708.389537789821
 11
37006.380521192332
 21
5708.389537789821
  0
LINE
  5
34A
100
AcDbEntity
  8
1
  6
CONTINUOUS
 62
           7
100
AcDbLine
 10
36856.380521192332
 20
6588.389537789821
 11
36856.380521192332
 21
5708.389537789821
  0
LINE
  5
349
100
AcDbEntity
  8
1
  6
CONTINUOUS
 62
         250
100
AcDbLine
 10
37006.380521192332
 20
6588.389537789821
 11
36856.380521192332
 21
6588.389537789821
  0
LINE
  5
348
100
AcDbEntity
  8
1
  6
CONTINUOUS
 62
           7
100
AcDbLine
 10
37006.380521192332
 20
5708.389537789821
 11
37006.380521192332
 21
6588.389537789821
  0
LINE
  5
347
100
AcDbEntity
  8
1
  6
DASHED
 62
           3
100
AcDbLine
 10
37006.380521192332
 20
5708.389537789821
 11
37006.380521192332
 21
3001.389537789817
  0
LINE
  5
346
100
AcDbEntity
  8
1
  6
CONTINUOUS
 62
           7
100
AcDbLine
 10
36856.380521192332
 20
5708.389537789821
 11
36856.380521192332
 21
3001.389537789818
  0
LINE
  5
345
100
AcDbEntity
  8
1
  6
CONTINUOUS
 62
           7
100
AcDbLine
 10
37242.54123675645
 20
3001.389537789817
 11
36271.54123675645
 21
3001.389537789817
  0
LINE
  5
344
100
AcDbEntity
  8
1
  6
CONTINUOUS
 62
         250
100
AcDbLine
 10
36271.54123675645
 20
3001.389537789817
 11
36271.54123675645
 21
2852.389537789817
  0
LINE
  5
343
100
AcDbEntity
  8
1
  6
CONTINUOUS
 62
         250
100
AcDbLine
 10
37242.54123675645
 20
3001.389537789817
 11
37242.54123675645
 21
2852.389537789817
  0
LINE
  5
342
100
AcDbEntity
  8
1
  6
CONTINUOUS
 62
         250
100
AcDbLine
 10
37242.54123675645
 20
2852.389537789817
 11
36271.54123675645
 21
2852.389537789817
  0
ENDBLK
  5
353
100
AcDbEntity
  8
0
100
AcDbBlockEnd
  0
BLOCK
  5
49
100
AcDbEntity
  8
0
100
AcDbBlockBegin
  2
STURZABDICHTUNG_SA
 70
           0
 10
-1398.952073997285
 20
1207.000000000002
 30
0.0
  3
STURZABDICHTUNG_SA
  1

  0
INSERT
  5
4A
100
AcDbEntity
  8
0
100
AcDbBlockReference
  2
MAUER_SA
 10
-857.287084134616
 20
1199.999999999999
  0
ENDBLK
  5
354
100
AcDbEntity
  8
0
100
AcDbBlockEnd
  0
BLOCK
  5
4C
100
AcDbEntity
  8
0
100
AcDbBlockBegin
  2
VERBINDUNGSPROFIL_DS
 70
           0
 10
10097.729251104291
 20
5463.978888788721
 30
0.0
  3
VERBINDUNGSPROFIL_DS
  1

  0
LINE
  5
359
100
AcDbEntity
  8
1
  6
CONTINUOUS
 62
           7
100
AcDbLine
 10
40827.999999999993
 20
1642.269357450718
 11
40827.999999999993
 21
1582.269357450718
  0
LINE
  5
358
100
AcDbEntity
  8
1
  6
CONTINUOUS
 62
           7
100
AcDbLine
 10
38918.0
 20
1582.269357450718
 11
38918.0
 21
1642.269357450717
  0
LINE
  5
357
100
AcDbEntity
  8
1
  6
CONTINUOUS
 62
           7
100
AcDbLine
 10
40827.999999999993
 20
1582.269357450718
 11
38918.0
 21
1582.269357450718
  0
LINE
  5
356
100
AcDbEntity
  8
1
  6
CONTINUOUS
 62
           7
100
AcDbLine
 10
40827.999999999993
 20
1639.269357450718
 11
38918.0
 21
1639.269357450718
  0
LINE
  5
355
100
AcDbEntity
  8
1
  6
CONTINUOUS
 62
           7
100
AcDbLine
 10
40827.999999999993
 20
1642.269357450718
 11
38918.0
 21
1642.269357450717
  0
ENDBLK
  5
35A
100
AcDbEntity
  8
0
100
AcDbBlockEnd
  0
BLOCK
  5
4E
100
AcDbEntity
  8
0
100
AcDbBlockBegin
  2
GETRIEBE_DS
 70
           0
 10
4514.356628369576
 20
-3897.890668595384
 30
0.0
  3
GETRIEBE_DS
  1

  0
LWPOLYLINE
  5
384
100
AcDbEntity
  8
0
  6
DOT_CENTER
 62
           3
 60
           1
100
AcDbPolyline
 90
       29
 70
           1
 10
41349.488234219833
 20
1661.269360917277
 10
41352.488134219842
 20
1661.269360917277
 10
41352.488134219842
 20
1641.269360917277
 10
41359.988234219833
 20
1641.269360917277
 10
41365.488218941857
 20
1641.269360917277
 10
41365.488218941857
 20
1639.269360917277
 10
41455.488221635111
 20
1639.269360917277
 10
41455.488221635111
 20
1641.269360917277
 10
41460.988234219833
 20
1641.269360917277
 10
41468.488234219833
 20
1641.269360917277
 10
41468.488234219833
 20
1661.269360917277
 10
41471.488234219833
 20
1661.269360917277
 10
41471.488234219833
 20
1741.269360917277
 10
41468.488234219833
 20
1741.269360917277
 10
41468.488234219833
 20
1761.269360917277
 10
41460.988234219833
 20
1761.269360917277
 10
41455.488221635111
 20
1761.269360917277
 10
41455.488221635111
 20
1786.269260917277
 10
41468.488234219833
 20
1786.269260917277
 10
41468.488234219833
 20
1801.269260917277
 10
41352.488234219833
 20
1801.269260917277
 10
41352.488234219833
 20
1786.269260917277
 10
41365.488218941857
 20
1786.269260917277
 10
41365.488218941857
 20
1761.269360917277
 10
41359.988234219833
 20
1761.269360917277
 10
41352.488134219842
 20
1761.269360917277
 10
41352.488134219842
 20
1741.269360917277
 10
41349.488234219833
 20
1741.269360917277
 10
41349.488234219833
 20
1661.269360917277
  0
LINE
  5
383
100
AcDbEntity
  8
0
  6
DOT_CENTER
 62
           3
100
AcDbLine
 10
41362.988234219833
 20
1783.269260917277
 11
41362.988234219833
 21
1804.269260917277
  0
LINE
  5
382
100
AcDbEntity
  8
0
  6
DOT_CENTER
 62
           3
100
AcDbLine
 10
41457.988234219833
 20
1783.269260917277
 11
41457.988234219833
 21
1804.269260917277
  0
LINE
  5
381
100
AcDbEntity
  8
0
  6
DOT_CENTER
 62
           3
100
AcDbLine
 10
41474.488234219833
 20
1701.269355800089
 11
41346.488234219833
 21
1701.269361034463
  0
LINE
  5
380
100
AcDbEntity
  8
0
  6
DOT_CENTER
 62
           3
100
AcDbLine
 10
41410.488224034641
 20
1804.269260917277
 11
41410.488234405013
 21
1636.269360917277
  0
LINE
  5
37F
100
AcDbEntity
  8
0
  6
CONTINUOUS
 62
           7
100
AcDbLine
 10
41468.488234219833
 20
1761.269360917277
 11
41468.488234219833
 21
1741.269360917277
  0
LINE
  5
37E
100
AcDbEntity
  8
0
  6
CONTINUOUS
 62
           7
100
AcDbLine
 10
41468.488234219833
 20
1741.269360917277
 11
41468.488234219833
 21
1661.269360917277
  0
LINE
  5
37D
100
AcDbEntity
  8
0
  6
CONTINUOUS
 62
           7
100
AcDbLine
 10
41468.488234219833
 20
1741.269360917277
 11
41471.488234219833
 21
1741.269360917277
  0
LINE
  5
37C
100
AcDbEntity
  8
0
  6
CONTINUOUS
 62
           7
100
AcDbLine
 10
41471.488234219833
 20
1741.269360917277
 11
41471.488234219833
 21
1661.269360917277
  0
LINE
  5
37B
100
AcDbEntity
  8
0
  6
CONTINUOUS
 62
           7
100
AcDbLine
 10
41471.488234219833
 20
1661.269360917277
 11
41468.488234219833
 21
1661.269360917277
  0
LINE
  5
37A
100
AcDbEntity
  8
0
  6
CONTINUOUS
 62
           7
100
AcDbLine
 10
41352.488134219842
 20
1761.269360917277
 11
41352.488134219842
 21
1741.269360917277
  0
LINE
  5
379
100
AcDbEntity
  8
0
  6
CONTINUOUS
 62
           7
100
AcDbLine
 10
41352.488134219842
 20
1741.269360917277
 11
41352.488134219842
 21
1661.269360917277
  0
LINE
  5
378
100
AcDbEntity
  8
0
  6
CONTINUOUS
 62
           7
100
AcDbLine
 10
41352.488134219842
 20
1741.269360917277
 11
41349.488234219833
 21
1741.269360917277
  0
LINE
  5
377
100
AcDbEntity
  8
0
  6
CONTINUOUS
 62
           7
100
AcDbLine
 10
41349.488234219833
 20
1741.269360917277
 11
41349.488234219833
 21
1661.269360917277
  0
LINE
  5
376
100
AcDbEntity
  8
0
  6
CONTINUOUS
 62
           7
100
AcDbLine
 10
41349.488234219833
 20
1661.269360917277
 11
41352.488134219842
 21
1661.269360917277
  0
LINE
  5
375
100
AcDbEntity
  8
0
  6
CONTINUOUS
 62
           7
100
AcDbLine
 10
41460.988234219833
 20
1761.269360917277
 11
41468.488234219833
 21
1761.269360917277
  0
LINE
  5
374
100
AcDbEntity
  8
0
  6
CONTINUOUS
 62
           7
100
AcDbLine
 10
41468.488234219833
 20
1661.269360917277
 11
41468.488234219833
 21
1641.269360917277
  0
LINE
  5
373
100
AcDbEntity
  8
0
  6
CONTINUOUS
 62
           7
100
AcDbLine
 10
41468.488234219833
 20
1641.269360917277
 11
41460.988234219833
 21
1641.269360917277
  0
LINE
  5
372
100
AcDbEntity
  8
0
  6
CONTINUOUS
 62
           7
100
AcDbLine
 10
41359.988234219833
 20
1761.269360917277
 11
41352.488134219842
 21
1761.269360917277
  0
LINE
  5
371
100
AcDbEntity
  8
0
  6
CONTINUOUS
 62
           7
100
AcDbLine
 10
41352.488134219842
 20
1661.269360917277
 11
41352.488134219842
 21
1641.269360917277
  0
LINE
  5
370
100
AcDbEntity
  8
0
  6
CONTINUOUS
 62
           7
100
AcDbLine
 10
41352.488134219842
 20
1641.269360917277
 11
41359.988234219833
 21
1641.269360917277
  0
LINE
  5
36F
100
AcDbEntity
  8
0
  6
CONTINUOUS
 62
           7
100
AcDbLine
 10
41455.488221635111
 20
1786.269260917277
 11
41455.488221635111
 21
1761.269360917277
  0
LINE
  5
36E
100
AcDbEntity
  8
0
  6
CONTINUOUS
 62
           7
100
AcDbLine
 10
41455.488221635111
 20
1761.269360917277
 11
41455.488221635111
 21
1641.269360917277
  0
LINE
  5
36D
100
AcDbEntity
  8
0
  6
CONTINUOUS
 62
           7
100
AcDbLine
 10
41455.488221635111
 20
1761.269360917277
 11
41460.988234219833
 21
1761.269360917277
  0
LINE
  5
36C
100
AcDbEntity
  8
0
  6
CONTINUOUS
 62
           7
100
AcDbLine
 10
41460.988234219833
 20
1761.269360917277
 11
41460.988234219833
 21
1641.269360917277
  0
LINE
  5
36B
100
AcDbEntity
  8
0
  6
CONTINUOUS
 62
           7
100
AcDbLine
 10
41460.988234219833
 20
1641.269360917277
 11
41455.488221635111
 21
1641.269360917277
  0
LINE
  5
36A
100
AcDbEntity
  8
0
  6
CONTINUOUS
 62
           7
100
AcDbLine
 10
41365.488218941857
 20
1639.269360917277
 11
41365.488218941857
 21
1641.269360917277
  0
LINE
  5
369
100
AcDbEntity
  8
0
  6
CONTINUOUS
 62
           7
100
AcDbLine
 10
41365.488218941857
 20
1641.269360917277
 11
41365.488218941857
 21
1761.269360917277
  0
LINE
  5
368
100
AcDbEntity
  8
0
  6
CONTINUOUS
 62
           7
100
AcDbLine
 10
41365.488218941857
 20
1761.269360917277
 11
41359.988234219833
 21
1761.269360917277
  0
LINE
  5
367
100
AcDbEntity
  8
0
  6
CONTINUOUS
 62
           7
100
AcDbLine
 10
41359.988234219833
 20
1761.269360917277
 11
41359.988234219833
 21
1641.269360917277
  0
LINE
  5
366
100
AcDbEntity
  8
0
  6
CONTINUOUS
 62
           7
100
AcDbLine
 10
41359.988234219833
 20
1641.269360917277
 11
41365.488218941857
 21
1641.269360917277
  0
LINE
  5
365
100
AcDbEntity
  8
0
  6
CONTINUOUS
 62
           7
100
AcDbLine
 10
41468.488234219833
 20
1786.269260917277
 11
41455.488221635111
 21
1786.269260917277
  0
LINE
  5
364
100
AcDbEntity
  8
0
  6
CONTINUOUS
 62
           7
100
AcDbLine
 10
41455.488221635111
 20
1798.269260917277
 11
41455.488221635111
 21
1786.269260917277
  0
LINE
  5
363
100
AcDbEntity
  8
0
  6
CONTINUOUS
 62
           7
100
AcDbLine
 10
41365.488218941857
 20
1761.269360917277
 11
41365.488218941857
 21
1786.269260917277
  0
LINE
  5
362
100
AcDbEntity
  8
0
  6
CONTINUOUS
 62
           7
100
AcDbLine
 10
41352.488234219833
 20
1801.269260917277
 11
41468.488234219833
 21
1801.269260917277
  0
LINE
  5
361
100
AcDbEntity
  8
0
  6
CONTINUOUS
 62
           7
100
AcDbLine
 10
41468.488234219833
 20
1801.269260917277
 11
41468.488234219833
 21
1786.269260917277
  0
LINE
  5
360
100
AcDbEntity
  8
0
  6
CONTINUOUS
 62
           7
100
AcDbLine
 10
41365.488218941857
 20
1786.269260917277
 11
41352.488234219833
 21
1786.269260917277
  0
LINE
  5
35F
100
AcDbEntity
  8
0
  6
CONTINUOUS
 62
           7
100
AcDbLine
 10
41352.488234219833
 20
1786.269260917277
 11
41352.488234219833
 21
1801.269260917277
  0
LINE
  5
35E
100
AcDbEntity
  8
0
  6
CONTINUOUS
 62
           7
100
AcDbLine
 10
41365.488218941857
 20
1798.269260917277
 11
41455.488221635111
 21
1798.269260917277
  0
LINE
  5
35D
100
AcDbEntity
  8
0
  6
CONTINUOUS
 62
           7
100
AcDbLine
 10
41455.488221635111
 20
1641.269360917277
 11
41455.488221635111
 21
1639.269360917277
  0
LINE
  5
35C
100
AcDbEntity
  8
0
  6
CONTINUOUS
 62
           7
100
AcDbLine
 10
41455.488221635111
 20
1639.269360917277
 11
41365.488218941857
 21
1639.269360917277
  0
LINE
  5
35B
100
AcDbEntity
  8
0
  6
CONTINUOUS
 62
           7
100
AcDbLine
 10
41365.488218941857
 20
1786.269260917277
 11
41365.488218941857
 21
1798.269260917277
  0
ENDBLK
  5
385
100
AcDbEntity
  8
0
100
AcDbBlockEnd
  0
BLOCK
  5
50
100
AcDbEntity
  8
0
100
AcDbBlockBegin
  2
E_MOTOR_DS
 70
           0
 10
4514.356628369576
 20
-3897.890667325853
 30
0.0
  3
E_MOTOR_DS
  1

  0
ARC
  5
395
100
AcDbEntity
  8
1
  6
CONTINUOUS
 62
           7
100
AcDbCircle
 10
41410.488237500089
 20
1701.269352415751
 40
82.999896165543
100
AcDbArc
 50
-40.620618742751
 51
-139.3793795502
  0
ARC
  5
394
100
AcDbEntity
  8
1
  6
CONTINUOUS
 62
           7
100
AcDbCircle
 10
41410.488231494142
 20
1701.269356181187
 40
87.999990159581
100
AcDbArc
 50
90.0
 51
-122.763871649803
  0
ARC
  5
393
100
AcDbEntity
  8
1
  6
CONTINUOUS
 62
           7
100
AcDbCircle
 10
41410.488231494142
 20
1701.269356181187
 40
87.999990159573
100
AcDbArc
 50
-57.23613542377
 51
0.0
  0
ARC
  5
392
100
AcDbEntity
  8
1
  6
CONTINUOUS
 62
           7
100
AcDbCircle
 10
41410.488231494142
 20
1701.269356181187
 40
87.99999015958
100
AcDbArc
 50
0.0
 51
90.0
  0
LINE
  5
391
100
AcDbEntity
  8
1
  6
CONTINUOUS
 62
           7
100
AcDbLine
 10
41398.843395911863
 20
1798.269259647748
 11
41418.488236370671
 21
1798.269259647748
  0
LINE
  5
390
100
AcDbEntity
  8
0
  6
CONTINUOUS
 62
           7
100
AcDbLine
 10
41473.488235275589
 20
1560.269353333513
 11
41347.48824133454
 21
1560.269359144154
  0
LINE
  5
38F
100
AcDbEntity
  8
1
  6
CONTINUOUS
 62
           7
100
AcDbLine
 10
41473.488235275589
 20
1647.232484966037
 11
41473.488235275589
 21
1560.269353333513
  0
LINE
  5
38E
100
AcDbEntity
  8
1
  6
CONTINUOUS
 62
           7
100
AcDbLine
 10
41475.488232807191
 20
1560.269353241283
 11
41475.488232807191
 21
1553.269353211232
  0
LINE
  5
38D
100
AcDbEntity
  8
0
  6
CONTINUOUS
 62
           7
100
AcDbLine
 10
41475.488232807191
 20
1560.269353241283
 11
41473.488235275589
 21
1560.269353333513
  0
LINE
  5
38C
100
AcDbEntity
  8
1
  6
CONTINUOUS
 62
           7
100
AcDbLine
 10
41347.48824133454
 20
1560.269359144154
 11
41347.48824133454
 21
1647.232483089036
  0
LINE
  5
38B
100
AcDbEntity
  8
0
  6
CONTINUOUS
 62
           7
100
AcDbLine
 10
41362.864566125361
 20
1627.269459120923
 11
41458.1118877271
 21
1627.269453241453
  0
LINE
  5
38A
100
AcDbEntity
  8
0
  6
CONTINUOUS
 62
           7
100
AcDbLine
 10
41347.48824133454
 20
1560.269359144154
 11
41345.48824133454
 21
1560.269359267608
  0
LINE
  5
389
100
AcDbEntity
  8
0
  6
CONTINUOUS
 62
           7
100
AcDbLine
 10
41345.488240902443
 20
1553.269359267608
 11
41475.488232807191
 21
1553.269353211232
  0
LINE
  5
388
100
AcDbEntity
  8
0
  6
CONTINUOUS
 62
           7
100
AcDbLine
 10
41345.48824133454
 20
1560.269359267608
 11
41345.488240902443
 21
1553.269359267608
  0
LINE
  5
387
100
AcDbEntity
  8
1
  6
DOT_CENTER
 62
           3
100
AcDbLine
 10
41501.488221653723
 20
1701.269356181187
 11
41319.488241334562
 21
1701.269356181187
  0
LINE
  5
386
100
AcDbEntity
  8
1
  6
DOT_CENTER
 62
           3
100
AcDbLine
 10
41410.488231494142
 20
1789.269346340768
 11
41410.488231494142
 21
1610.269366021603
  0
INSERT
  5
51
100
AcDbEntity
  8
0
100
AcDbBlockReference
  2
GETRIEBE_DS
 10
4514.356628369576
 20
-3897.890669864914
  0
ENDBLK
  5
396
100
AcDbEntity
  8
0
100
AcDbBlockEnd
  0
BLOCK
  5
53
100
AcDbEntity
  8
0
100
AcDbBlockBegin
  2
_MOTOR_DS
 70
           0
 10
4078.556628369577
 20
-4406.890666056323
 30
0.0
  3
_MOTOR_DS
  1

  0
INSERT
  5
54
100
AcDbEntity
  8
0
100
AcDbBlockReference
  2
E_MOTOR_DS
 10
4189.356628369576
 20
-4231.890666056323
  0
ENDBLK
  5
397
100
AcDbEntity
  8
0
100
AcDbBlockEnd
  0
BLOCK
  5
56
100
AcDbEntity
  8
0
100
AcDbBlockBegin
  2
_ANTRIEB_DS
 70
           0
 10
543.459974590814
 20
-3138.223710638835
 30
0.0
  3
_ANTRIEB_DS
  1

  0
INSERT
  5
57
100
AcDbEntity
  8
0
100
AcDbBlockReference
  2
_MOTOR_DS
 10
4078.556628369577
 20
-4406.890666056323
  0
ENDBLK
  5
398
100
AcDbEntity
  8
0
100
AcDbBlockEnd
  0
BLOCK
  5
59
100
AcDbEntity
  8
0
100
AcDbBlockBegin
  2
SEITENPROFIL_DS
 70
           0
 10
8128.528608788558
 20
-1321.124398798776
 30
0.0
  3
SEITENPROFIL_DS
  1

  0
HATCH
  5
48B
100
AcDbEntity
  8
0
  6
CONTINUOUS
 62
           7
100
AcDbHatch
 10
0.0
 20
0.0
 30
0.0
210
0.0
220
0.0
230
1.0
  2
USER
 70
           0
 71
           1
 91
        1
 92
        1
 93
        5
 72
           1
 10
41232.999999999971
 20
1367.2693574507171
 11
41232.999999999971
 21
1452.0884751076601
 72
           1
 10
41232.999999999971
 20
1257.2693574507171
 11
41232.999999999971
 21
1367.2693574507171
 72
           1
 10
41182.999999999971
 20
1257.2693574507171
 11
41232.999999999971
 21
1257.2693574507171
 72
           1
 10
41182.999999999971
 20
1257.2693574507171
 11
41182.999999999971
 21
1452.0884751076601
 72
           1
 10
41232.999999999971
 20
1452.0884751076601
 11
41182.999999999971
 21
1452.0884751076601
 97
        5
330
39B
330
399
330
39A
330
39E
330
39C
 75
           1
 76
           0
 52
45.0
 41
30.0
 77
           0
 78
           2
 53
135.0
 43
0.0
 44
0.0
 45
-21.213203435596419
 46
-21.213203435596434
 79
           0
 53
45.0
 43
0.0
 44
0.0
 45
-21.213203435596427
 46
21.213203435596427
 79
           0
 98
        1
 10
0.0
 20
0.0
  0
HATCH
  5
48A
100
AcDbEntity
  8
0
  6
CONTINUOUS
 62
           7
100
AcDbHatch
 10
0.0
 20
0.0
 30
0.0
210
0.0
220
0.0
230
1.0
  2
USER
 70
           0
 71
           1
 91
        1
 92
        1
 93
        5
 72
           1
 10
38563.0
 20
1269.2693574507171
 11
38563.0
 21
1464.0884751076601
 72
           1
 10
38513.0
 20
1269.2693574507171
 11
38563.0
 21
1269.2693574507171
 72
           1
 10
38513.0
 20
1379.2693574507171
 11
38513.0
 21
1269.2693574507171
 72
           1
 10
38513.0
 20
1464.0884751076601
 11
38513.0
 21
1379.2693574507171
 72
           1
 10
38563.0
 20
1464.0884751076601
 11
38513.0
 21
1464.0884751076601
 97
        5
330
3C9
330
410
330
411
330
40F
330
40D
 75
           1
 76
           0
 52
45.0
 41
30.0
 77
           0
 78
           2
 53
135.0
 43
0.0
 44
0.0
 45
-21.213203435596419
 46
-21.213203435596434
 79
           0
 53
45.0
 43
0.0
 44
0.0
 45
-21.213203435596427
 46
21.213203435596427
 79
           0
 98
        1
 10
0.0
 20
0.0
  0
DIMENSION
  5
489
100
AcDbEntity
  8
0
100
AcDbDimension
  2
*D53
 10
38513.0
 20
937.092162846797
 11
38268.551486404103
 21
1045.42549618013
 31
0.0
  1
<>
  3
ME10_DIM_20
100
AcDbAlignedDimension
 13
38563.0
 23
1269.269357450717
 14
38513.0
 24
1269.269357450717
100
AcDbRotatedDimension
  0
DIMENSION
  5
47C
100
AcDbEntity
  8
0
100
AcDbDimension
  2
*D52
 10
41232.999999999971
 20
464.91858932504
 11
41445.714889095987
 21
573.251922658373
 31
0.0
 70
           1
  1
<>
  3
ME10_DIM_19
100
AcDbAlignedDimension
 13
41182.999999999971
 23
1257.269357450717
 14
41232.999999999971
 24
1257.269357450717
  0
ARC
  5
46F
100
AcDbEntity
  8
1
  6
CONTINUOUS
 62
           7
100
AcDbCircle
 10
38912.000000000022
 20
1477.269357450718
 40
3.0
100
AcDbArc
 50
-90.0
 51
0.0
  0
ARC
  5
46E
100
AcDbEntity
  8
1
  6
CONTINUOUS
 62
           7
100
AcDbCircle
 10
38912.000000000022
 20
1477.269357450718
 40
6.0
100
AcDbArc
 50
-90.0
 51
0.0
  0
ARC
  5
46D
100
AcDbEntity
  8
1
  6
CONTINUOUS
 62
           7
100
AcDbCircle
 10
40833.999999999993
 20
1477.269357450718
 40
6.0
100
AcDbArc
 50
180.0
 51
-90.0
  0
ARC
  5
46C
100
AcDbEntity
  8
1
  6
CONTINUOUS
 62
           7
100
AcDbCircle
 10
40833.999999999993
 20
1477.269357450718
 40
3.0
100
AcDbArc
 50
180.0
 51
-90.0
  0
ARC
  5
46B
100
AcDbEntity
  8
1
  6
CONTINUOUS
 62
           7
100
AcDbCircle
 10
36689.367305054453
 20
1559.698611025298
 40
3.0
100
AcDbArc
 50
90.0
 51
180.0
  0
ARC
  5
46A
100
AcDbEntity
  8
1
  6
CONTINUOUS
 62
           7
100
AcDbCircle
 10
36689.367305054453
 20
1559.698611025298
 40
5.999999999999
100
AcDbArc
 50
90.0
 51
-179.999999999989
  0
ARC
  5
469
100
AcDbEntity
  8
1
  6
CONTINUOUS
 62
           7
100
AcDbCircle
 10
36649.439057101488
 20
1415.698611025299
 40
3.0
100
AcDbArc
 50
90.0
 51
180.0
  0
CIRCLE
  5
468
100
AcDbEntity
  8
1
  6
CONTINUOUS
 62
           7
100
AcDbCircle
 10
41052.999999999993
 20
1572.269357450718
 40
19.0
  0
CIRCLE
  5
467
100
AcDbEntity
  8
1
  6
CONTINUOUS
 62
           7
100
AcDbCircle
 10
41052.999999999993
 20
1502.269357450717
 40
19.0
  0
CIRCLE
  5
466
100
AcDbEntity
  8
1
  6
CONTINUOUS
 62
           7
100
AcDbCircle
 10
41118.0
 20
1502.269357450717
 40
19.000000000007
  0
CIRCLE
  5
465
100
AcDbEntity
  8
1
  6
CONTINUOUS
 62
           7
100
AcDbCircle
 10
41118.0
 20
1572.269357450718
 40
19.000000000007
  0
CIRCLE
  5
464
100
AcDbEntity
  8
1
  6
CONTINUOUS
 62
           7
100
AcDbCircle
 10
41118.0
 20
1502.269357450717
 40
25.000000000007
  0
CIRCLE
  5
463
100
AcDbEntity
  8
1
  6
CONTINUOUS
 62
           7
100
AcDbCircle
 10
41052.999999999993
 20
1502.269357450717
 40
25.0
  0
CIRCLE
  5
462
100
AcDbEntity
  8
1
  6
CONTINUOUS
 62
           7
100
AcDbCircle
 10
41118.0
 20
1572.269357450718
 40
25.000000000007
  0
CIRCLE
  5
461
100
AcDbEntity
  8
1
  6
CONTINUOUS
 62
           7
100
AcDbCircle
 10
41052.999999999993
 20
1572.269357450718
 40
25.0
  0
CIRCLE
  5
460
100
AcDbEntity
  8
1
  6
CONTINUOUS
 62
           7
100
AcDbCircle
 10
38713.0
 20
1572.269357450718
 40
19.0
  0
CIRCLE
  5
45F
100
AcDbEntity
  8
1
  6
CONTINUOUS
 62
           7
100
AcDbCircle
 10
38713.0
 20
1502.269357450717
 40
19.0
  0
CIRCLE
  5
45E
100
AcDbEntity
  8
1
  6
CONTINUOUS
 62
           7
100
AcDbCircle
 10
38713.0
 20
1502.269357450717
 40
25.0
  0
CIRCLE
  5
45D
100
AcDbEntity
  8
1
  6
CONTINUOUS
 62
           7
100
AcDbCircle
 10
38713.0
 20
1572.269357450718
 40
25.0
  0
CIRCLE
  5
45C
100
AcDbEntity
  8
1
  6
CONTINUOUS
 62
           7
100
AcDbCircle
 10
36784.880521192332
 20
1340.698611025298
 40
19.0
  0
CIRCLE
  5
45B
100
AcDbEntity
  8
1
  6
CONTINUOUS
 62
           7
100
AcDbCircle
 10
36714.880521192332
 20
1340.698611025298
 40
19.0
  0
CIRCLE
  5
45A
100
AcDbEntity
  8
1
  6
CONTINUOUS
 62
           7
100
AcDbCircle
 10
36714.880521192332
 20
1275.698611025289
 40
19.000000000009
  0
CIRCLE
  5
459
100
AcDbEntity
  8
1
  6
CONTINUOUS
 62
           7
100
AcDbCircle
 10
36784.880521192332
 20
1275.698611025289
 40
19.000000000009
  0
CIRCLE
  5
458
100
AcDbEntity
  8
1
  6
CONTINUOUS
 62
           7
100
AcDbCircle
 10
36714.880521192332
 20
1275.698611025289
 40
25.000000000009
  0
CIRCLE
  5
457
100
AcDbEntity
  8
1
  6
CONTINUOUS
 62
           7
100
AcDbCircle
 10
36714.880521192332
 20
1340.698611025298
 40
25.0
  0
CIRCLE
  5
456
100
AcDbEntity
  8
1
  6
CONTINUOUS
 62
           7
100
AcDbCircle
 10
36784.880521192332
 20
1275.698611025289
 40
25.000000000009
  0
CIRCLE
  5
455
100
AcDbEntity
  8
1
  6
CONTINUOUS
 62
           7
100
AcDbCircle
 10
36784.880521192332
 20
1340.698611025298
 40
25.0
  0
CIRCLE
  5
454
100
AcDbEntity
  8
1
  6
CONTINUOUS
 62
           7
100
AcDbCircle
 10
36644.880521192332
 20
1340.698611025298
 40
25.0
  0
CIRCLE
  5
453
100
AcDbEntity
  8
1
  6
CONTINUOUS
 62
           7
100
AcDbCircle
 10
36644.880521192332
 20
1275.698611025289
 40
25.000000000009
  0
CIRCLE
  5
452
100
AcDbEntity
  8
1
  6
CONTINUOUS
 62
           7
100
AcDbCircle
 10
36644.880521192332
 20
1275.698611025289
 40
19.000000000009
  0
CIRCLE
  5
451
100
AcDbEntity
  8
1
  6
CONTINUOUS
 62
           7
100
AcDbCircle
 10
36644.880521192332
 20
1340.698611025298
 40
19.0
  0
LINE
  5
450
100
AcDbEntity
  8
1
  6
CONTINUOUS
 62
           7
100
AcDbLine
 10
38818.0
 20
1152.269357450717
 11
38818.0
 21
1172.269357450717
  0
LINE
  5
44F
100
AcDbEntity
  8
1
  6
CONTINUOUS
 62
           7
100
AcDbLine
 10
38818.0
 20
1172.269357450717
 11
39872.999999999993
 21
1172.269357450717
  0
LINE
  5
44E
100
AcDbEntity
  8
1
  6
CONTINUOUS
 62
           7
100
AcDbLine
 10
39872.999999999993
 20
1152.269357450717
 11
38818.0
 21
1152.269357450717
  0
LINE
  5
44D
100
AcDbEntity
  8
1
  6
CONTINUOUS
 62
           7
100
AcDbLine
 10
40928.0
 20
1152.269357450717
 11
39872.999999999993
 21
1152.269357450717
  0
LINE
  5
44C
100
AcDbEntity
  8
1
  6
CONTINUOUS
 62
           7
100
AcDbLine
 10
40927.999999999993
 20
1172.269357450717
 11
40928.0
 21
1152.269357450717
  0
LINE
  5
44B
100
AcDbEntity
  8
1
  6
CONTINUOUS
 62
           7
100
AcDbLine
 10
40928.0
 20
1152.269357450717
 11
39872.999999999993
 21
1152.269357450717
  0
LINE
  5
44A
100
AcDbEntity
  8
1
  6
CONTINUOUS
 62
           7
100
AcDbLine
 10
40927.999999999993
 20
1172.269357450717
 11
40928.0
 21
1152.269357450717
  0
LINE
  5
449
100
AcDbEntity
  8
1
  6
CONTINUOUS
 62
           7
100
AcDbLine
 10
39872.999999999993
 20
1172.269357450717
 11
40927.999999999993
 21
1172.269357450717
  0
LINE
  5
448
100
AcDbEntity
  8
1
  6
CONTINUOUS
 62
           7
100
AcDbLine
 10
41022.48824133454
 20
1305.269357450717
 11
41022.48824133454
 21
1308.269357450717
  0
LINE
  5
447
100
AcDbEntity
  8
1
  6
CONTINUOUS
 62
           7
100
AcDbLine
 10
41148.488235275603
 20
1305.269357450717
 11
41148.488235275603
 21
1308.269357450717
  0
LINE
  5
446
100
AcDbEntity
  8
1
  6
CONTINUOUS
 62
           7
100
AcDbLine
 10
41148.488235275603
 20
1305.269357450717
 11
41182.999999999971
 21
1305.269357450717
  0
LINE
  5
445
100
AcDbEntity
  8
1
  6
CONTINUOUS
 62
           7
100
AcDbLine
 10
41148.488235275603
 20
1308.269357450717
 11
41182.999999999971
 21
1308.269357450717
  0
LINE
  5
444
100
AcDbEntity
  8
1
  6
CONTINUOUS
 62
           7
100
AcDbLine
 10
40977.999999999971
 20
1305.269357450717
 11
41022.48824133454
 21
1305.269357450717
  0
LINE
  5
443
100
AcDbEntity
  8
1
  6
CONTINUOUS
 62
           7
100
AcDbLine
 10
40980.999999999971
 20
1308.269357450717
 11
41022.48824133454
 21
1308.269357450717
  0
LINE
  5
442
100
AcDbEntity
  8
1
  6
CONTINUOUS
 62
           7
100
AcDbLine
 10
40977.999999999971
 20
1305.269357450717
 11
40977.999999999971
 21
1313.269357450717
  0
LINE
  5
441
100
AcDbEntity
  8
1
  6
CONTINUOUS
 62
           7
100
AcDbLine
 10
40980.999999999971
 20
1308.269357450717
 11
40980.999999999971
 21
1313.269357450717
  0
LINE
  5
440
100
AcDbEntity
  8
1
  6
CONTINUOUS
 62
           7
100
AcDbLine
 10
40980.999999999971
 20
1313.269357450717
 11
40977.999999999971
 21
1313.269357450717
  0
LINE
  5
43F
100
AcDbEntity
  8
1
  6
CONTINUOUS
 62
           7
100
AcDbLine
 10
40989.999999999971
 20
1313.269357450717
 11
40980.999999999971
 21
1313.269357450717
  0
LINE
  5
43E
100
AcDbEntity
  8
1
  6
CONTINUOUS
 62
           7
100
AcDbLine
 10
40977.999999999993
 20
1421.269357450717
 11
40980.999999999993
 21
1421.269357450717
  0
LINE
  5
43D
100
AcDbEntity
  8
1
  6
CONTINUOUS
 62
           7
100
AcDbLine
 10
40980.999999999993
 20
1421.269357450717
 11
40994.19709704331
 21
1421.269357450717
  0
LINE
  5
43C
100
AcDbEntity
  8
1
  6
CONTINUOUS
 62
           7
100
AcDbLine
 10
38765.0
 20
1313.269357450717
 11
38756.0
 21
1313.269357450717
  0
LINE
  5
43B
100
AcDbEntity
  8
1
  6
CONTINUOUS
 62
           7
100
AcDbLine
 10
38768.0
 20
1313.269357450717
 11
38765.0
 21
1313.269357450717
  0
LINE
  5
43A
100
AcDbEntity
  8
1
  6
CONTINUOUS
 62
           7
100
AcDbLine
 10
38765.0
 20
1421.269357450717
 11
38768.0
 21
1421.269357450717
  0
LINE
  5
439
100
AcDbEntity
  8
1
  6
CONTINUOUS
 62
           7
100
AcDbLine
 10
38768.0
 20
1421.269357450717
 11
38865.0
 21
1421.269357450717
  0
LINE
  5
438
100
AcDbEntity
  8
1
  6
CONTINUOUS
 62
           7
100
AcDbLine
 10
38765.0
 20
1313.269357450717
 11
38765.0
 21
1308.269357450717
  0
LINE
  5
437
100
AcDbEntity
  8
1
  6
CONTINUOUS
 62
           7
100
AcDbLine
 10
38768.0
 20
1313.269357450717
 11
38768.0
 21
1305.269357450717
  0
LINE
  5
436
100
AcDbEntity
  8
1
  6
CONTINUOUS
 62
           7
100
AcDbLine
 10
38563.0
 20
1308.269357450717
 11
38765.0
 21
1308.269357450717
  0
LINE
  5
435
100
AcDbEntity
  8
1
  6
CONTINUOUS
 62
           7
100
AcDbLine
 10
38756.0
 20
1421.269357450717
 11
38756.0
 21
1313.269357450717
  0
LINE
  5
434
100
AcDbEntity
  8
1
  6
CONTINUOUS
 62
           7
100
AcDbLine
 10
40877.999999999993
 20
1187.269357450717
 11
40877.999999999993
 21
1313.269357450717
  0
LINE
  5
433
100
AcDbEntity
  8
1
  6
CONTINUOUS
 62
           7
100
AcDbLine
 10
40880.999999999993
 20
1187.269357450717
 11
40880.999999999993
 21
1313.269357450717
  0
LINE
  5
432
100
AcDbEntity
  8
1
  6
CONTINUOUS
 62
           7
100
AcDbLine
 10
40885.999999999993
 20
1172.269357450717
 11
40872.999999999993
 21
1172.269357450717
  0
LINE
  5
431
100
AcDbEntity
  8
1
  6
CONTINUOUS
 62
           7
100
AcDbLine
 10
40872.999999999993
 20
1172.269357450717
 11
40872.999999999993
 21
1187.269357450717
  0
LINE
  5
430
100
AcDbEntity
  8
1
  6
CONTINUOUS
 62
           7
100
AcDbLine
 10
40872.999999999993
 20
1187.269357450717
 11
40885.999999999993
 21
1187.269357450717
  0
LINE
  5
42F
100
AcDbEntity
  8
1
  6
CONTINUOUS
 62
           7
100
AcDbLine
 10
40885.999999999993
 20
1187.269357450717
 11
40885.999999999993
 21
1172.269357450717
  0
LINE
  5
42E
100
AcDbEntity
  8
1
  6
CONTINUOUS
 62
           7
100
AcDbLine
 10
40880.999999999993
 20
1313.269357450717
 11
40877.999999999993
 21
1313.269357450717
  0
LINE
  5
42D
100
AcDbEntity
  8
1
  6
CONTINUOUS
 62
           7
100
AcDbLine
 10
40877.999999999993
 20
1421.269357450717
 11
40880.999999999993
 21
1421.269357450717
  0
LINE
  5
42C
100
AcDbEntity
  8
1
  6
CONTINUOUS
 62
           7
100
AcDbLine
 10
40880.999999999993
 20
1421.269357450717
 11
40977.999999999993
 21
1421.269357450717
  0
LINE
  5
42B
100
AcDbEntity
  8
1
  6
CONTINUOUS
 62
           7
100
AcDbLine
 10
38868.0
 20
1313.269357450717
 11
38868.0
 21
1187.269357450717
  0
LINE
  5
42A
100
AcDbEntity
  8
1
  6
CONTINUOUS
 62
           7
100
AcDbLine
 10
38865.0
 20
1313.269357450717
 11
38865.0
 21
1187.269357450717
  0
LINE
  5
429
100
AcDbEntity
  8
1
  6
CONTINUOUS
 62
           7
100
AcDbLine
 10
38873.0
 20
1172.269357450717
 11
38860.0
 21
1172.269357450717
  0
LINE
  5
428
100
AcDbEntity
  8
1
  6
CONTINUOUS
 62
           7
100
AcDbLine
 10
38873.0
 20
1187.269357450717
 11
38873.0
 21
1172.269357450717
  0
LINE
  5
427
100
AcDbEntity
  8
1
  6
CONTINUOUS
 62
           7
100
AcDbLine
 10
38860.0
 20
1187.269357450717
 11
38873.0
 21
1187.269357450717
  0
LINE
  5
426
100
AcDbEntity
  8
1
  6
CONTINUOUS
 62
           7
100
AcDbLine
 10
38860.0
 20
1172.269357450717
 11
38860.0
 21
1187.269357450717
  0
LINE
  5
425
100
AcDbEntity
  8
1
  6
CONTINUOUS
 62
           7
100
AcDbLine
 10
38868.0
 20
1313.269357450717
 11
38865.0
 21
1313.269357450717
  0
LINE
  5
424
100
AcDbEntity
  8
1
  6
CONTINUOUS
 62
           7
100
AcDbLine
 10
38865.0
 20
1421.269357450717
 11
38868.0
 21
1421.269357450717
  0
LINE
  5
423
100
AcDbEntity
  8
1
  6
CONTINUOUS
 62
           7
100
AcDbLine
 10
38868.0
 20
1421.269357450717
 11
39872.999999999993
 21
1421.269357450717
  0
LINE
  5
422
100
AcDbEntity
  8
1
  6
DOT_CENTER
 62
           3
100
AcDbLine
 10
39872.999999999993
 20
1313.269357450717
 11
39872.999999999993
 21
1091.3480557906
  0
LINE
  5
421
100
AcDbEntity
  8
1
  6
CONTINUOUS
 62
           7
100
AcDbLine
 10
40994.197097043303
 20
1313.269357450717
 11
39872.999999999993
 21
1313.269357450717
  0
LINE
  5
420
100
AcDbEntity
  8
1
  6
CONTINUOUS
 62
           7
100
AcDbLine
 10
38918.000000000022
 20
1512.269357450717
 11
38918.000000000022
 21
1477.269357450718
  0
LINE
  5
41F
100
AcDbEntity
  8
1
  6
CONTINUOUS
 62
           7
100
AcDbLine
 10
38915.000000000022
 20
1512.269357450717
 11
38915.000000000022
 21
1477.269357450718
  0
LINE
  5
41E
100
AcDbEntity
  8
1
  6
CONTINUOUS
 62
           7
100
AcDbLine
 10
38768.000000000022
 20
1471.269357450718
 11
38912.000000000022
 21
1471.269357450718
  0
LINE
  5
41D
100
AcDbEntity
  8
1
  6
CONTINUOUS
 62
           7
100
AcDbLine
 10
38768.000000000022
 20
1474.269357450718
 11
38912.000000000022
 21
1474.269357450718
  0
LINE
  5
41C
100
AcDbEntity
  8
1
  6
CONTINUOUS
 62
           7
100
AcDbLine
 10
40833.999999999993
 20
1474.269357450718
 11
40977.999999999993
 21
1474.269357450718
  0
LINE
  5
41B
100
AcDbEntity
  8
1
  6
CONTINUOUS
 62
           7
100
AcDbLine
 10
40977.999999999993
 20
1471.269357450718
 11
40977.999999999993
 21
1639.269357450717
  0
LINE
  5
41A
100
AcDbEntity
  8
1
  6
CONTINUOUS
 62
           7
100
AcDbLine
 10
40833.999999999993
 20
1471.269357450718
 11
40977.999999999993
 21
1471.269357450718
  0
LINE
  5
419
100
AcDbEntity
  8
1
  6
CONTINUOUS
 62
           7
100
AcDbLine
 10
41014.733724004429
 20
1382.269360911784
 11
41014.733724004429
 21
1387.269357450717
  0
LINE
  5
418
100
AcDbEntity
  8
1
  6
CONTINUOUS
 62
           7
100
AcDbLine
 10
41024.488234219833
 20
1382.269360911784
 11
41014.733724004429
 21
1382.269360911784
  0
LINE
  5
417
100
AcDbEntity
  8
1
  6
CONTINUOUS
 62
           7
100
AcDbLine
 10
41014.733724004429
 20
1352.269357450717
 11
41014.733724004429
 21
1382.269360911784
  0
LINE
  5
416
100
AcDbEntity
  8
1
  6
CONTINUOUS
 62
           7
100
AcDbLine
 10
41024.488234219833
 20
1352.269357450717
 11
41014.733724004429
 21
1352.269357450717
  0
LINE
  5
415
100
AcDbEntity
  8
1
  6
CONTINUOUS
 62
           7
100
AcDbLine
 10
41179.999999999993
 20
1442.269357450717
 11
41179.999999999993
 21
1472.26935592277
  0
LINE
  5
414
100
AcDbEntity
  8
1
  6
CONTINUOUS
 62
           7
100
AcDbLine
 10
41146.488234219833
 20
1352.269357450717
 11
41179.999999999993
 21
1352.269357450717
  0
LINE
  5
413
100
AcDbEntity
  8
1
  6
CONTINUOUS
 62
           7
100
AcDbLine
 10
41179.999999999993
 20
1292.269355922771
 11
41179.999999999993
 21
1639.269357450717
  0
LINE
  5
412
100
AcDbEntity
  8
1
  6
CONTINUOUS
 62
           7
100
AcDbLine
 10
41146.488234219833
 20
1382.269355922771
 11
41179.999999999993
 21
1382.269355922771
  0
LINE
  5
411
100
AcDbEntity
  8
1
  6
DOT_CENTER
 62
           3
100
AcDbLine
 10
38513.0
 20
1379.269357450717
 11
38513.0
 21
1269.269357450717
  0
LINE
  5
410
100
AcDbEntity
  8
1
  6
DOT_CENTER
 62
           3
100
AcDbLine
 10
38513.0
 20
1269.269357450717
 11
38563.0
 21
1269.269357450717
  0
LINE
  5
40F
100
AcDbEntity
  8
1
  6
DOT_CENTER
 62
           3
100
AcDbLine
 10
38513.0
 20
1464.08847510766
 11
38513.0
 21
1379.269357450717
  0
LINE
  5
40E
100
AcDbEntity
  8
1
  6
CONTINUOUS
 62
           7
100
AcDbLine
 10
38563.0
 20
1362.08847510766
 11
38563.0
 21
1642.269357450717
  0
LINE
  5
40D
100
AcDbEntity
  8
1
  6
DOT_CENTER
 62
           3
100
AcDbLine
 10
38563.0
 20
1464.08847510766
 11
38513.0
 21
1464.08847510766
  0
LINE
  5
40C
100
AcDbEntity
  8
1
  6
CONTINUOUS
 62
           7
100
AcDbLine
 10
40830.999999999993
 20
1477.269357450718
 11
40830.999999999993
 21
1512.269357450717
  0
LINE
  5
40B
100
AcDbEntity
  8
1
  6
CONTINUOUS
 62
           7
100
AcDbLine
 10
40827.999999999993
 20
1477.269357450718
 11
40827.999999999993
 21
1512.269357450717
  0
LINE
  5
40A
100
AcDbEntity
  8
1
  6
CONTINUOUS
 62
           7
100
AcDbLine
 10
40980.999999999993
 20
1421.269357450717
 11
40980.999999999993
 21
1639.269357450717
  0
LINE
  5
409
100
AcDbEntity
  8
1
  6
CONTINUOUS
 62
           7
100
AcDbLine
 10
40977.999999999993
 20
1421.269357450717
 11
40977.999999999993
 21
1471.269357450718
  0
LINE
  5
408
100
AcDbEntity
  8
1
  6
CONTINUOUS
 62
           7
100
AcDbLine
 10
40885.999999999993
 20
1529.269357450717
 11
40885.999999999993
 21
1514.269357450717
  0
LINE
  5
407
100
AcDbEntity
  8
1
  6
CONTINUOUS
 62
           7
100
AcDbLine
 10
40885.999999999993
 20
1514.269357450717
 11
40872.999999999993
 21
1514.269357450717
  0
LINE
  5
406
100
AcDbEntity
  8
1
  6
CONTINUOUS
 62
           7
100
AcDbLine
 10
40872.999999999993
 20
1514.269357450717
 11
40872.999999999993
 21
1529.269357450717
  0
LINE
  5
405
100
AcDbEntity
  8
1
  6
CONTINUOUS
 62
           7
100
AcDbLine
 10
40872.999999999993
 20
1529.269357450717
 11
40885.999999999993
 21
1529.269357450717
  0
LINE
  5
404
100
AcDbEntity
  8
1
  6
CONTINUOUS
 62
           7
100
AcDbLine
 10
40838.999999999993
 20
1528.269357450717
 11
40838.999999999993
 21
1512.269357450717
  0
LINE
  5
403
100
AcDbEntity
  8
1
  6
CONTINUOUS
 62
           7
100
AcDbLine
 10
40838.999999999993
 20
1512.269357450717
 11
40822.999999999993
 21
1512.269357450717
  0
LINE
  5
402
100
AcDbEntity
  8
1
  6
CONTINUOUS
 62
           7
100
AcDbLine
 10
40822.999999999993
 20
1512.269357450717
 11
40822.999999999993
 21
1528.269357450717
  0
LINE
  5
401
100
AcDbEntity
  8
1
  6
CONTINUOUS
 62
           7
100
AcDbLine
 10
40822.999999999993
 20
1528.269357450717
 11
40838.999999999993
 21
1528.269357450717
  0
LINE
  5
400
100
AcDbEntity
  8
1
  6
CONTINUOUS
 62
           7
100
AcDbLine
 10
40838.999999999993
 20
1565.269357450717
 11
40838.999999999993
 21
1549.269357450717
  0
LINE
  5
3FF
100
AcDbEntity
  8
1
  6
CONTINUOUS
 62
           7
100
AcDbLine
 10
40838.999999999993
 20
1549.269357450717
 11
40822.999999999993
 21
1549.269357450717
  0
LINE
  5
3FE
100
AcDbEntity
  8
1
  6
CONTINUOUS
 62
           7
100
AcDbLine
 10
40822.999999999993
 20
1549.269357450717
 11
40822.999999999993
 21
1565.269357450717
  0
LINE
  5
3FD
100
AcDbEntity
  8
1
  6
CONTINUOUS
 62
           7
100
AcDbLine
 10
40822.999999999993
 20
1565.269357450717
 11
40838.999999999993
 21
1565.269357450717
  0
LINE
  5
3FC
100
AcDbEntity
  8
1
  6
CONTINUOUS
 62
           7
100
AcDbLine
 10
40880.999999999993
 20
1421.269357450717
 11
40880.999999999993
 21
1514.269357450717
  0
LINE
  5
3FB
100
AcDbEntity
  8
1
  6
CONTINUOUS
 62
           7
100
AcDbLine
 10
40877.999999999993
 20
1421.269357450717
 11
40877.999999999993
 21
1514.269357450717
  0
LINE
  5
3FA
100
AcDbEntity
  8
1
  6
CONTINUOUS
 62
           7
100
AcDbLine
 10
40994.197097043303
 20
1387.269357450718
 11
40994.197097043289
 21
1347.269357450718
  0
LINE
  5
3F9
100
AcDbEntity
  8
1
  6
CONTINUOUS
 62
           7
100
AcDbLine
 10
40994.197097043289
 20
1347.269357450718
 11
41014.733724004429
 21
1347.269357450717
  0
LINE
  5
3F8
100
AcDbEntity
  8
1
  6
CONTINUOUS
 62
           7
100
AcDbLine
 10
41014.733724004429
 20
1347.269357450717
 11
41014.733724004429
 21
1352.269357450717
  0
LINE
  5
3F7
100
AcDbEntity
  8
1
  6
CONTINUOUS
 62
           7
100
AcDbLine
 10
41014.733724004429
 20
1387.269357450717
 11
40994.197097043303
 21
1387.269357450718
  0
LINE
  5
3F6
100
AcDbEntity
  8
1
  6
CONTINUOUS
 62
           7
100
AcDbLine
 10
40994.19709704331
 20
1421.269357450717
 11
40994.197097043303
 21
1313.269357450717
  0
LINE
  5
3F5
100
AcDbEntity
  8
1
  6
CONTINUOUS
 62
           7
100
AcDbLine
 10
39872.999999999993
 20
1421.269357450717
 11
40877.999999999993
 21
1421.269357450717
  0
LINE
  5
3F4
100
AcDbEntity
  8
1
  6
CONTINUOUS
 62
           7
100
AcDbLine
 10
40927.999999999993
 20
1549.269357450717
 11
40928.0
 21
1529.269357450717
  0
LINE
  5
3F3
100
AcDbEntity
  8
1
  6
CONTINUOUS
 62
           7
100
AcDbLine
 10
40928.0
 20
1529.269357450717
 11
39872.999999999993
 21
1529.269357450717
  0
LINE
  5
3F2
100
AcDbEntity
  8
1
  6
CONTINUOUS
 62
           7
100
AcDbLine
 10
39872.999999999993
 20
1549.269357450717
 11
40927.999999999993
 21
1549.269357450717
  0
LINE
  5
3F1
100
AcDbEntity
  8
1
  6
CONTINUOUS
 62
           7
100
AcDbLine
 10
40830.999999999993
 20
1639.269357450717
 11
41179.999999999993
 21
1639.269357450717
  0
LINE
  5
3F0
100
AcDbEntity
  8
1
  6
CONTINUOUS
 62
           7
100
AcDbLine
 10
40830.999999999993
 20
1565.269357450717
 11
40830.999999999993
 21
1639.269357450717
  0
LINE
  5
3EF
100
AcDbEntity
  8
1
  6
CONTINUOUS
 62
           7
100
AcDbLine
 10
40827.999999999993
 20
1565.269357450717
 11
40827.999999999993
 21
1642.269357450717
  0
LINE
  5
3EE
100
AcDbEntity
  8
1
  6
DOT_CENTER
 62
           3
100
AcDbLine
 10
39806.145641557348
 20
1367.269357450717
 11
41285.829334628383
 21
1367.269357450717
  0
LINE
  5
3ED
100
AcDbEntity
  8
1
  6
CONTINUOUS
 62
           7
100
AcDbLine
 10
40827.999999999993
 20
1642.269357450717
 11
41182.999999999993
 21
1642.269357450717
  0
LINE
  5
3EC
100
AcDbEntity
  8
1
  6
CONTINUOUS
 62
           7
100
AcDbLine
 10
41179.999999999993
 20
1257.269357450717
 11
41179.999999999993
 21
1352.269357450717
  0
LINE
  5
3EB
100
AcDbEntity
  8
1
  6
CONTINUOUS
 62
           7
100
AcDbLine
 10
41182.999999999993
 20
1642.269357450717
 11
41182.999999999993
 21
1167.269357450717
  0
LINE
  5
3EA
100
AcDbEntity
  8
1
  6
CONTINUOUS
 62
           7
100
AcDbLine
 10
38563.0
 20
1305.269357450717
 11
38768.0
 21
1305.269357450717
  0
LINE
  5
3E9
100
AcDbEntity
  8
1
  6
CONTINUOUS
 62
           7
100
AcDbLine
 10
38765.0
 20
1639.269357450717
 11
38765.0
 21
1421.269357450717
  0
LINE
  5
3E8
100
AcDbEntity
  8
1
  6
CONTINUOUS
 62
           7
100
AcDbLine
 10
38768.0
 20
1639.269357450717
 11
38768.0
 21
1421.269357450717
  0
LINE
  5
3E7
100
AcDbEntity
  8
1
  6
CONTINUOUS
 62
           7
100
AcDbLine
 10
38860.0
 20
1514.269357450717
 11
38860.0
 21
1529.269357450717
  0
LINE
  5
3E6
100
AcDbEntity
  8
1
  6
CONTINUOUS
 62
           7
100
AcDbLine
 10
38873.0
 20
1514.269357450717
 11
38860.0
 21
1514.269357450717
  0
LINE
  5
3E5
100
AcDbEntity
  8
1
  6
CONTINUOUS
 62
           7
100
AcDbLine
 10
38873.0
 20
1529.269357450717
 11
38873.0
 21
1514.269357450717
  0
LINE
  5
3E4
100
AcDbEntity
  8
1
  6
CONTINUOUS
 62
           7
100
AcDbLine
 10
38860.0
 20
1529.269357450717
 11
38873.0
 21
1529.269357450717
  0
LINE
  5
3E3
100
AcDbEntity
  8
1
  6
CONTINUOUS
 62
           7
100
AcDbLine
 10
38907.0
 20
1512.269357450717
 11
38907.0
 21
1528.269357450717
  0
LINE
  5
3E2
100
AcDbEntity
  8
1
  6
CONTINUOUS
 62
           7
100
AcDbLine
 10
38923.0
 20
1512.269357450717
 11
38907.0
 21
1512.269357450717
  0
LINE
  5
3E1
100
AcDbEntity
  8
1
  6
CONTINUOUS
 62
           7
100
AcDbLine
 10
38923.0
 20
1528.269357450717
 11
38923.0
 21
1512.269357450717
  0
LINE
  5
3E0
100
AcDbEntity
  8
1
  6
CONTINUOUS
 62
           7
100
AcDbLine
 10
38907.0
 20
1528.269357450717
 11
38923.0
 21
1528.269357450717
  0
LINE
  5
3DF
100
AcDbEntity
  8
1
  6
CONTINUOUS
 62
           7
100
AcDbLine
 10
38907.0
 20
1549.269357450717
 11
38907.0
 21
1565.269357450717
  0
LINE
  5
3DE
100
AcDbEntity
  8
1
  6
CONTINUOUS
 62
           7
100
AcDbLine
 10
38923.0
 20
1549.269357450717
 11
38907.0
 21
1549.269357450717
  0
LINE
  5
3DD
100
AcDbEntity
  8
1
  6
CONTINUOUS
 62
           7
100
AcDbLine
 10
38923.0
 20
1565.269357450717
 11
38923.0
 21
1549.269357450717
  0
LINE
  5
3DC
100
AcDbEntity
  8
1
  6
CONTINUOUS
 62
           7
100
AcDbLine
 10
38907.0
 20
1565.269357450717
 11
38923.0
 21
1565.269357450717
  0
LINE
  5
3DB
100
AcDbEntity
  8
1
  6
CONTINUOUS
 62
           7
100
AcDbLine
 10
38865.0
 20
1514.269357450717
 11
38865.0
 21
1421.269357450717
  0
LINE
  5
3DA
100
AcDbEntity
  8
1
  6
CONTINUOUS
 62
           7
100
AcDbLine
 10
38868.0
 20
1514.269357450717
 11
38868.0
 21
1421.269357450717
  0
LINE
  5
3D9
100
AcDbEntity
  8
1
  6
CONTINUOUS
 62
           7
100
AcDbLine
 10
38756.0
 20
1347.269357450718
 11
38756.0
 21
1387.269357450718
  0
LINE
  5
3D8
100
AcDbEntity
  8
1
  6
CONTINUOUS
 62
           7
100
AcDbLine
 10
38560.463373038867
 20
1347.269357450717
 11
38756.0
 21
1347.269357450718
  0
LINE
  5
3D7
100
AcDbEntity
  8
1
  6
CONTINUOUS
 62
           7
100
AcDbLine
 10
38560.463373038867
 20
1387.269357450717
 11
38560.463373038867
 21
1347.269357450717
  0
LINE
  5
3D6
100
AcDbEntity
  8
1
  6
CONTINUOUS
 62
           7
100
AcDbLine
 10
38756.0
 20
1387.269357450718
 11
38560.463373038867
 21
1387.269357450717
  0
LINE
  5
3D5
100
AcDbEntity
  8
1
  6
DOT_CENTER
 62
           3
100
AcDbLine
 10
39872.999999999993
 20
1758.074403565441
 11
39872.999999999993
 21
1313.269357450717
  0
LINE
  5
3D4
100
AcDbEntity
  8
1
  6
CONTINUOUS
 62
           7
100
AcDbLine
 10
39872.999999999993
 20
1313.269357450717
 11
38768.0
 21
1313.269357450717
  0
LINE
  5
3D3
100
AcDbEntity
  8
1
  6
CONTINUOUS
 62
           7
100
AcDbLine
 10
38756.0
 20
1421.269357450717
 11
38765.0
 21
1421.269357450717
  0
LINE
  5
3D2
100
AcDbEntity
  8
1
  6
CONTINUOUS
 62
           7
100
AcDbLine
 10
38818.0
 20
1529.269357450717
 11
38818.0
 21
1549.269357450717
  0
LINE
  5
3D1
100
AcDbEntity
  8
1
  6
CONTINUOUS
 62
           7
100
AcDbLine
 10
39872.999999999993
 20
1529.269357450717
 11
38818.0
 21
1529.269357450717
  0
LINE
  5
3D0
100
AcDbEntity
  8
1
  6
CONTINUOUS
 62
           7
100
AcDbLine
 10
38818.0
 20
1549.269357450717
 11
39872.999999999993
 21
1549.269357450717
  0
LINE
  5
3CF
100
AcDbEntity
  8
1
  6
CONTINUOUS
 62
           7
100
AcDbLine
 10
38566.0
 20
1639.269357450717
 11
38915.0
 21
1639.269357450717
  0
LINE
  5
3CE
100
AcDbEntity
  8
1
  6
CONTINUOUS
 62
           7
100
AcDbLine
 10
38915.0
 20
1639.269357450717
 11
38915.0
 21
1565.269357450717
  0
LINE
  5
3CD
100
AcDbEntity
  8
1
  6
CONTINUOUS
 62
           7
100
AcDbLine
 10
38918.0
 20
1642.269357450717
 11
38918.0
 21
1565.269357450717
  0
LINE
  5
3CC
100
AcDbEntity
  8
1
  6
DOT_CENTER
 62
           3
100
AcDbLine
 10
38535.0
 20
1367.269357450717
 11
39806.145641557348
 21
1367.269357450717
  0
LINE
  5
3CB
100
AcDbEntity
  8
1
  6
CONTINUOUS
 62
           7
100
AcDbLine
 10
38563.0
 20
1642.269357450717
 11
38918.0
 21
1642.269357450717
  0
LINE
  5
3CA
100
AcDbEntity
  8
1
  6
CONTINUOUS
 62
           7
100
AcDbLine
 10
38566.0
 20
1639.269357450717
 11
38566.0
 21
1305.269357450717
  0
LINE
  5
3C9
100
AcDbEntity
  8
1
  6
CONTINUOUS
 62
           7
100
AcDbLine
 10
38563.0
 20
1269.269357450717
 11
38563.0
 21
1464.08847510766
  0
LINE
  5
3C8
100
AcDbEntity
  8
1
  6
CONTINUOUS
 62
           7
100
AcDbLine
 10
36689.367305054453
 20
1562.698611025298
 11
36724.880521192332
 21
1562.698611025298
  0
LINE
  5
3C7
100
AcDbEntity
  8
1
  6
CONTINUOUS
 62
           7
100
AcDbLine
 10
36689.367305054453
 20
1565.698611025297
 11
36724.880521192332
 21
1565.698611025299
  0
LINE
  5
3C6
100
AcDbEntity
  8
1
  6
CONTINUOUS
 62
           7
100
AcDbLine
 10
36741.880521192332
 20
1520.698611025298
 11
36741.880521192332
 21
1507.698611025298
  0
LINE
  5
3C5
100
AcDbEntity
  8
1
  6
CONTINUOUS
 62
           7
100
AcDbLine
 10
36740.880521192332
 20
1554.698611025298
 11
36724.880521192332
 21
1554.698611025298
  0
LINE
  5
3C4
100
AcDbEntity
  8
1
  6
CONTINUOUS
 62
           7
100
AcDbLine
 10
36724.880521192332
 20
1554.698611025298
 11
36724.880521192332
 21
1570.698611025299
  0
LINE
  5
3C3
100
AcDbEntity
  8
1
  6
CONTINUOUS
 62
           7
100
AcDbLine
 10
36724.880521192332
 20
1570.698611025299
 11
36740.880521192332
 21
1570.698611025299
  0
LINE
  5
3C2
100
AcDbEntity
  8
1
  6
CONTINUOUS
 62
           7
100
AcDbLine
 10
36740.880521192332
 20
1570.698611025299
 11
36740.880521192332
 21
1554.698611025298
  0
LINE
  5
3C1
100
AcDbEntity
  8
1
  6
CONTINUOUS
 62
           7
100
AcDbLine
 10
36777.880521192332
 20
1554.698611025298
 11
36761.880521192332
 21
1554.698611025298
  0
LINE
  5
3C0
100
AcDbEntity
  8
1
  6
CONTINUOUS
 62
           7
100
AcDbLine
 10
36761.880521192332
 20
1554.698611025298
 11
36761.880521192332
 21
1570.698611025299
  0
LINE
  5
3BF
100
AcDbEntity
  8
1
  6
CONTINUOUS
 62
           7
100
AcDbLine
 10
36761.880521192332
 20
1570.698611025299
 11
36777.880521192332
 21
1570.698611025298
  0
LINE
  5
3BE
100
AcDbEntity
  8
1
  6
CONTINUOUS
 62
           7
100
AcDbLine
 10
36777.880521192332
 20
1570.698611025298
 11
36777.880521192332
 21
1554.698611025298
  0
LINE
  5
3BD
100
AcDbEntity
  8
1
  6
CONTINUOUS
 62
           7
100
AcDbLine
 10
36761.880521192332
 20
1465.698611025299
 11
36741.880521192332
 21
1465.698611025289
  0
LINE
  5
3BC
100
AcDbEntity
  8
1
  6
CONTINUOUS
 62
           7
100
AcDbLine
 10
36851.880521192332
 20
1562.698611025298
 11
36851.880521192332
 21
1213.698611025298
  0
LINE
  5
3BB
100
AcDbEntity
  8
1
  6
CONTINUOUS
 62
           7
100
AcDbLine
 10
36777.880521192332
 20
1562.698611025298
 11
36851.880521192332
 21
1562.698611025298
  0
LINE
  5
3BA
100
AcDbEntity
  8
1
  6
CONTINUOUS
 62
           7
100
AcDbLine
 10
36777.880521192332
 20
1565.698611025299
 11
36854.880521192332
 21
1565.698611025298
  0
LINE
  5
3B9
100
AcDbEntity
  8
1
  6
CONTINUOUS
 62
           7
100
AcDbLine
 10
36854.880521192332
 20
1565.698611025298
 11
36854.880521192332
 21
1210.698611025298
  0
LINE
  5
3B8
100
AcDbEntity
  8
1
  6
CONTINUOUS
 62
           7
100
AcDbLine
 10
36854.880521192332
 20
1210.698611025298
 11
36603.880521192332
 21
1210.698611025299
  0
LINE
  5
3B7
100
AcDbEntity
  8
1
  6
CONTINUOUS
 62
           7
100
AcDbLine
 10
36761.880521192332
 20
1683.34497346964
 11
36761.880521192332
 21
1465.698611025299
  0
LINE
  5
3B6
100
AcDbEntity
  8
1
  6
CONTINUOUS
 62
           7
100
AcDbLine
 10
36741.880521192332
 20
1465.698611025289
 11
36741.880521192332
 21
1675.909076033742
  0
LINE
  5
3B5
100
AcDbEntity
  8
1
  6
CONTINUOUS
 62
           7
100
AcDbLine
 10
36761.880521192332
 20
1465.698611025299
 11
36741.880521192332
 21
1465.698611025289
  0
LINE
  5
3B4
100
AcDbEntity
  8
1
  6
CONTINUOUS
 62
           7
100
AcDbLine
 10
36591.380521192332
 20
1415.698611025299
 11
36591.380521192332
 21
1412.698611025298
  0
LINE
  5
3B3
100
AcDbEntity
  8
1
  6
CONTINUOUS
 62
           7
100
AcDbLine
 10
36591.380521192332
 20
1412.698611025298
 11
36851.880521192332
 21
1412.698611025298
  0
LINE
  5
3B2
100
AcDbEntity
  8
1
  6
CONTINUOUS
 62
           7
100
AcDbLine
 10
36591.380521192332
 20
1415.698611025299
 11
36603.880521192332
 21
1415.698611025299
  0
LINE
  5
3B1
100
AcDbEntity
  8
1
  6
CONTINUOUS
 62
           7
100
AcDbLine
 10
36591.380521192332
 20
1213.698611025298
 11
36591.380521192332
 21
1210.698611025299
  0
LINE
  5
3B0
100
AcDbEntity
  8
1
  6
CONTINUOUS
 62
           7
100
AcDbLine
 10
36591.380521192332
 20
1213.698611025298
 11
36851.880521192332
 21
1213.698611025298
  0
LINE
  5
3AF
100
AcDbEntity
  8
1
  6
CONTINUOUS
 62
           7
100
AcDbLine
 10
36603.880521192332
 20
1415.698611025299
 11
36603.880521192332
 21
1417.198611025298
  0
LINE
  5
3AE
100
AcDbEntity
  8
1
  6
CONTINUOUS
 62
           7
100
AcDbLine
 10
36603.880521192332
 20
1415.698611025299
 11
36646.439057101488
 21
1415.698611025299
  0
LINE
  5
3AD
100
AcDbEntity
  8
1
  6
CONTINUOUS
 62
           7
100
AcDbLine
 10
36603.880521192332
 20
1417.198611025298
 11
36589.880521192332
 21
1417.198611025298
  0
LINE
  5
3AC
100
AcDbEntity
  8
1
  6
CONTINUOUS
 62
           7
100
AcDbLine
 10
36591.380521192332
 20
1412.698611025298
 11
36591.380521192332
 21
1213.698611025298
  0
LINE
  5
3AB
100
AcDbEntity
  8
1
  6
CONTINUOUS
 62
           7
100
AcDbLine
 10
36589.880521192332
 20
1417.198611025298
 11
36589.880521192332
 21
1209.198611025298
  0
LINE
  5
3AA
100
AcDbEntity
  8
1
  6
CONTINUOUS
 62
           7
100
AcDbLine
 10
36603.880521192332
 20
1210.698611025299
 11
36603.880521192332
 21
1209.198611025299
  0
LINE
  5
3A9
100
AcDbEntity
  8
1
  6
CONTINUOUS
 62
           7
100
AcDbLine
 10
36603.880521192332
 20
1210.698611025299
 11
36591.380521192332
 21
1210.698611025299
  0
LINE
  5
3A8
100
AcDbEntity
  8
1
  6
CONTINUOUS
 62
           7
100
AcDbLine
 10
36603.880521192332
 20
1209.198611025299
 11
36589.880521192332
 21
1209.198611025298
  0
LINE
  5
3A7
100
AcDbEntity
  8
1
  6
CONTINUOUS
 62
           3
100
AcDbLine
 10
36791.49305973461
 20
1694.354763440491
 11
36761.880521192332
 21
1683.34497346964
  0
LINE
  5
3A6
100
AcDbEntity
  8
1
  6
CONTINUOUS
 62
           3
100
AcDbLine
 10
36761.880521192332
 20
1683.34497346964
 11
36741.880521192332
 21
1675.909076033742
  0
LINE
  5
3A5
100
AcDbEntity
  8
1
  6
CONTINUOUS
 62
           3
100
AcDbLine
 10
36741.880521192332
 20
1675.909076033742
 11
36713.49305973461
 21
1665.354763440489
  0
LINE
  5
3A4
100
AcDbEntity
  8
1
  6
CONTINUOUS
 62
           7
100
AcDbLine
 10
36686.367305054453
 20
1559.698611025298
 11
36686.367305054453
 21
1415.698611025299
  0
LINE
  5
3A3
100
AcDbEntity
  8
1
  6
CONTINUOUS
 62
           7
100
AcDbLine
 10
36683.367305054453
 20
1559.698611025297
 11
36683.367305054453
 21
1418.698611025299
  0
LINE
  5
3A2
100
AcDbEntity
  8
1
  6
CONTINUOUS
 62
           7
100
AcDbLine
 10
36646.439057101488
 20
1415.698611025299
 11
36686.367305054453
 21
1415.698611025299
  0
LINE
  5
3A1
100
AcDbEntity
  8
1
  6
CONTINUOUS
 62
           7
100
AcDbLine
 10
36649.439057101488
 20
1418.698611025299
 11
36683.367305054453
 21
1418.698611025299
  0
LINE
  5
3A0
100
AcDbEntity
  8
1
  6
CONTINUOUS
 62
           7
100
AcDbLine
 10
36686.367305054453
 20
1415.698611025299
 11
36851.880521192332
 21
1415.698611025299
  0
LINE
  5
39F
100
AcDbEntity
  8
1
  6
DOT_CENTER
 62
           3
100
AcDbLine
 10
38563.0
 20
1464.08847510766
 11
38563.0
 21
1269.269357450717
  0
LINE
  5
39E
100
AcDbEntity
  8
1
  6
DOT_CENTER
 62
           3
100
AcDbLine
 10
41182.999999999971
 20
1257.269357450717
 11
41182.999999999971
 21
1452.08847510766
  0
LINE
  5
39D
100
AcDbEntity
  8
1
  6
CONTINUOUS
 62
           7
100
AcDbLine
 10
41182.999999999971
 20
1452.08847510766
 11
41182.999999999971
 21
1257.269357450717
  0
LINE
  5
39C
100
AcDbEntity
  8
1
  6
DOT_CENTER
 62
           3
100
AcDbLine
 10
41232.999999999971
 20
1452.08847510766
 11
41182.999999999971
 21
1452.08847510766
  0
LINE
  5
39B
100
AcDbEntity
  8
1
  6
DOT_CENTER
 62
           3
100
AcDbLine
 10
41232.999999999971
 20
1367.269357450717
 11
41232.999999999971
 21
1452.08847510766
  0
LINE
  5
39A
100
AcDbEntity
  8
1
  6
DOT_CENTER
 62
           3
100
AcDbLine
 10
41182.999999999971
 20
1257.269357450717
 11
41232.999999999971
 21
1257.269357450717
  0
LINE
  5
399
100
AcDbEntity
  8
1
  6
DOT_CENTER
 62
           3
100
AcDbLine
 10
41232.999999999971
 20
1257.269357450717
 11
41232.999999999971
 21
1367.269357450717
  0
ENDBLK
  5
48C
100
AcDbEntity
  8
0
100
AcDbBlockEnd
  0
BLOCK
  5
5B
100
AcDbEntity
  8
0
100
AcDbBlockBegin
  2
_SEITENTEILE_DS
 70
           0
 10
9516.618349201362
 20
-797.513018161186
 30
0.0
  3
_SEITENTEILE_DS
  1

  0
INSERT
  5
5C
100
AcDbEntity
  8
0
100
AcDbBlockReference
  2
SEITENPROFIL_DS
 10
8128.528608788558
 20
-1321.124398798776
  0
ENDBLK
  5
48D
100
AcDbEntity
  8
0
100
AcDbBlockEnd
  0
BLOCK
  5
5E
100
AcDbEntity
  8
0
100
AcDbBlockBegin
  2
MAUER
 70
           0
 10
1622.323087333471
 20
828.269357450718
 30
0.0
  3
MAUER
  1

  0
HATCH
  5
4A2
100
AcDbEntity
  8
0
  6
CONTINUOUS
 62
           6
100
AcDbHatch
 10
0.0
 20
0.0
 30
0.0
210
0.0
220
0.0
230
1.0
  2
USER
 70
           0
 71
           1
 91
        1
 92
        1
 93
        4
 72
           1
 10
41331.511863562489
 20
1792.2693574507159
 11
40822.999999999993
 21
1792.2693574507171
 72
           1
 10
41331.511863562489
 20
1642.2693574507171
 11
41331.511863562489
 21
1792.2693574507159
 72
           1
 10
40822.999999999993
 20
1642.2693574507171
 11
41331.511863562489
 21
1642.2693574507171
 72
           1
 10
40822.999999999993
 20
1792.2693574507171
 11
40822.999999999993
 21
1642.2693574507171
 97
        4
330
490
330
491
330
48E
330
48F
 75
           1
 76
           0
 52
45.0
 41
50.0
 77
           0
 78
           1
 53
45.0
 43
0.0
 44
0.0
 45
-35.355339059327378
 46
35.355339059327378
 79
           0
 98
        1
 10
0.0
 20
0.0
  0
HATCH
  5
4A1
100
AcDbEntity
  8
0
  6
CONTINUOUS
 62
           6
100
AcDbHatch
 10
0.0
 20
0.0
 30
0.0
210
0.0
220
0.0
230
1.0
  2
USER
 70
           0
 71
           1
 91
        1
 92
        1
 93
        4
 72
           1
 10
38923.0
 20
1792.2693574507159
 11
38378.0
 21
1792.2693574507171
 72
           1
 10
38378.0
 20
1792.2693574507171
 11
38378.0
 21
1642.2693574507171
 72
           1
 10
38378.0
 20
1642.2693574507171
 11
38923.0
 21
1642.2693574507171
 72
           1
 10
38923.0
 20
1642.2693574507171
 11
38923.0
 21
1792.2693574507159
 97
        4
330
494
330
495
330
492
330
493
 75
           1
 76
           0
 52
45.0
 41
50.0
 77
           0
 78
           1
 53
45.0
 43
0.0
 44
0.0
 45
-35.355339059327378
 46
35.355339059327378
 79
           0
 98
        1
 10
0.0
 20
0.0
  0
DIMENSION
  5
4A0
100
AcDbEntity
  8
0
100
AcDbDimension
  2
*D54
 10
40822.999999999985
 20
1860.428265145567
 11
39862.303499980197
 21
1968.7615984789
 31
0.0
  1
<>
  3
ME10_DIM_21
100
AcDbAlignedDimension
 13
38923.0
 23
1792.269357450716
 14
40822.999999999993
 24
1792.269357450717
100
AcDbRotatedDimension
  0
LINE
  5
495
100
AcDbEntity
  8
1
  6
CONTINUOUS
 62
         250
100
AcDbLine
 10
38378.0
 20
1792.269357450717
 11
38378.0
 21
1642.269357450717
  0
LINE
  5
494
100
AcDbEntity
  8
1
  6
CONTINUOUS
 62
           7
100
AcDbLine
 10
38923.0
 20
1792.269357450716
 11
38378.0
 21
1792.269357450717
  0
LINE
  5
493
100
AcDbEntity
  8
1
  6
CONTINUOUS
 62
           7
100
AcDbLine
 10
38923.0
 20
1642.269357450717
 11
38923.0
 21
1792.269357450716
  0
LINE
  5
492
100
AcDbEntity
  8
1
  6
CONTINUOUS
 62
           7
100
AcDbLine
 10
38378.0
 20
1642.269357450717
 11
38923.0
 21
1642.269357450717
  0
LINE
  5
491
100
AcDbEntity
  8
1
  6
CONTINUOUS
 62
         250
100
AcDbLine
 10
41331.511863562489
 20
1642.269357450717
 11
41331.511863562489
 21
1792.269357450716
  0
LINE
  5
490
100
AcDbEntity
  8
1
  6
CONTINUOUS
 62
           7
100
AcDbLine
 10
41331.511863562489
 20
1792.269357450716
 11
40822.999999999993
 21
1792.269357450717
  0
LINE
  5
48F
100
AcDbEntity
  8
1
  6
CONTINUOUS
 62
           7
100
AcDbLine
 10
40822.999999999993
 20
1792.269357450717
 11
40822.999999999993
 21
1642.269357450717
  0
LINE
  5
48E
100
AcDbEntity
  8
1
  6
CONTINUOUS
 62
           7
100
AcDbLine
 10
40822.999999999993
 20
1642.269357450717
 11
41331.511863562489
 21
1642.269357450717
  0
ENDBLK
  5
4A3
100
AcDbEntity
  8
0
100
AcDbBlockEnd
  0
BLOCK
  5
60
100
AcDbEntity
  8
0
100
AcDbBlockBegin
  2
DRAUFSICHT_PRINZIPZG
 70
           0
 10
16970.0
 20
20430.940657297469
 30
0.0
  3
DRAUFSICHT_PRINZIPZG
  1

  0
INSERT
  5
61
100
AcDbEntity
  8
0
100
AcDbBlockReference
  2
VERBINDUNGSPROFIL_DS
 10
10097.729251104291
 20
5463.978888788721
  0
INSERT
  5
62
100
AcDbEntity
  8
0
100
AcDbBlockReference
  2
_ANTRIEB_DS
 10
543.459974590814
 20
-3138.223710638835
  0
INSERT
  5
63
100
AcDbEntity
  8
0
100
AcDbBlockReference
  2
_SEITENTEILE_DS
 10
9516.618349201362
 20
-797.513018161186
  0
INSERT
  5
64
100
AcDbEntity
  8
0
100
AcDbBlockReference
  2
MAUER
 10
1622.323087333471
 20
828.269357450718
  0
ENDBLK
  5
4A4
100
AcDbEntity
  8
0
100
AcDbBlockEnd
  0
BLOCK
  5
66
100
AcDbEntity
  8
0
100
AcDbBlockBegin
  2
_TABELLE
 70
           0
 10
8160.006737285327
 20
10095.57096052946
 30
0.0
  3
_TABELLE
  1

  0
MTEXT
  5
4D7
100
AcDbEntity
  8
1
 62
           3
100
AcDbMText
 10
-3114.71187141643
 20
-2467.29024522715
 30
0.0
 40
2.5
 41
0.0
 71
           7
 72
           1
  1
Draufsicht ohne Motor- u. Wellenverkleidung\PTop view without motor- and top roll cover
  7
CONVERTER_1
  0
TEXT
  5
4D6
100
AcDbEntity
  8
1
 62
           3
100
AcDbText
 10
-3097.300087441148
 20
-2484.878074975338
 40
2.5
  1
Torhhe/ daylight hight
 41
0.665
  7
CONVERTER_1
100
AcDbText
  0
TEXT
  5
4D5
100
AcDbEntity
  8
1
 62
           3
100
AcDbText
 10
-3128.300087441148
 20
-2484.878074975338
 40
2.5
  1
Torbreite/ daylight width
 41
0.665
  7
CONVERTER_1
100
AcDbText
  0
TEXT
  5
4D4
100
AcDbEntity
  8
1
 62
           3
100
AcDbText
 10
-3098.91771805661
 20
-2495.708178985033
 40
2.5
  1
 DH max
 41
0.665
  7
CONVERTER_1
100
AcDbText
  0
TEXT
  5
4D3
100
AcDbEntity
  8
1
 62
           3
100
AcDbText
 10
-3096.41581269176
 20
-2490.438172654043
 40
2.5
  1
DH min
 41
0.665
  7
CONVERTER_1
100
AcDbText
  0
TEXT
  5
4D2
100
AcDbEntity
  8
1
 62
           3
100
AcDbText
 10
-3081.79063345822
 20
-2495.960566267242
 40
2.5
  1
3000
 41
0.665
  7
CONVERTER_1
100
AcDbText
  0
TEXT
  5
4D1
100
AcDbEntity
  8
1
 62
           3
100
AcDbText
 10
-3081.79063345822
 20
-2490.543899600576
 40
2.5
  1
1500*
 41
0.665
  7
CONVERTER_1
100
AcDbText
  0
TEXT
  5
4D0
100
AcDbEntity
  8
1
 62
           3
100
AcDbText
 10
-3110.79063345822
 20
-2495.960566267242
 40
2.5
  1
6000
 41
0.665
  7
CONVERTER_1
100
AcDbText
  0
TEXT
  5
4CF
100
AcDbEntity
  8
1
 62
           3
100
AcDbText
 10
-3110.79063345822
 20
-2490.543899600576
 40
2.5
  1
500
 41
0.665
  7
CONVERTER_1
100
AcDbText
  0
TEXT
  5
4CE
100
AcDbEntity
  8
1
 62
           3
100
AcDbText
 10
-3127.50190423054
 20
-2490.543899600576
 40
2.5
  1
DW min
 41
0.665
  7
CONVERTER_1
100
AcDbText
  0
TEXT
  5
4CD
100
AcDbEntity
  8
1
 62
           3
100
AcDbText
 10
-3127.50190423054
 20
-2495.960566267242
 40
2.5
  1
DW max
 41
0.665
  7
CONVERTER_1
100
AcDbText
  0
MTEXT
  5
4CC
100
AcDbEntity
  8
1
 62
           3
100
AcDbMText
 10
-3206.77193914423
 20
-2499.711392751779
 30
0.0
 40
2.5
 41
0.0
 71
           7
 72
           1
  1
ffnungsgeschwindigkeit /\POpening speed\PSchlieÃgeschwindigkeit /\PClosing speed
  7
CONVERTER_1
  0
TEXT
  5
4CB
100
AcDbEntity
  8
1
 62
           1
100
AcDbText
 10
-3156.943436297115
 20
-2489.77211877628
 40
2.5
  1
max [m/s]
 41
0.665
  7
CONVERTER_1
100
AcDbText
  0
TEXT
  5
4CA
100
AcDbEntity
  8
1
 62
           1
100
AcDbText
 10
-3156.943436297115
 20
-2498.02211877628
 40
2.5
  1
max [m/s]
 41
0.665
  7
CONVERTER_1
100
AcDbText
  0
TEXT
  5
4C9
100
AcDbEntity
  8
1
 62
           1
100
AcDbText
 10
-3206.432358118094
 20
-2483.600933377297
 40
2.5
  1
Steuerung / Control unit
 41
0.665
  7
CONVERTER_1
100
AcDbText
  0
TEXT
  5
4C8
100
AcDbEntity
  8
1
 62
           3
100
AcDbText
 10
-3141.692940673518
 20
-2497.898484914957
 40
2.5
  1
0,5
 41
0.665
  7
CONVERTER_1
100
AcDbText
  0
TEXT
  5
4C7
100
AcDbEntity
  8
1
 62
           3
100
AcDbText
 10
-3141.692940673518
 20
-2489.648484914957
 40
2.5
  1
2,0
 41
0.665
  7
CONVERTER_1
100
AcDbText
  0
TEXT
  5
4C6
100
AcDbEntity
  8
1
 62
           1
100
AcDbText
 10
-3142.12599480174
 20
-2483.648484914957
 40
2.5
  1
MCC
 41
0.665
  7
CONVERTER_1
100
AcDbText
  0
TEXT
  5
4C5
100
AcDbEntity
  8
1
 62
           3
100
AcDbText
 10
-3127.083300866638
 20
-2477.550164602166
 40
2.5
  1
Lieferbare GrÃen / available sizes
 41
0.665
  7
CONVERTER_1
100
AcDbText
  0
TEXT
  5
4C4
100
AcDbEntity
  8
1
 62
           3
100
AcDbText
 10
-3129.06035045047
 20
-2504.57777948131
 40
2.5
  1
* DH < 2500 - nur mit Wellenverkleidung /
 41
0.665
  7
CONVERTER_1
100
AcDbText
  0
TEXT
  5
4C3
100
AcDbEntity
  8
1
 62
           3
100
AcDbText
 10
-3112.06035045047
 20
-2509.57777948131
 40
2.5
  1
only with top roll cover
 41
0.665
  7
CONVERTER_1
100
AcDbText
  0
LINE
  5
4C2
100
AcDbEntity
  8
1
  6
CONTINUOUS
 62
           3
100
AcDbLine
 10
-3098.56387099484
 20
-2479.879784349498
 11
-3069.56387099484
 21
-2479.879784349498
  0
LINE
  5
4C1
100
AcDbEntity
  8
1
  6
CONTINUOUS
 62
           3
100
AcDbLine
 10
-3129.0
 20
-2479.879784349498
 11
-3098.56387099484
 21
-2479.879784349498
  0
LINE
  5
4C0
100
AcDbEntity
  8
1
  6
CONTINUOUS
 62
           1
100
AcDbLine
 10
-3086.56387099484
 20
-2485.879784349498
 11
-3086.56387099484
 21
-2497.296451016164
  0
LINE
  5
4BF
100
AcDbEntity
  8
1
  6
CONTINUOUS
 62
           3
100
AcDbLine
 10
-3098.56387099484
 20
-2479.879784349498
 11
-3098.56387099484
 21
-2497.296451016164
  0
LINE
  5
4BE
100
AcDbEntity
  8
1
  6
CONTINUOUS
 62
           3
100
AcDbLine
 10
-3092.56387099484
 20
-2497.296451016164
 11
-3069.56387099484
 21
-2497.296451016164
  0
LINE
  5
4BD
100
AcDbEntity
  8
1
  6
CONTINUOUS
 62
           3
100
AcDbLine
 10
-3069.56387099484
 20
-2485.879784349498
 11
-3117.56387099484
 21
-2485.879784349497
  0
LINE
  5
4BC
100
AcDbEntity
  8
1
  6
CONTINUOUS
 62
           3
100
AcDbLine
 10
-3117.56387099484
 20
-2485.879784349497
 11
-3129.0
 21
-2485.879784349497
  0
LINE
  5
4BB
100
AcDbEntity
  8
1
  6
CONTINUOUS
 62
           3
100
AcDbLine
 10
-3117.56387099484
 20
-2497.296451016164
 11
-3092.56387099484
 21
-2497.296451016164
  0
LINE
  5
4BA
100
AcDbEntity
  8
1
  6
CONTINUOUS
 62
           1
100
AcDbLine
 10
-3117.56387099484
 20
-2485.879784349497
 11
-3117.56387099484
 21
-2497.296451016164
  0
LINE
  5
4B9
100
AcDbEntity
  8
1
  6
CONTINUOUS
 62
           3
100
AcDbLine
 10
-3129.0
 20
-2491.879784349498
 11
-3129.0
 21
-2497.296451016164
  0
LINE
  5
4B8
100
AcDbEntity
  8
1
  6
CONTINUOUS
 62
           3
100
AcDbLine
 10
-3069.56387099484
 20
-2491.879784349498
 11
-3069.56387099484
 21
-2479.879784349498
  0
LINE
  5
4B7
100
AcDbEntity
  8
1
  6
CONTINUOUS
 62
           1
100
AcDbLine
 10
-3069.56387099484
 20
-2491.879784349498
 11
-3129.0
 21
-2491.879784349498
  0
LINE
  5
4B6
100
AcDbEntity
  8
1
  6
CONTINUOUS
 62
           3
100
AcDbLine
 10
-3129.0
 20
-2479.879784349498
 11
-3129.0
 21
-2491.879784349498
  0
LINE
  5
4B5
100
AcDbEntity
  8
1
  6
CONTINUOUS
 62
           3
100
AcDbLine
 10
-3069.56387099484
 20
-2486.463117682831
 11
-3069.56387099484
 21
-2485.879784349498
  0
LINE
  5
4B4
100
AcDbEntity
  8
1
  6
CONTINUOUS
 62
           3
100
AcDbLine
 10
-3129.0
 20
-2485.879784349497
 11
-3129.0
 21
-2486.463117682831
  0
LINE
  5
4B3
100
AcDbEntity
  8
1
  6
CONTINUOUS
 62
           3
100
AcDbLine
 10
-3069.56387099484
 20
-2497.296451016164
 11
-3069.56387099484
 21
-2491.879784349498
  0
LINE
  5
4B2
100
AcDbEntity
  8
1
  6
CONTINUOUS
 62
           3
100
AcDbLine
 10
-3129.0
 20
-2497.296451016164
 11
-3117.56387099484
 21
-2497.296451016164
  0
LINE
  5
4B1
100
AcDbEntity
  8
0
  6
CONTINUOUS
 62
           3
100
AcDbLine
 10
-3133.969512524847
 20
-2492.879784349498
 11
-3133.969512524847
 21
-2500.879784349498
  0
LINE
  5
4B0
100
AcDbEntity
  8
0
  6
CONTINUOUS
 62
           3
100
AcDbLine
 10
-3133.969512524847
 20
-2484.629784349498
 11
-3133.969512524847
 21
-2492.879784349498
  0
LINE
  5
4AF
100
AcDbEntity
  8
0
  6
CONTINUOUS
 62
           3
100
AcDbLine
 10
-3133.969512524847
 20
-2479.879784349498
 11
-3133.969512524847
 21
-2484.629784349498
  0
LINE
  5
4AE
100
AcDbEntity
  8
0
  6
CONTINUOUS
 62
           3
100
AcDbLine
 10
-3143.957442405655
 20
-2500.879784349498
 11
-3133.969512524847
 21
-2500.879784349498
  0
LINE
  5
4AD
100
AcDbEntity
  8
0
  6
CONTINUOUS
 62
           3
100
AcDbLine
 10
-3143.957442405655
 20
-2479.879784349498
 11
-3133.969512524847
 21
-2479.879784349498
  0
LINE
  5
4AC
100
AcDbEntity
  8
0
  6
CONTINUOUS
 62
           3
100
AcDbLine
 10
-3143.957442405655
 20
-2479.879784349498
 11
-3143.957442405655
 21
-2500.879784349498
  0
LINE
  5
4AB
100
AcDbEntity
  8
0
  6
CONTINUOUS
 62
           3
100
AcDbLine
 10
-3207.395868120882
 20
-2484.879784349498
 11
-3207.395868120882
 21
-2479.879784349498
  0
LINE
  5
4AA
100
AcDbEntity
  8
0
  6
CONTINUOUS
 62
           3
100
AcDbLine
 10
-3207.395868120882
 20
-2492.879784349498
 11
-3207.395868120882
 21
-2484.879784349498
  0
LINE
  5
4A9
100
AcDbEntity
  8
0
  6
CONTINUOUS
 62
           3
100
AcDbLine
 10
-3207.395868120882
 20
-2500.879784349498
 11
-3143.957442405655
 21
-2500.879784349498
  0
LINE
  5
4A8
100
AcDbEntity
  8
0
  6
CONTINUOUS
 62
           3
100
AcDbLine
 10
-3207.395868120882
 20
-2479.879784349498
 11
-3143.957442405655
 21
-2479.879784349498
  0
LINE
  5
4A7
100
AcDbEntity
  8
0
  6
CONTINUOUS
 62
           3
100
AcDbLine
 10
-3207.395868120882
 20
-2500.879784349498
 11
-3207.395868120882
 21
-2492.879784349498
  0
LINE
  5
4A6
100
AcDbEntity
  8
0
  6
CONTINUOUS
 62
           1
100
AcDbLine
 10
-3133.969512524847
 20
-2492.879784349498
 11
-3207.395868120882
 21
-2492.879784349498
  0
LINE
  5
4A5
100
AcDbEntity
  8
0
  6
CONTINUOUS
 62
           1
100
AcDbLine
 10
-3207.395868120882
 20
-2484.629784349498
 11
-3133.969512524847
 21
-2484.629784349498
  0
ENDBLK
  5
4D8
100
AcDbEntity
  8
0
100
AcDbBlockEnd
  0
BLOCK
  5
68
100
AcDbEntity
  8
0
100
AcDbBlockBegin
  2
_RAHMEN
 70
           0
 10
-4378.196350622077
 20
-2534.429039470544
 30
0.0
  3
_RAHMEN
  1

  0
LINE
  5
4DD
100
AcDbEntity
  8
1
  6
CONTINUOUS
 62
         250
100
AcDbLine
 10
-3024.953262714673
 20
-2231.429039470544
 11
-3024.953262714673
 21
-2516.429039470544
  0
LINE
  5
4DC
100
AcDbEntity
  8
1
  6
CONTINUOUS
 62
         250
100
AcDbLine
 10
-3209.953262714673
 20
-2516.429039470544
 11
-3024.953262714673
 21
-2516.429039470544
  0
LINE
  5
4DB
100
AcDbEntity
  8
1
  6
CONTINUOUS
 62
         250
100
AcDbLine
 10
-3209.953262714673
 20
-2231.429039470544
 11
-3209.953262714673
 21
-2516.429039470544
  0
LINE
  5
4DA
100
AcDbEntity
  8
1
  6
CONTINUOUS
 62
         250
100
AcDbLine
 10
-3213.156350622077
 20
-2375.407415101733
 11
-3220.156350622077
 21
-2375.407415101733
  0
LINE
  5
4D9
100
AcDbEntity
  8
1
  6
CONTINUOUS
 62
         250
100
AcDbLine
 10
-3024.953262714673
 20
-2231.429039470544
 11
-3209.953262714673
 21
-2231.429039470544
  0
ENDBLK
  5
4DE
100
AcDbEntity
  8
0
100
AcDbBlockEnd
  0
BLOCK
  5
6A
100
AcDbEntity
  8
0
100
AcDbBlockBegin
  2
_ZEICHNUNGSNUMMER
 70
           0
 10
-4207.208625843153
 20
-2531.638536677262
 30
0.0
  3
_ZEICHNUNGSNUMMER
  1

  0
MTEXT
  5
4DF
100
AcDbEntity
  8
0
 62
           3
100
AcDbMText
 10
-3059.168625843153
 20
-2512.888536677262
 30
0.0
 40
2.5
 41
0.0
 71
           7
 72
           1
  1
Zg.-Nr. 8300R0018/4\PStand: 2007-08-24
  7
CONVERTER_1
  0
ENDBLK
  5
4E0
100
AcDbEntity
  8
0
100
AcDbBlockEnd
  0
BLOCK
  5
6C
100
AcDbEntity
  8
0
100
AcDbBlockBegin
  2
__BERSCHRIFT
 70
           0
 10
-4365.471175383441
 20
-2293.637303215475
 30
0.0
  3
__BERSCHRIFT
  1

  0
TEXT
  5
4E4
100
AcDbEntity
  8
0
 62
           1
100
AcDbText
 10
-3207.431175383545
 20
-2267.887303215563
 40
3.8
  1
General Drawing, External High Speed Industrial Door RapidRoll 3000R
 41
0.608
  7
CONVERTER_4
100
AcDbText
  0
MTEXT
  5
4E2
100
AcDbEntity
  8
0
 62
           7
100
AcDbMText
 10
-3207.217767562204
 20
-2257.484230589794
 30
0.0
 40
5.0
 41
0.0
 71
           7
 72
           1
  1
Prinzipzeichnung\PAluminiumrolltor RapidRoll 3000R
  7
CONVERTER_3
  0
ENDBLK
  5
4E5
100
AcDbEntity
  8
0
100
AcDbBlockEnd
  0
BLOCK
  5
6E
100
AcDbEntity
  8
0
100
AcDbBlockBegin
  2
VORLAGE__5
 70
           0
 10
-2436.797453591143
 20
-912.13511450995
 30
0.0
  3
VORLAGE__5
  1

  0
INSERT
  5
6F
100
AcDbEntity
  8
0
100
AcDbBlockReference
  2
_TABELLE
 10
8160.006737285327
 20
10095.57096052946
  0
INSERT
  5
70
100
AcDbEntity
  8
0
100
AcDbBlockReference
  2
_RAHMEN
 10
-4378.196350622077
 20
-2534.429039470544
  0
INSERT
  5
71
100
AcDbEntity
  8
0
100
AcDbBlockReference
  2
_ZEICHNUNGSNUMMER
 10
-4207.208625843153
 20
-2531.638536677262
  0
INSERT
  5
72
100
AcDbEntity
  8
0
100
AcDbBlockReference
  2
__BERSCHRIFT
 10
-4365.471175383441
 20
-2293.637303215475
  0
ENDBLK
  5
4E6
100
AcDbEntity
  8
0
100
AcDbBlockEnd
  0
BLOCK
  5
74
100
AcDbEntity
  8
0
100
AcDbBlockBegin
  2
_LOGO
 70
           0
 10
1619.142938593877
 20
-2841.727337345499
 30
0.0
  3
_LOGO
  1

  0
HATCH
  5
5E8
100
AcDbEntity
  8
0
  6
CONTINUOUS
 62
           6
100
AcDbHatch
 10
0.0
 20
0.0
 30
0.0
210
0.0
220
0.0
230
1.0
  2
USER
 70
           0
 71
           1
 91
        1
 92
        1
 93
       10
 72
           1
 10
3059.851050589838
 20
-2820.2438792120688
 11
3063.5601414989501
 21
-2820.2438792120688
 72
           1
 10
3059.851050589838
 20
-2820.2438792120688
 11
3059.851050589838
 21
-2828.098424666598
 72
           1
 10
3059.851050589838
 20
-2828.098424666598
 11
3062.2510505898572
 21
-2828.098424666598
 72
           1
 10
3062.2510505898572
 20
-2828.098424666598
 11
3062.2510505898572
 21
-2823.298424666621
 72
           1
 10
3062.2510505898572
 20
-2823.298424666621
 11
3063.9965051352851
 21
-2828.098424666598
 72
           1
 10
3063.9965051352851
 20
-2828.098424666598
 11
3067.7055960443972
 21
-2828.098424666598
 72
           1
 10
3067.7055960443972
 20
-2828.098424666598
 11
3067.7055960443972
 21
-2820.2438792120688
 72
           1
 10
3065.305596044378
 20
-2820.2438792120688
 11
3067.7055960443972
 21
-2820.2438792120688
 72
           1
 10
3065.305596044378
 20
-2820.2438792120688
 11
3065.305596044378
 21
-2825.0438792120781
 72
           1
 10
3065.305596044378
 20
-2825.0438792120781
 11
3063.5601414989501
 21
-2820.2438792120688
 97
       10
330
568
330
56E
330
59D
330
56B
330
56A
330
567
330
56D
330
566
330
56C
330
569
 75
           1
 76
           0
 52
45.0
 41
0.109090909091
 77
           0
 78
           1
 53
45.0
 43
-1527.713539482904
 44
-1255.429565355026
 45
-0.077138921583987
 46
0.077138921583987
 79
           0
 98
        1
 10
0.0
 20
0.0
  0
HATCH
  5
5E7
100
AcDbEntity
  8
0
  6
CONTINUOUS
 62
           6
100
AcDbHatch
 10
0.0
 20
0.0
 30
0.0
210
0.0
220
0.0
230
1.0
  2
USER
 70
           0
 71
           1
 91
        2
 92
        1
 93
        8
 72
           1
 10
3052.8692324080089
 20
-2820.2438792120688
 11
3056.578323317121
 21
-2820.2438792120688
 72
           1
 10
3052.8692324080089
 20
-2820.2438792120688
 11
3050.2510505898231
 21
-2828.098424666598
 72
           1
 10
3053.087414226206
 20
-2828.098424666598
 11
3050.2510505898231
 21
-2828.098424666598
 72
           1
 10
3053.087414226206
 20
-2828.098424666598
 11
3053.4207475595572
 21
-2826.8984246666041
 72
           1
 10
3053.4207475595572
 20
-2826.8984246666041
 11
3056.0268081655458
 21
-2826.8984246666041
 72
           1
 10
3056.0268081655458
 20
-2826.8984246666041
 11
3056.3601414988939
 21
-2828.098424666598
 72
           1
 10
3056.3601414988939
 20
-2828.098424666598
 11
3059.1965051352481
 21
-2828.098424666598
 72
           1
 10
3056.578323317121
 20
-2820.2438792120688
 11
3059.1965051352481
 21
-2828.098424666598
 97
        8
330
577
330
576
330
579
330
572
330
574
330
56F
330
578
330
575
 92
       16
 93
        3
 72
           1
 10
3053.9055960443852
 20
-2825.1529701211471
 11
3055.5419596807442
 21
-2825.1529701211471
 72
           1
 10
3054.7237778625358
 20
-2822.2075155756938
 11
3055.5419596807442
 21
-2825.1529701211471
 72
           1
 10
3053.9055960443852
 20
-2825.1529701211471
 11
3054.7237778625358
 21
-2822.2075155756938
 97
        3
330
573
330
571
330
570
 75
           1
 76
           0
 52
45.0
 41
0.109090909091
 77
           0
 78
           1
 53
45.0
 43
-1527.713539482904
 44
-1255.429565355026
 45
-0.077138921583987
 46
0.077138921583987
 79
           0
 98
        1
 10
0.0
 20
0.0
  0
HATCH
  5
5E6
100
AcDbEntity
  8
0
  6
CONTINUOUS
 62
           6
100
AcDbHatch
 10
0.0
 20
0.0
 30
0.0
210
0.0
220
0.0
230
1.0
  2
USER
 70
           0
 71
           1
 91
        1
 92
        1
 93
        6
 72
           1
 10
3035.8510505897998
 20
-2820.2438792120688
 11
3038.9055960444089
 21
-2820.2438792120688
 72
           1
 10
3035.8510505897998
 20
-2828.098424666598
 11
3035.8510505897998
 21
-2820.2438792120688
 72
           1
 10
3041.7419596807622
 20
-2828.098424666598
 11
3035.8510505897998
 21
-2828.098424666598
 72
           1
 10
3041.7419596807622
 20
-2826.134788302973
 11
3041.7419596807622
 21
-2828.098424666598
 72
           1
 10
3038.9055960444089
 20
-2826.134788302973
 11
3041.7419596807622
 21
-2826.134788302973
 72
           1
 10
3038.9055960444089
 20
-2820.2438792120688
 11
3038.9055960444089
 21
-2826.134788302973
 97
        6
330
588
330
583
330
584
330
585
330
586
330
587
 75
           1
 76
           0
 52
45.0
 41
0.109090909091
 77
           0
 78
           1
 53
45.0
 43
-1527.713539482904
 44
-1255.429565355026
 45
-0.077138921583987
 46
0.077138921583987
 79
           0
 98
        1
 10
0.0
 20
0.0
  0
HATCH
  5
5E5
100
AcDbEntity
  8
0
  6
CONTINUOUS
 62
           6
100
AcDbHatch
 10
0.0
 20
0.0
 30
0.0
210
0.0
220
0.0
230
1.0
  2
USER
 70
           0
 71
           1
 91
        2
 92
        1
 93
        8
 72
           1
 10
3032.4262267940112
 20
-2820.2438792120688
 11
3037.1672805803119
 21
-2834.835342398791
 72
           1
 10
3025.8807722485458
 20
-2820.2438792120688
 11
3032.4262267940112
 21
-2820.2438792120688
 72
           1
 10
3021.7690611834528
 20
-2832.898424666605
 11
3025.8807722485458
 21
-2820.2438792120688
 72
           1
 10
3021.7690611834528
 20
-2832.898424666605
 11
3026.5690611834611
 21
-2832.898424666605
 72
           1
 10
3026.5690611834611
 20
-2832.898424666605
 11
3027.0325398597529
 21
-2830.9347883029509
 72
           1
 10
3027.0325398597529
 20
-2830.9347883029509
 11
3030.9816063909311
 21
-2830.9347883029509
 72
           1
 10
3030.9816063909311
 20
-2830.9347883029509
 11
3033.9497381449278
 21
-2842.0620610302581
 72
           1
 10
3033.9497381449278
 20
-2842.0620610302581
 11
3037.1672805803119
 21
-2834.835342398791
 97
        8
330
589
330
58B
330
58A
330
58C
330
58D
330
592
330
593
330
58F
 92
       16
 93
        3
 72
           1
 10
3027.7020090586698
 20
-2828.098424666598
 11
3028.886454564748
 21
-2823.080242848423
 72
           1
 10
3028.886454564748
 20
-2823.080242848423
 11
3030.225023786988
 21
-2828.098424666598
 72
           1
 10
3027.7020090586698
 20
-2828.098424666598
 11
3030.225023786988
 21
-2828.098424666598
 97
        3
330
591
330
58E
330
590
 75
           1
 76
           0
 52
45.0
 41
0.109090909091
 77
           0
 78
           1
 53
45.0
 43
-1527.713539482904
 44
-1255.429565355026
 45
-0.077138921583987
 46
0.077138921583987
 79
           0
 98
        1
 10
0.0
 20
0.0
  0
HATCH
  5
5E4
100
AcDbEntity
  8
0
  6
CONTINUOUS
 62
           6
100
AcDbHatch
 10
0.0
 20
0.0
 30
0.0
210
0.0
220
0.0
230
1.0
  2
USER
 70
           0
 71
           1
 91
        1
 92
        1
 93
        9
 72
           1
 10
3072.5055960443751
 20
-2823.5166064847881
 11
3071.6328687716768
 21
-2820.2438792120688
 72
           1
 10
3068.3601414988998
 20
-2820.2438792120688
 11
3071.6328687716768
 21
-2820.2438792120688
 72
           1
 10
3068.3601414988998
 20
-2820.2438792120688
 11
3070.9783233172038
 21
-2825.4802428484131
 72
           1
 10
3070.9783233172038
 20
-2825.4802428484131
 11
3070.9783233172038
 21
-2828.098424666598
 72
           1
 10
3070.9783233172038
 20
-2828.098424666598
 11
3074.032868771636
 21
-2828.098424666598
 72
           1
 10
3074.032868771636
 20
-2828.098424666598
 11
3074.032868771636
 21
-2825.4802428484131
 72
           1
 10
3074.032868771636
 20
-2825.4802428484131
 11
3076.6510505898209
 21
-2820.2438792120688
 72
           1
 10
3073.3783233171039
 20
-2820.2438792120688
 11
3076.6510505898209
 21
-2820.2438792120688
 72
           1
 10
3072.5055960443751
 20
-2823.5166064847881
 11
3073.3783233171039
 21
-2820.2438792120688
 97
        9
330
59A
330
594
330
59B
330
597
330
598
330
596
330
59C
330
595
330
599
 75
           1
 76
           0
 52
45.0
 41
0.109090909091
 77
           0
 78
           1
 53
45.0
 43
-1527.713539482904
 44
-1255.429565355026
 45
-0.077138921583987
 46
0.077138921583987
 79
           0
 98
        1
 10
0.0
 20
0.0
  0
ARC
  5
5E3
100
AcDbEntity
  8
1
  6
CONTINUOUS
 62
           3
100
AcDbCircle
 10
3071.020807870924
 20
-2832.41842466662
 40
0.218181818306
100
AcDbArc
 50
154.999999989757
 51
-90.0
  0
ARC
  5
5E2
100
AcDbEntity
  8
1
  6
CONTINUOUS
 62
           3
100
AcDbCircle
 10
3070.952312500179
 20
-2832.462061030271
 40
0.436363636411
100
AcDbArc
 50
154.999999990425
 51
-90.0
  0
ARC
  5
5E1
100
AcDbEntity
  8
1
  6
CONTINUOUS
 62
           3
100
AcDbCircle
 10
3071.951943630167
 20
-2831.763879212058
 40
0.87272727273
100
AcDbArc
 50
-90.0
 51
-24.99999999925
  0
ARC
  5
5E0
100
AcDbEntity
  8
1
  6
CONTINUOUS
 62
           3
100
AcDbCircle
 10
3071.840745911892
 20
-2831.589333757513
 40
1.309090909092
100
AcDbArc
 50
-90.0
 51
-24.999999997966
  0
ARC
  5
5DF
100
AcDbEntity
  8
1
  6
CONTINUOUS
 62
           3
100
AcDbCircle
 10
3072.847112381292
 20
-2831.392970121171
 40
0.218181818067
100
AcDbArc
 50
-25.00000000495
 51
90.0
  0
ARC
  5
5DE
100
AcDbEntity
  8
1
  6
CONTINUOUS
 62
           3
100
AcDbCircle
 10
3072.915607751947
 20
-2831.349333757521
 40
0.436363636309
100
AcDbArc
 50
-24.999999998763
 51
90.0
  0
ARC
  5
5DD
100
AcDbEntity
  8
1
  6
CONTINUOUS
 62
           3
100
AcDbCircle
 10
3071.824552707106
 20
-2830.694788302958
 40
0.218181818184
100
AcDbArc
 50
154.999999983901
 51
-90.0
  0
ARC
  5
5DC
100
AcDbEntity
  8
1
  6
CONTINUOUS
 62
           3
100
AcDbCircle
 10
3071.756057336479
 20
-2830.738424666611
 40
0.43636363632
100
AcDbArc
 50
154.999999988906
 51
-90.0
  0
ARC
  5
5DB
100
AcDbEntity
  8
1
  6
CONTINUOUS
 62
           3
100
AcDbCircle
 10
3072.617981605476
 20
-2830.542061030239
 40
0.87272727273
100
AcDbArc
 50
90.0
 51
155.000000000077
  0
ARC
  5
5DA
100
AcDbEntity
  8
1
  6
CONTINUOUS
 62
           3
100
AcDbCircle
 10
3072.729179323752
 20
-2830.716606484784
 40
1.309090909093
100
AcDbArc
 50
90.0
 51
154.999999999889
  0
ARC
  5
5D9
100
AcDbEntity
  8
1
  6
CONTINUOUS
 62
           3
100
AcDbCircle
 10
3073.617612735464
 20
-2829.843879212086
 40
0.436363636376
100
AcDbArc
 50
-24.999999990404
 51
90.0
  0
ARC
  5
5D8
100
AcDbEntity
  8
1
  6
CONTINUOUS
 62
           3
100
AcDbCircle
 10
3073.549117364837
 20
-2829.887515575677
 40
0.218181818161
100
AcDbArc
 50
-25.000000002151
 51
90.0
  0
ARC
  5
5D7
100
AcDbEntity
  8
1
  6
CONTINUOUS
 62
           3
100
AcDbCircle
 10
3058.589798991936
 20
-2832.462061030271
 40
0.436363636439
100
AcDbArc
 50
154.999999992141
 51
-90.0
  0
ARC
  5
5D6
100
AcDbEntity
  8
1
  6
CONTINUOUS
 62
           3
100
AcDbCircle
 10
3058.658294362561
 20
-2832.41842466662
 40
0.21818181825
100
AcDbArc
 50
154.999999982944
 51
-90.0
  0
ARC
  5
5D5
100
AcDbEntity
  8
1
  6
CONTINUOUS
 62
           3
100
AcDbCircle
 10
3059.589430121923
 20
-2831.763879212058
 40
0.87272727273
100
AcDbArc
 50
-90.0
 51
-25.000000000083
  0
ARC
  5
5D4
100
AcDbEntity
  8
1
  6
CONTINUOUS
 62
           3
100
AcDbCircle
 10
3059.478232403648
 20
-2831.589333757513
 40
1.309090909092
100
AcDbArc
 50
-90.0
 51
-25.000000000144
  0
ARC
  5
5D3
100
AcDbEntity
  8
1
  6
CONTINUOUS
 62
           3
100
AcDbCircle
 10
3060.484598872989
 20
-2831.392970121171
 40
0.21818181812
100
AcDbArc
 50
-24.99999999844
 51
90.0
  0
ARC
  5
5D2
100
AcDbEntity
  8
1
  6
CONTINUOUS
 62
           3
100
AcDbCircle
 10
3060.553094243615
 20
-2831.349333757521
 40
0.436363636282
100
AcDbArc
 50
-25.000000000429
 51
90.0
  0
ARC
  5
5D1
100
AcDbEntity
  8
1
  6
CONTINUOUS
 62
           3
100
AcDbCircle
 10
3059.393543828205
 20
-2830.738424666611
 40
0.436363636399
100
AcDbArc
 50
154.999999993726
 51
-90.0
  0
ARC
  5
5D0
100
AcDbEntity
  8
1
  6
CONTINUOUS
 62
           3
100
AcDbCircle
 10
3059.462039198861
 20
-2830.694788302958
 40
0.218181818264
100
AcDbArc
 50
154.999999993692
 51
-90.0
  0
ARC
  5
5CF
100
AcDbEntity
  8
1
  6
CONTINUOUS
 62
           3
100
AcDbCircle
 10
3060.255468097173
 20
-2830.542061030239
 40
0.87272727273
100
AcDbArc
 50
90.0
 51
154.999999998411
  0
ARC
  5
5CE
100
AcDbEntity
  8
1
  6
CONTINUOUS
 62
           3
100
AcDbCircle
 10
3060.366665815448
 20
-2830.716606484784
 40
1.309090909093
100
AcDbArc
 50
90.0
 51
155.000000000949
  0
ARC
  5
5CD
100
AcDbEntity
  8
1
  6
CONTINUOUS
 62
           3
100
AcDbCircle
 10
3061.255099227221
 20
-2829.843879212086
 40
0.436363636268
100
AcDbArc
 50
-24.999999997016
 51
90.0
  0
ARC
  5
5CC
100
AcDbEntity
  8
1
  6
CONTINUOUS
 62
           3
100
AcDbCircle
 10
3061.186603856564
 20
-2829.887515575677
 40
0.218181818081
100
AcDbArc
 50
-25.000000011992
 51
90.0
  0
ARC
  5
5CB
100
AcDbEntity
  8
1
  6
CONTINUOUS
 62
           3
100
AcDbCircle
 10
3053.916702849216
 20
-2831.763879212058
 40
0.87272727273
100
AcDbArc
 50
-90.0
 51
-25.000000001723
  0
ARC
  5
5CA
100
AcDbEntity
  8
1
  6
CONTINUOUS
 62
           3
100
AcDbCircle
 10
3054.582740824348
 20
-2830.542061030239
 40
0.87272727273
100
AcDbArc
 50
90.0
 51
154.999999995976
  0
ARC
  5
5C9
100
AcDbEntity
  8
1
  6
CONTINUOUS
 62
           3
100
AcDbCircle
 10
3054.880366970908
 20
-2831.349333757521
 40
0.436363636281
100
AcDbArc
 50
-25.000000000454
 51
90.0
  0
ARC
  5
5C8
100
AcDbEntity
  8
1
  6
CONTINUOUS
 62
           3
100
AcDbCircle
 10
3053.720816555381
 20
-2830.738424666611
 40
0.43636363632
100
AcDbArc
 50
154.999999988906
 51
-90.0
  0
ARC
  5
5C7
100
AcDbEntity
  8
1
  6
CONTINUOUS
 62
           3
100
AcDbCircle
 10
3052.985567089854
 20
-2832.41842466662
 40
0.218181818252
100
AcDbArc
 50
154.999999983095
 51
-90.0
  0
ARC
  5
5C6
100
AcDbEntity
  8
1
  6
CONTINUOUS
 62
           3
100
AcDbCircle
 10
3054.811871600282
 20
-2831.392970121171
 40
0.218181818094
100
AcDbArc
 50
-25.000000001619
 51
90.0
  0
ARC
  5
5C5
100
AcDbEntity
  8
1
  6
CONTINUOUS
 62
           3
100
AcDbCircle
 10
3053.789311926066
 20
-2830.694788302958
 40
0.218181818185
100
AcDbArc
 50
154.999999984053
 51
-90.0
  0
ARC
  5
5C4
100
AcDbEntity
  8
1
  6
CONTINUOUS
 62
           3
100
AcDbCircle
 10
3055.513876583798
 20
-2829.887515575677
 40
0.218181818134
100
AcDbArc
 50
-25.000000005431
 51
90.0
  0
ARC
  5
5C3
100
AcDbEntity
  8
1
  6
CONTINUOUS
 62
           3
100
AcDbCircle
 10
3050.465509447557
 20
-2830.406777626601
 40
0.872727272806
100
AcDbArc
 50
-77.663850596858
 51
-24.833311983981
  0
ARC
  5
5C2
100
AcDbEntity
  8
1
  6
CONTINUOUS
 62
           3
100
AcDbCircle
 10
3050.389039568355
 20
-2831.607612329451
 40
0.436363636313
100
AcDbArc
 50
-23.740953472947
 51
52.948182772303
  0
ARC
  5
5C1
100
AcDbEntity
  8
1
  6
CONTINUOUS
 62
           3
100
AcDbCircle
 10
3050.800393361998
 20
-2830.105697393903
 40
0.436363636295
100
AcDbArc
 50
-24.999999995376
 51
90.0
  0
ARC
  5
5C0
100
AcDbEntity
  8
1
  6
CONTINUOUS
 62
           3
100
AcDbCircle
 10
3050.525695759725
 20
-2830.694788302958
 40
0.436363636395
100
AcDbArc
 50
-90.0
 51
-25.000000000479
  0
ARC
  5
5BF
100
AcDbEntity
  8
1
  6
CONTINUOUS
 62
           3
100
AcDbCircle
 10
3050.339125378888
 20
-2831.611151939338
 40
0.218181818228
100
AcDbArc
 50
-24.999999985585
 51
90.0
  0
ARC
  5
5BE
100
AcDbEntity
  8
1
  6
CONTINUOUS
 62
           3
100
AcDbCircle
 10
3045.212597368571
 20
-2832.462061030271
 40
0.436363636411
100
AcDbArc
 50
154.999999990425
 51
-90.0
  0
ARC
  5
5BD
100
AcDbEntity
  8
1
  6
CONTINUOUS
 62
           3
100
AcDbCircle
 10
3045.281092739227
 20
-2832.41842466662
 40
0.218181818278
100
AcDbArc
 50
154.999999986325
 51
-90.0
  0
ARC
  5
5BC
100
AcDbEntity
  8
1
  6
CONTINUOUS
 62
           3
100
AcDbCircle
 10
3046.313968351196
 20
-2831.545697393891
 40
1.090909090897
100
AcDbArc
 50
-90.0
 51
-24.999999998455
  0
ARC
  5
5BB
100
AcDbEntity
  8
1
  6
CONTINUOUS
 62
           3
100
AcDbCircle
 10
3046.341767780838
 20
-2831.589333757513
 40
1.309090909092
100
AcDbArc
 50
-90.0
 51
-25.000000000111
  0
ARC
  5
5BA
100
AcDbEntity
  8
1
  6
CONTINUOUS
 62
           3
100
AcDbCircle
 10
3048.050139233726
 20
-2829.887515575677
 40
0.218181818213
100
AcDbArc
 50
-24.999999995792
 51
90.0
  0
ARC
  5
5B9
100
AcDbEntity
  8
1
  6
CONTINUOUS
 62
           3
100
AcDbCircle
 10
3048.118634604293
 20
-2829.843879212086
 40
0.436363636322
100
AcDbArc
 50
-24.99999999371
 51
90.0
  0
ARC
  5
5B8
100
AcDbEntity
  8
1
  6
CONTINUOUS
 62
           3
100
AcDbCircle
 10
3047.017263621639
 20
-2830.760242848436
 40
1.090909090927
100
AcDbArc
 50
90.0
 51
155.000000000194
  0
ARC
  5
5B7
100
AcDbEntity
  8
1
  6
CONTINUOUS
 62
           3
100
AcDbCircle
 10
3046.989464192085
 20
-2830.716606484784
 40
1.309090909093
100
AcDbArc
 50
90.0
 51
155.000000000966
  0
ARC
  5
5B6
100
AcDbEntity
  8
1
  6
CONTINUOUS
 62
           3
100
AcDbCircle
 10
3044.920558227195
 20
-2829.887515575677
 40
0.218181818187
100
AcDbArc
 50
-24.999999999022
 51
90.0
  0
ARC
  5
5B5
100
AcDbEntity
  8
1
  6
CONTINUOUS
 62
           3
100
AcDbCircle
 10
3042.151511732755
 20
-2832.41842466662
 40
0.218181818304
100
AcDbArc
 50
154.999999989505
 51
-90.0
  0
ARC
  5
5B4
100
AcDbEntity
  8
1
  6
CONTINUOUS
 62
           3
100
AcDbCircle
 10
3043.184387344724
 20
-2831.545697393891
 40
1.090909090897
100
AcDbArc
 50
-90.0
 51
-25.00000000108
  0
ARC
  5
5B3
100
AcDbEntity
  8
1
  6
CONTINUOUS
 62
           3
100
AcDbCircle
 10
3043.887682615226
 20
-2830.760242848436
 40
1.090909090927
100
AcDbArc
 50
90.0
 51
155.000000000214
  0
ARC
  5
5B2
100
AcDbEntity
  8
1
  6
CONTINUOUS
 62
           3
100
AcDbCircle
 10
3040.054806338223
 20
-2831.545697393891
 40
1.090909090897
100
AcDbArc
 50
-90.0
 51
-24.999999999122
  0
ARC
  5
5B1
100
AcDbEntity
  8
1
  6
CONTINUOUS
 62
           3
100
AcDbCircle
 10
3041.619738794039
 20
-2829.996606484775
 40
0.32727272734
100
AcDbArc
 50
-24.999999997387
 51
90.0
  0
ARC
  5
5B0
100
AcDbEntity
  8
1
  6
CONTINUOUS
 62
           3
100
AcDbCircle
 10
3040.082605767865
 20
-2831.589333757513
 40
1.309090909092
100
AcDbArc
 50
-90.0
 51
-25.000000001221
  0
ARC
  5
5AF
100
AcDbEntity
  8
1
  6
CONTINUOUS
 62
           3
100
AcDbCircle
 10
3041.688234164725
 20
-2829.952970121155
 40
0.545454545342
100
AcDbArc
 50
-24.999999999903
 51
90.0
  0
ARC
  5
5AE
100
AcDbEntity
  8
1
  6
CONTINUOUS
 62
           3
100
AcDbCircle
 10
3042.083016362099
 20
-2832.462061030271
 40
0.436363636518
100
AcDbArc
 50
154.999999996986
 51
-90.0
  0
ARC
  5
5AD
100
AcDbEntity
  8
1
  6
CONTINUOUS
 62
           3
100
AcDbCircle
 10
3044.989053597851
 20
-2829.843879212086
 40
0.436363636349
100
AcDbArc
 50
-24.999999992095
 51
90.0
  0
ARC
  5
5AC
100
AcDbEntity
  8
1
  6
CONTINUOUS
 62
           3
100
AcDbCircle
 10
3043.859883185583
 20
-2830.716606484784
 40
1.309090909093
100
AcDbArc
 50
90.0
 51
154.999999999838
  0
ARC
  5
5AB
100
AcDbEntity
  8
1
  6
CONTINUOUS
 62
           3
100
AcDbCircle
 10
3043.212186774278
 20
-2831.589333757513
 40
1.309090909092
100
AcDbArc
 50
-90.0
 51
-24.999999998504
  0
ARC
  5
5AA
100
AcDbEntity
  8
1
  6
CONTINUOUS
 62
           3
100
AcDbCircle
 10
3050.865446140854
 20
-2830.062061030253
 40
0.654545454483
100
AcDbArc
 50
-24.800962694349
 51
90.0
  0
ARC
  5
5A9
100
AcDbEntity
  8
1
  6
CONTINUOUS
 62
           3
100
AcDbCircle
 10
3054.693938542624
 20
-2830.716606484784
 40
1.309090909093
100
AcDbArc
 50
90.0
 51
154.999999998779
  0
ARC
  5
5A8
100
AcDbEntity
  8
1
  6
CONTINUOUS
 62
           3
100
AcDbCircle
 10
3053.805505130911
 20
-2831.589333757513
 40
1.309090909092
100
AcDbArc
 50
-90.0
 51
-24.999999999034
  0
ARC
  5
5A7
100
AcDbEntity
  8
1
  6
CONTINUOUS
 62
           3
100
AcDbCircle
 10
3052.917071719227
 20
-2832.462061030271
 40
0.436363636438
100
AcDbArc
 50
154.999999992091
 51
-90.0
  0
ARC
  5
5A6
100
AcDbEntity
  8
1
  6
CONTINUOUS
 62
           3
100
AcDbCircle
 10
3055.582371954454
 20
-2829.843879212086
 40
0.436363636295
100
AcDbArc
 50
-24.999999995376
 51
90.0
  0
SPLINE
  5
5A5
100
AcDbEntity
  8
1
  6
CONTINUOUS
 62
           3
100
AcDbSpline
210
0.0
220
0.0
230
1.0
 70
           0
 71
           3
 72
          14
 73
          11
 74
          19
 42
0.00000000001
 43
0.00000000001
 44
0.00000000001
 40
0.7862844167204821
 40
0.7862844167204821
 40
0.7862844167204821
 40
1.1369024219637545
 40
1.4952029155153637
 40
1.8661876604023813
 40
2.2522493034695907
 40
2.6538148624061475
 40
3.0694813491323663
 40
3.4963321172029076
 40
3.8756236548011356
 40
4.1483228259794451
 40
4.1483228259794451
 40
4.1483228259794451
 10
3049.5868476190208
 20
-2822.0359823311469
 30
0.0
 10
3049.5673536579252
 20
-2821.862860056528
 30
0.0
 10
3049.4523590905278
 20
-2821.5293238128588
 30
0.0
 10
3049.2652470405178
 20
-2821.2173337012268
 30
0.0
 10
3049.0122482237221
 20
-2820.9362544962278
 30
0.0
 10
3048.701362201617
 20
-2820.694288292425
 30
0.0
 10
3048.3421082088239
 20
-2820.498419583801
 30
0.0
 10
3047.9453159794762
 20
-2820.3543038006119
 30
0.0
 10
3047.5228736748172
 20
-2820.2661201553419
 30
0.0
 10
3047.1965959639178
 20
-2820.2438792120688
 30
0.0
 10
3047.0874142262041
 20
-2820.2438792120688
 30
0.0
 11
3049.5868476190208
 21
-2822.0359823311469
 31
0.0
 11
3049.5580086005439
 21
-2821.8649004076433
 31
0.0
 11
3049.5104794673048
 21
-2821.6978991863707
 31
0.0
 11
3049.4439069768237
 21
-2821.5331471867248
 31
0.0
 11
3049.3604302589347
 21
-2821.37604193481
 31
0.0
 11
3049.2580478152927
 21
-2821.2225755853656
 31
0.0
 11
3049.1412669212023
 21
-2821.0795930041982
 31
0.0
 11
3049.0064070933145
 21
-2820.9424387156519
 31
0.0
 11
3048.8598650046115
 21
-2820.8176528659524
 31
0.0
 11
3048.6968559966285
 21
-2820.7010682992313
 31
0.0
 11
3048.5248345786713
 21
-2820.5980437461249
 31
0.0
 11
3048.3388491917626
 21
-2820.5055502907198
 31
0.0
 11
3048.1463457707323
 21
-2820.4273182491529
 31
0.0
 11
3047.9396528345669
 21
-2820.3608841459895
 31
0.0
 11
3047.721633608583
 21
-2820.307610733581
 31
0.0
 11
3047.525111151273
 21
-2820.2732581673149
 31
0.0
 11
3047.3330636468745
 21
-2820.2531816249948
 31
0.0
 11
3047.2034174502282
 21
-2820.2462048153002
 31
0.0
 11
3047.0874142262041
 21
-2820.2438792120688
 31
0.0
  0
SPLINE
  5
5A4
100
AcDbEntity
  8
1
  6
CONTINUOUS
 62
           3
100
AcDbSpline
210
0.0
220
0.0
230
1.0
 70
           0
 71
           3
 72
          15
 73
          12
 74
          21
 42
0.00000000001
 43
0.00000000001
 44
0.00000000001
 40
48.420231092011093
 40
48.420231092011093
 40
48.420231092011093
 40
48.692930263191371
 40
49.072221800785655
 40
49.499072568860157
 40
49.91473905560342
 40
50.316304614520206
 40
50.70236625756047
 40
51.073351002497596
 40
51.431651496043429
 40
51.781469965114752
 40
52.127504056082692
 40
52.127504056082692
 40
52.127504056082692
 10
3047.0874142262041
 20
-2824.1711519393189
 30
0.0
 10
3047.1965959639178
 20
-2824.1711519393189
 30
0.0
 10
3047.5228736748172
 20
-2824.148910995988
 30
0.0
 10
3047.9453159794762
 20
-2824.0607273507758
 30
0.0
 10
3048.3421082088239
 20
-2823.9166115675289
 30
0.0
 10
3048.701362201617
 20
-2823.7207428588749
 30
0.0
 10
3049.0122482237221
 20
-2823.4787766551599
 30
0.0
 10
3049.2652470405178
 20
-2823.1976974501608
 30
0.0
 10
3049.4523590905278
 20
-2822.885707338412
 30
0.0
 10
3049.5673536579252
 20
-2822.552171094861
 30
0.0
 10
3049.606162651532
 20
-2822.2075155756938
 30
0.0
 10
3049.5868476190208
 20
-2822.0359823311469
 30
0.0
 11
3047.0874142262041
 21
-2824.1711519393189
 31
0.0
 11
3047.2034174502287
 21
-2824.1688263360811
 31
0.0
 11
3047.3330636468763
 21
-2824.1618495263688
 31
0.0
 11
3047.5251111512725
 21
-2824.1417729840305
 31
0.0
 11
3047.7216336085808
 21
-2824.1074204177758
 31
0.0
 11
3047.9396528345655
 21
-2824.0541470053831
 31
0.0
 11
3048.1463457707291
 21
-2823.9877129022066
 31
0.0
 11
3048.3388491917644
 21
-2823.9094808606128
 31
0.0
 11
3048.524834578679
 21
-2823.8169874051855
 31
0.0
 11
3048.6968559966313
 21
-2823.7139628520817
 31
0.0
 11
3048.8598650046133
 21
-2823.5973782853907
 31
0.0
 11
3049.0064070933117
 21
-2823.4725924357285
 31
0.0
 11
3049.1412669211895
 21
-2823.3354381472036
 31
0.0
 11
3049.2580478152918
 21
-2823.192455566008
 31
0.0
 11
3049.360430258942
 21
-2823.0389892165063
 31
0.0
 11
3049.4439233827352
 21
-2822.881836380016
 31
0.0
 11
3049.5105450909441
 21
-2822.7169416267325
 31
0.0
 11
3049.5580290231082
 21
-2822.5500474877963
 31
0.0
 11
3049.5868636856367
 21
-2822.3789061347306
 31
0.0
 11
3049.5965091519301
 21
-2822.2074799043162
 31
0.0
 11
3049.5868476190208
 21
-2822.0359823311469
 31
0.0
  0
SPLINE
  5
5A3
100
AcDbEntity
  8
1
  6
CONTINUOUS
 62
           3
100
AcDbSpline
210
0.0
220
0.0
230
1.0
 70
           0
 71
           3
 72
          14
 73
          11
 74
          19
 42
0.00000000001
 43
0.00000000001
 44
0.00000000001
 40
0.7862844167204821
 40
0.7862844167204821
 40
0.7862844167204821
 40
1.1369024219235033
 40
1.4952029154814743
 40
1.8661876604229597
 40
2.2522493034412463
 40
2.6538148623721831
 40
3.0694813491246244
 40
3.4963321171999628
 40
3.875623654798098
 40
4.1483228259764076
 40
4.1483228259764076
 40
4.1483228259764076
 10
3049.5868476190208
 20
-2825.963255058427
 30
0.0
 10
3049.5673536579252
 20
-2825.7901327837781
 30
0.0
 10
3049.4523590905278
 20
-2825.4565965402571
 30
0.0
 10
3049.2652470405178
 20
-2825.1446064284469
 30
0.0
 10
3049.0122482237221
 20
-2824.8635272235069
 30
0.0
 10
3048.701362201617
 20
-2824.6215610197919
 30
0.0
 10
3048.3421082088239
 20
-2824.4256923110788
 30
0.0
 10
3047.9453159794762
 20
-2824.281576527861
 30
0.0
 10
3047.5228736748172
 20
-2824.193392882592
 30
0.0
 10
3047.1965959639178
 20
-2824.1711519393189
 30
0.0
 10
3047.0874142262041
 20
-2824.1711519393189
 30
0.0
 11
3049.5868476190208
 21
-2825.963255058427
 31
0.0
 11
3049.5580086005448
 21
-2825.792173134922
 31
0.0
 11
3049.5104794673089
 21
-2825.6251719137053
 31
0.0
 11
3049.4439069768259
 21
-2825.4604199140877
 31
0.0
 11
3049.3604302589401
 21
-2825.303314662131
 31
0.0
 11
3049.2580478152904
 21
-2825.1498483126134
 31
0.0
 11
3049.141266921185
 21
-2825.0068657314282
 31
0.0
 11
3049.0064070933122
 21
-2824.869711442931
 31
0.0
 11
3048.8598650046201
 21
-2824.7449255932816
 31
0.0
 11
3048.6968559966331
 21
-2824.6283410265792
 31
0.0
 11
3048.5248345786777
 21
-2824.5253164734518
 31
0.0
 11
3048.3388491917631
 21
-2824.4328230180063
 31
0.0
 11
3048.1463457707273
 21
-2824.3545909764148
 31
0.0
 11
3047.9396528345655
 21
-2824.2881568732419
 31
0.0
 11
3047.7216336085821
 21
-2824.2348834608306
 31
0.0
 11
3047.5251111512725
 21
-2824.200530894565
 31
0.0
 11
3047.333063646875
 21
-2824.1804543522449
 31
0.0
 11
3047.2034174502287
 21
-2824.1734775425502
 31
0.0
 11
3047.0874142262041
 21
-2824.1711519393189
 31
0.0
  0
SPLINE
  5
5A2
100
AcDbEntity
  8
1
  6
CONTINUOUS
 62
           3
100
AcDbSpline
210
0.0
220
0.0
230
1.0
 70
           0
 71
           3
 72
          15
 73
          12
 74
          21
 42
0.00000000001
 43
0.00000000001
 44
0.00000000001
 40
48.420231092011143
 40
48.420231092011143
 40
48.420231092011143
 40
48.692930263191464
 40
49.072221800785663
 40
49.499072568864989
 40
49.914739055606034
 40
50.316304614524853
 40
50.702366257563511
 40
51.073351002489446
 40
51.431651496034888
 40
51.781469965106666
 40
52.127504056074152
 40
52.127504056074152
 40
52.127504056074152
 10
3047.0874142262041
 20
-2828.098424666598
 30
0.0
 10
3047.1965959639178
 20
-2828.098424666598
 30
0.0
 10
3047.5228736748172
 20
-2828.0761837232658
 30
0.0
 10
3047.9453159794762
 20
-2827.9880000780549
 30
0.0
 10
3048.3421082088239
 20
-2827.8438842947789
 30
0.0
 10
3048.701362201617
 20
-2827.648015586155
 30
0.0
 10
3049.0122482237221
 20
-2827.4060493824099
 30
0.0
 10
3049.2652470405178
 20
-2827.12497017744
 30
0.0
 10
3049.4523590905278
 20
-2826.812980065692
 30
0.0
 10
3049.5673536579252
 20
-2826.4794438221411
 30
0.0
 10
3049.606162651532
 20
-2826.134788302973
 30
0.0
 10
3049.5868476190208
 20
-2825.963255058427
 30
0.0
 11
3047.0874142262041
 21
-2828.098424666598
 31
0.0
 11
3047.2034174502287
 21
-2828.0960990633603
 31
0.0
 11
3047.3330636468763
 21
-2828.0891222536475
 31
0.0
 11
3047.5251111512725
 21
-2828.0690457113087
 31
0.0
 11
3047.7216336085799
 21
-2828.0346931450549
 31
0.0
 11
3047.9396528345651
 21
-2827.9814197326582
 31
0.0
 11
3048.1463457707305
 21
-2827.9149856294698
 31
0.0
 11
3048.338849191764
 21
-2827.8367535878697
 31
0.0
 11
3048.5248345786781
 21
-2827.744260132451
 31
0.0
 11
3048.6968559966317
 21
-2827.6412355793541
 31
0.0
 11
3048.8598650046138
 21
-2827.5246510126553
 31
0.0
 11
3049.0064070933122
 21
-2827.399865162985
 31
0.0
 11
3049.1412669211913
 21
-2827.2627108744664
 31
0.0
 11
3049.2580478152913
 21
-2827.1197282932835
 31
0.0
 11
3049.3604302589401
 21
-2826.9662619437881
 31
0.0
 11
3049.4439233827347
 21
-2826.8091091072961
 31
0.0
 11
3049.5105450909441
 21
-2826.6442143540125
 31
0.0
 11
3049.5580290231078
 21
-2826.4773202150764
 31
0.0
 11
3049.5868636856371
 21
-2826.3061788620098
 31
0.0
 11
3049.5965091519301
 21
-2826.1347526315953
 31
0.0
 11
3049.5868476190208
 21
-2825.963255058427
 31
0.0
  0
SPLINE
  5
5A1
100
AcDbEntity
  8
1
  6
CONTINUOUS
 62
           3
100
AcDbSpline
210
0.0
220
0.0
230
1.0
 70
           0
 71
           3
 72
          14
 73
          11
 74
          19
 42
0.00000000001
 43
0.00000000001
 44
0.00000000001
 40
0.3053995610601455
 40
0.3053995610601455
 40
0.3053995610601455
 40
0.4403516341379319
 40
0.5767846993473187
 40
0.7156868441961377
 40
0.8575674551144494
 40
1.0025593157776087
 40
1.1504223459477747
 40
1.3005899144376876
 40
1.4331904030137896
 40
1.5282183624363195
 40
1.5282183624363195
 40
1.5282183624363195
 10
3046.5386169468879
 20
-2822.686340732067
 30
0.0
 10
3046.5319012988052
 20
-2822.6194105566219
 30
0.0
 10
3046.4921387368022
 20
-2822.4900103188061
 30
0.0
 10
3046.4273064387171
 20
-2822.3687605517048
 30
0.0
 10
3046.3394693746782
 20
-2822.259346238226
 30
0.0
 10
3046.2313688910958
 20
-2822.165045686806
 30
0.0
 10
3046.1063238830811
 20
-2822.0886554866311
 30
0.0
 10
3045.9681311254681
 20
-2822.032427930515
 30
0.0
 10
3045.820959191346
 20
-2821.9980166044179
 30
0.0
 10
3045.707230570225
 20
-2821.9893337575259
 30
0.0
 10
3045.6692324080409
 20
-2821.9893337575259
 30
0.0
 11
3046.5386169468879
 21
-2822.686340732067
 31
0.0
 11
3046.5286370144086
 21
-2822.6200563404827
 31
0.0
 11
3046.5121285131358
 21
-2822.5550635166173
 31
0.0
 11
3046.489104816907
 21
-2822.4912533113952
 31
0.0
 11
3046.4600132808882
 21
-2822.4299290913523
 31
0.0
 11
3046.4246199851755
 21
-2822.370520977041
 31
0.0
 11
3046.3838537823785
 21
-2822.3146337134031
 31
0.0
 11
3046.3371994654217
 21
-2822.2615083791179
 31
0.0
 11
3046.2860053299523
 21
-2822.2127073266165
 31
0.0
 11
3046.2295506185415
 21
-2822.1675059385843
 31
0.0
 11
3046.1694593620214
 21
-2822.1272250541087
 31
0.0
 11
3046.1049672310205
 21
-2822.0913237818277
 31
0.0
 11
3046.0377617958993
 21
-2822.0607590999389
 31
0.0
 11
3045.9659994118188
 21
-2822.0349420799148
 31
0.0
 11
3045.889973600441
 21
-2822.0141533586907
 31
0.0
 11
3045.8216501991174
 21
-2822.00078628744
 31
0.0
 11
3045.754708813336
 21
-2821.9929585822319
 31
0.0
 11
3045.7096005904573
 21
-2821.9902399637022
 31
0.0
 11
3045.6692324080409
 21
-2821.9893337575259
 31
0.0
  0
SPLINE
  5
5A0
100
AcDbEntity
  8
1
  6
CONTINUOUS
 62
           3
100
AcDbSpline
210
0.0
220
0.0
230
1.0
 70
           0
 71
           3
 72
          14
 73
          11
 74
          19
 42
0.00000000001
 43
0.00000000001
 44
0.00000000001
 40
0.3053995610601455
 40
0.3053995610601455
 40
0.3053995610601455
 40
0.4403516341371909
 40
0.5767846993470966
 40
0.7156868441837427
 40
0.8575674551004501
 40
1.0025593157734125
 40
1.1504223459381597
 40
1.3005899144256783
 40
1.4331904030050069
 40
1.5282183624275021
 40
1.5282183624275021
 40
1.5282183624275021
 10
3046.5386169468879
 20
-2825.5227043684199
 30
0.0
 10
3046.5319012988052
 20
-2825.4557741929771
 30
0.0
 10
3046.4921387368022
 20
-2825.326373955158
 30
0.0
 10
3046.4273064387171
 20
-2825.205124188059
 30
0.0
 10
3046.3394693746782
 20
-2825.0957098746089
 30
0.0
 10
3046.2313688910958
 20
-2825.0014093231598
 30
0.0
 10
3046.1063238830811
 20
-2824.9250191229839
 30
0.0
 10
3045.9681311254681
 20
-2824.8687915668979
 30
0.0
 10
3045.820959191346
 20
-2824.8343802407721
 30
0.0
 10
3045.707230570225
 20
-2824.825697393881
 30
0.0
 10
3045.6692324080409
 20
-2824.825697393881
 30
0.0
 11
3046.5386169468879
 21
-2825.5227043684199
 31
0.0
 11
3046.5286370144086
 21
-2825.4564199768365
 31
0.0
 11
3046.5121285131358
 21
-2825.3914271529711
 31
0.0
 11
3046.4891048169065
 21
-2825.3276169477472
 31
0.0
 11
3046.4600132808864
 21
-2825.2662927277024
 31
0.0
 11
3046.424619985175
 21
-2825.2068846133984
 31
0.0
 11
3046.3838537823799
 21
-2825.1509973497732
 31
0.0
 11
3046.3371994654226
 21
-2825.0978720154944
 31
0.0
 11
3046.2860053299546
 21
-2825.0490709629867
 31
0.0
 11
3046.229550618541
 21
-2825.0038695749413
 31
0.0
 11
3046.1694593620177
 21
-2824.9635886904603
 31
0.0
 11
3046.1049672310196
 21
-2824.9276874181833
 31
0.0
 11
3046.0377617958998
 21
-2824.8971227363068
 31
0.0
 11
3045.9659994118192
 21
-2824.87130571629
 31
0.0
 11
3045.8899736004423
 21
-2824.8505169950586
 31
0.0
 11
3045.8216501991174
 21
-2824.8371499237974
 31
0.0
 11
3045.7547088133351
 21
-2824.8293222185866
 31
0.0
 11
3045.7096005904564
 21
-2824.8266036000568
 31
0.0
 11
3045.6692324080409
 21
-2824.825697393881
 31
0.0
  0
SPLINE
  5
59F
100
AcDbEntity
  8
1
  6
CONTINUOUS
 62
           3
100
AcDbSpline
210
0.0
220
0.0
230
1.0
 70
           0
 71
           3
 72
          15
 73
          12
 74
          21
 42
0.00000000001
 43
0.00000000001
 44
0.00000000001
 40
17.668653401818549
 40
17.668653401818549
 40
17.668653401818549
 40
17.763681361245581
 40
17.89628184982287
 40
18.046449418303382
 40
18.194312448475884
 40
18.339304309156574
 40
18.481184920038082
 40
18.620087064879677
 40
18.756520130114936
 40
18.891321054805353
 40
19.025400108629771
 40
19.025400108629771
 40
19.025400108629771
 10
3045.6692324080409
 20
-2823.5166064847881
 30
0.0
 10
3045.707230570225
 20
-2823.5166064847881
 30
0.0
 10
3045.820959191346
 20
-2823.5079236377778
 30
0.0
 10
3045.9681311254681
 20
-2823.4735123117098
 30
0.0
 10
3046.1063238830811
 20
-2823.417284755626
 30
0.0
 10
3046.2313688910958
 20
-2823.3408945554188
 30
0.0
 10
3046.3394693746782
 20
-2823.246594003971
 30
0.0
 10
3046.4273064387171
 20
-2823.1371796906101
 30
0.0
 10
3046.4921387368022
 20
-2823.015929923421
 30
0.0
 10
3046.5319012988052
 20
-2822.886529685632
 30
0.0
 10
3046.545302414564
 20
-2822.752970121157
 30
0.0
 10
3046.5386169468879
 20
-2822.686340732067
 30
0.0
 11
3045.6692324080409
 21
-2823.5166064847881
 31
0.0
 11
3045.7096005904568
 21
-2823.5157002785991
 31
0.0
 11
3045.7547088133369
 21
-2823.5129816600324
 31
0.0
 11
3045.8216501991178
 21
-2823.5051539547767
 31
0.0
 11
3045.8899736004432
 21
-2823.4917868835182
 31
0.0
 11
3045.9659994118192
 21
-2823.47099816231
 31
0.0
 11
3046.0377617958966
 21
-2823.4451811423032
 31
0.0
 11
3046.1049672310191
 21
-2823.4146164604226
 31
0.0
 11
3046.1694593620177
 21
-2823.3787151881343
 31
0.0
 11
3046.2295506185433
 21
-2823.3384343036396
 31
0.0
 11
3046.2860053299628
 21
-2823.2932329155856
 31
0.0
 11
3046.3371994654231
 21
-2823.2444318630974
 31
0.0
 11
3046.3838537823735
 21
-2823.1913065288591
 31
0.0
 11
3046.4246199851727
 21
-2823.1354192652511
 31
0.0
 11
3046.4600132808841
 21
-2823.0760111509253
 31
0.0
 11
3046.4891076017916
 21
-2823.0146778679282
 31
0.0
 11
3046.5121396526802
 21
-2822.950840473944
 31
0.0
 11
3046.5286405240454
 21
-2822.8858676156842
 31
0.0
 11
3046.5386198458914
 21
-2822.8195706175311
 31
0.0
 11
3046.5419604054769
 21
-2822.7529628979778
 31
0.0
 11
3046.5386169468879
 21
-2822.686340732067
 31
0.0
  0
SPLINE
  5
59E
100
AcDbEntity
  8
1
  6
CONTINUOUS
 62
           3
100
AcDbSpline
210
0.0
220
0.0
230
1.0
 70
           0
 71
           3
 72
          15
 73
          12
 74
          21
 42
0.00000000001
 43
0.00000000001
 44
0.00000000001
 40
17.668653401815931
 40
17.668653401815931
 40
17.668653401815931
 40
17.763681361242909
 40
17.896281849823566
 40
18.046449418307926
 40
18.194312448449796
 40
18.339304309109
 40
18.481184920035183
 40
18.620087064898648
 40
18.756520130106331
 40
18.891321054811812
 40
19.025400108665643
 40
19.025400108665643
 40
19.025400108665643
 10
3045.6692324080409
 20
-2826.352970121171
 30
0.0
 10
3045.707230570225
 20
-2826.352970121171
 30
0.0
 10
3045.820959191346
 20
-2826.3442872741621
 30
0.0
 10
3045.9681311254681
 20
-2826.309875948064
 30
0.0
 10
3046.1063238830811
 20
-2826.253648391978
 30
0.0
 10
3046.2313688910958
 20
-2826.1772581918899
 30
0.0
 10
3046.3394693746782
 20
-2826.082957640413
 30
0.0
 10
3046.4273064387171
 20
-2825.973543326962
 30
0.0
 10
3046.4921387368022
 20
-2825.852293559803
 30
0.0
 10
3046.5319012988052
 20
-2825.722893322044
 30
0.0
 10
3046.545302414564
 20
-2825.5893337575098
 30
0.0
 10
3046.5386169468879
 20
-2825.5227043684199
 30
0.0
 11
3045.6692324080409
 21
-2826.352970121171
 31
0.0
 11
3045.7096005904568
 21
-2826.352063914982
 31
0.0
 11
3045.7547088133365
 21
-2826.3493452964158
 31
0.0
 11
3045.8216501991178
 21
-2826.3415175911573
 31
0.0
 11
3045.8899736004432
 21
-2826.3281505198884
 31
0.0
 11
3045.965999411821
 21
-2826.3073617986674
 31
0.0
 11
3046.0377617959048
 21
-2826.2815447786534
 31
0.0
 11
3046.1049672310205
 21
-2826.2509800967891
 31
0.0
 11
3046.1694593620159
 21
-2826.2150788245472
 31
0.0
 11
3046.2295506185392
 21
-2826.1747979400952
 31
0.0
 11
3046.2860053299501
 21
-2826.129596552053
 31
0.0
 11
3046.3371994654208
 21
-2826.080795499533
 31
0.0
 11
3046.3838537823772
 21
-2826.0276701652515
 31
0.0
 11
3046.4246199851755
 21
-2825.9717829016149
 31
0.0
 11
3046.4600132808901
 21
-2825.9123747872818
 31
0.0
 11
3046.4891076017925
 21
-2825.8510415043097
 31
0.0
 11
3046.5121396526765
 21
-2825.787204110351
 31
0.0
 11
3046.528640524044
 21
-2825.7222312520889
 31
0.0
 11
3046.5386198458909
 21
-2825.6559342539167
 31
0.0
 11
3046.5419604054764
 21
-2825.5893265343393
 31
0.0
 11
3046.5386169468879
 21
-2825.5227043684199
 31
0.0
  0
LINE
  5
59D
100
AcDbEntity
  8
0
  6
CONTINUOUS
 62
           3
100
AcDbLine
 10
3059.851050589838
 20
-2828.098424666598
 11
3062.251050589857
 21
-2828.098424666598
  0
LINE
  5
59C
100
AcDbEntity
  8
0
  6
CONTINUOUS
 62
           3
100
AcDbLine
 10
3074.032868771636
 20
-2825.480242848413
 11
3076.651050589821
 21
-2820.243879212069
  0
LINE
  5
59B
100
AcDbEntity
  8
0
  6
CONTINUOUS
 62
           3
100
AcDbLine
 10
3068.3601414989
 20
-2820.243879212069
 11
3070.978323317204
 21
-2825.480242848413
  0
LINE
  5
59A
100
AcDbEntity
  8
0
  6
CONTINUOUS
 62
           3
100
AcDbLine
 10
3072.505596044375
 20
-2823.516606484788
 11
3071.632868771677
 21
-2820.243879212069
  0
LINE
  5
599
100
AcDbEntity
  8
0
  6
CONTINUOUS
 62
           3
100
AcDbLine
 10
3072.505596044375
 20
-2823.516606484788
 11
3073.378323317104
 21
-2820.243879212069
  0
LINE
  5
598
100
AcDbEntity
  8
0
  6
CONTINUOUS
 62
           3
100
AcDbLine
 10
3070.978323317204
 20
-2828.098424666598
 11
3074.032868771636
 21
-2828.098424666598
  0
LINE
  5
597
100
AcDbEntity
  8
0
  6
CONTINUOUS
 62
           3
100
AcDbLine
 10
3070.978323317204
 20
-2825.480242848413
 11
3070.978323317204
 21
-2828.098424666598
  0
LINE
  5
596
100
AcDbEntity
  8
0
  6
CONTINUOUS
 62
           3
100
AcDbLine
 10
3074.032868771636
 20
-2828.098424666598
 11
3074.032868771636
 21
-2825.480242848413
  0
LINE
  5
595
100
AcDbEntity
  8
0
  6
CONTINUOUS
 62
           3
100
AcDbLine
 10
3073.378323317104
 20
-2820.243879212069
 11
3076.651050589821
 21
-2820.243879212069
  0
LINE
  5
594
100
AcDbEntity
  8
0
  6
CONTINUOUS
 62
           3
100
AcDbLine
 10
3068.3601414989
 20
-2820.243879212069
 11
3071.632868771677
 21
-2820.243879212069
  0
LINE
  5
593
100
AcDbEntity
  8
1
  6
CONTINUOUS
 62
           3
100
AcDbLine
 10
3030.981606390931
 20
-2830.934788302951
 11
3033.949738144928
 21
-2842.062061030258
  0
LINE
  5
592
100
AcDbEntity
  8
1
  6
CONTINUOUS
 62
           3
100
AcDbLine
 10
3027.032539859753
 20
-2830.934788302951
 11
3030.981606390931
 21
-2830.934788302951
  0
LINE
  5
591
100
AcDbEntity
  8
1
  6
CONTINUOUS
 62
           3
100
AcDbLine
 10
3027.70200905867
 20
-2828.098424666598
 11
3028.886454564748
 21
-2823.080242848423
  0
LINE
  5
590
100
AcDbEntity
  8
1
  6
CONTINUOUS
 62
           3
100
AcDbLine
 10
3027.70200905867
 20
-2828.098424666598
 11
3030.225023786988
 21
-2828.098424666598
  0
LINE
  5
58F
100
AcDbEntity
  8
1
  6
CONTINUOUS
 62
           3
100
AcDbLine
 10
3033.949738144928
 20
-2842.062061030258
 11
3037.167280580312
 21
-2834.835342398791
  0
LINE
  5
58E
100
AcDbEntity
  8
1
  6
CONTINUOUS
 62
           3
100
AcDbLine
 10
3028.886454564748
 20
-2823.080242848423
 11
3030.225023786988
 21
-2828.098424666598
  0
LINE
  5
58D
100
AcDbEntity
  8
1
  6
CONTINUOUS
 62
           3
100
AcDbLine
 10
3026.569061183461
 20
-2832.898424666605
 11
3027.032539859753
 21
-2830.934788302951
  0
LINE
  5
58C
100
AcDbEntity
  8
1
  6
CONTINUOUS
 62
           3
100
AcDbLine
 10
3021.769061183453
 20
-2832.898424666605
 11
3026.569061183461
 21
-2832.898424666605
  0
LINE
  5
58B
100
AcDbEntity
  8
1
  6
CONTINUOUS
 62
           3
100
AcDbLine
 10
3025.880772248546
 20
-2820.243879212069
 11
3032.426226794011
 21
-2820.243879212069
  0
LINE
  5
58A
100
AcDbEntity
  8
1
  6
CONTINUOUS
 62
           3
100
AcDbLine
 10
3021.769061183453
 20
-2832.898424666605
 11
3025.880772248546
 21
-2820.243879212069
  0
LINE
  5
589
100
AcDbEntity
  8
1
  6
CONTINUOUS
 62
           3
100
AcDbLine
 10
3032.426226794011
 20
-2820.243879212069
 11
3037.167280580312
 21
-2834.835342398791
  0
LINE
  5
588
100
AcDbEntity
  8
1
  6
CONTINUOUS
 62
           3
100
AcDbLine
 10
3035.8510505898
 20
-2820.243879212069
 11
3038.905596044409
 21
-2820.243879212069
  0
LINE
  5
587
100
AcDbEntity
  8
1
  6
CONTINUOUS
 62
           3
100
AcDbLine
 10
3038.905596044409
 20
-2820.243879212069
 11
3038.905596044409
 21
-2826.134788302973
  0
LINE
  5
586
100
AcDbEntity
  8
1
  6
CONTINUOUS
 62
           3
100
AcDbLine
 10
3038.905596044409
 20
-2826.134788302973
 11
3041.741959680762
 21
-2826.134788302973
  0
LINE
  5
585
100
AcDbEntity
  8
1
  6
CONTINUOUS
 62
           3
100
AcDbLine
 10
3041.741959680762
 20
-2826.134788302973
 11
3041.741959680762
 21
-2828.098424666598
  0
LINE
  5
584
100
AcDbEntity
  8
1
  6
CONTINUOUS
 62
           3
100
AcDbLine
 10
3041.741959680762
 20
-2828.098424666598
 11
3035.8510505898
 21
-2828.098424666598
  0
LINE
  5
583
100
AcDbEntity
  8
1
  6
CONTINUOUS
 62
           3
100
AcDbLine
 10
3035.8510505898
 20
-2828.098424666598
 11
3035.8510505898
 21
-2820.243879212069
  0
LINE
  5
582
100
AcDbEntity
  8
1
  6
CONTINUOUS
 62
           3
100
AcDbLine
 10
3045.232868771648
 20
-2821.989333757526
 11
3045.669232408041
 21
-2821.989333757526
  0
LINE
  5
581
100
AcDbEntity
  8
1
  6
CONTINUOUS
 62
           3
100
AcDbLine
 10
3045.232868771648
 20
-2823.516606484788
 11
3045.669232408041
 21
-2823.516606484788
  0
LINE
  5
580
100
AcDbEntity
  8
1
  6
CONTINUOUS
 62
           3
100
AcDbLine
 10
3045.232868771648
 20
-2824.825697393881
 11
3045.669232408041
 21
-2824.825697393881
  0
LINE
  5
57F
100
AcDbEntity
  8
1
  6
CONTINUOUS
 62
           3
100
AcDbLine
 10
3045.232868771648
 20
-2826.352970121171
 11
3045.669232408041
 21
-2826.352970121171
  0
LINE
  5
57E
100
AcDbEntity
  8
1
  6
CONTINUOUS
 62
           3
100
AcDbLine
 10
3045.232868771648
 20
-2821.989333757526
 11
3045.232868771648
 21
-2823.516606484788
  0
LINE
  5
57D
100
AcDbEntity
  8
1
  6
CONTINUOUS
 62
           3
100
AcDbLine
 10
3045.232868771648
 20
-2824.825697393881
 11
3045.232868771648
 21
-2826.352970121171
  0
LINE
  5
57C
100
AcDbEntity
  8
1
  6
CONTINUOUS
 62
           3
100
AcDbLine
 10
3042.396505135383
 20
-2820.243879212069
 11
3042.396505135383
 21
-2828.098424666598
  0
LINE
  5
57B
100
AcDbEntity
  8
1
  6
CONTINUOUS
 62
           3
100
AcDbLine
 10
3047.087414226204
 20
-2820.243879212069
 11
3042.396505135383
 21
-2820.243879212069
  0
LINE
  5
57A
100
AcDbEntity
  8
1
  6
CONTINUOUS
 62
           3
100
AcDbLine
 10
3042.396505135383
 20
-2828.098424666598
 11
3047.087414226204
 21
-2828.098424666598
  0
LINE
  5
579
100
AcDbEntity
  8
1
  6
CONTINUOUS
 62
           3
100
AcDbLine
 10
3053.087414226206
 20
-2828.098424666598
 11
3050.251050589823
 21
-2828.098424666598
  0
LINE
  5
578
100
AcDbEntity
  8
1
  6
CONTINUOUS
 62
           3
100
AcDbLine
 10
3056.360141498894
 20
-2828.098424666598
 11
3059.196505135248
 21
-2828.098424666598
  0
LINE
  5
577
100
AcDbEntity
  8
1
  6
CONTINUOUS
 62
           3
100
AcDbLine
 10
3052.869232408009
 20
-2820.243879212069
 11
3056.578323317121
 21
-2820.243879212069
  0
LINE
  5
576
100
AcDbEntity
  8
1
  6
CONTINUOUS
 62
           3
100
AcDbLine
 10
3052.869232408009
 20
-2820.243879212069
 11
3050.251050589823
 21
-2828.098424666598
  0
LINE
  5
575
100
AcDbEntity
  8
1
  6
CONTINUOUS
 62
           3
100
AcDbLine
 10
3056.578323317121
 20
-2820.243879212069
 11
3059.196505135248
 21
-2828.098424666598
  0
LINE
  5
574
100
AcDbEntity
  8
1
  6
CONTINUOUS
 62
           3
100
AcDbLine
 10
3053.420747559557
 20
-2826.898424666604
 11
3056.026808165546
 21
-2826.898424666604
  0
LINE
  5
573
100
AcDbEntity
  8
1
  6
CONTINUOUS
 62
           3
100
AcDbLine
 10
3053.905596044385
 20
-2825.152970121147
 11
3055.541959680744
 21
-2825.152970121147
  0
LINE
  5
572
100
AcDbEntity
  8
1
  6
CONTINUOUS
 62
           3
100
AcDbLine
 10
3053.087414226206
 20
-2828.098424666598
 11
3053.420747559557
 21
-2826.898424666604
  0
LINE
  5
571
100
AcDbEntity
  8
1
  6
CONTINUOUS
 62
           3
100
AcDbLine
 10
3054.723777862536
 20
-2822.207515575694
 11
3055.541959680744
 21
-2825.152970121147
  0
LINE
  5
570
100
AcDbEntity
  8
1
  6
CONTINUOUS
 62
           3
100
AcDbLine
 10
3053.905596044385
 20
-2825.152970121147
 11
3054.723777862536
 21
-2822.207515575694
  0
LINE
  5
56F
100
AcDbEntity
  8
1
  6
CONTINUOUS
 62
           3
100
AcDbLine
 10
3056.026808165546
 20
-2826.898424666604
 11
3056.360141498894
 21
-2828.098424666598
  0
LINE
  5
56E
100
AcDbEntity
  8
1
  6
CONTINUOUS
 62
           3
100
AcDbLine
 10
3059.851050589838
 20
-2820.243879212069
 11
3059.851050589838
 21
-2828.098424666598
  0
LINE
  5
56D
100
AcDbEntity
  8
1
  6
CONTINUOUS
 62
           3
100
AcDbLine
 10
3067.705596044397
 20
-2828.098424666598
 11
3067.705596044397
 21
-2820.243879212069
  0
LINE
  5
56C
100
AcDbEntity
  8
1
  6
CONTINUOUS
 62
           3
100
AcDbLine
 10
3065.305596044378
 20
-2820.243879212069
 11
3065.305596044378
 21
-2825.043879212078
  0
LINE
  5
56B
100
AcDbEntity
  8
1
  6
CONTINUOUS
 62
           3
100
AcDbLine
 10
3062.251050589857
 20
-2828.098424666598
 11
3062.251050589857
 21
-2823.298424666621
  0
LINE
  5
56A
100
AcDbEntity
  8
1
  6
CONTINUOUS
 62
           3
100
AcDbLine
 10
3062.251050589857
 20
-2823.298424666621
 11
3063.996505135285
 21
-2828.098424666598
  0
LINE
  5
569
100
AcDbEntity
  8
1
  6
CONTINUOUS
 62
           3
100
AcDbLine
 10
3065.305596044378
 20
-2825.043879212078
 11
3063.56014149895
 21
-2820.243879212069
  0
LINE
  5
568
100
AcDbEntity
  8
1
  6
CONTINUOUS
 62
           3
100
AcDbLine
 10
3059.851050589838
 20
-2820.243879212069
 11
3063.56014149895
 21
-2820.243879212069
  0
LINE
  5
567
100
AcDbEntity
  8
1
  6
CONTINUOUS
 62
           3
100
AcDbLine
 10
3063.996505135285
 20
-2828.098424666598
 11
3067.705596044397
 21
-2828.098424666598
  0
LINE
  5
566
100
AcDbEntity
  8
1
  6
CONTINUOUS
 62
           3
100
AcDbLine
 10
3065.305596044378
 20
-2820.243879212069
 11
3067.705596044397
 21
-2820.243879212069
  0
LINE
  5
565
100
AcDbEntity
  8
1
  6
CONTINUOUS
 62
           3
100
AcDbLine
 10
3063.634465914385
 20
-2829.669333757509
 11
3064.826711506196
 21
-2829.669333757509
  0
LINE
  5
564
100
AcDbEntity
  8
1
  6
CONTINUOUS
 62
           3
100
AcDbLine
 10
3062.128716094627
 20
-2832.898424666605
 11
3063.634465914385
 21
-2829.669333757509
  0
LINE
  5
563
100
AcDbEntity
  8
1
  6
CONTINUOUS
 62
           3
100
AcDbLine
 10
3061.832118012832
 20
-2832.898424666605
 11
3063.337867832532
 21
-2829.669333757509
  0
LINE
  5
562
100
AcDbEntity
  8
1
  6
CONTINUOUS
 62
           3
100
AcDbLine
 10
3070.776058057302
 20
-2831.807515575711
 11
3071.064942457815
 21
-2831.807515575711
  0
LINE
  5
561
100
AcDbEntity
  8
1
  6
CONTINUOUS
 62
           3
100
AcDbLine
 10
3070.556832738551
 20
-2832.277645788698
 11
3070.776058057302
 21
-2831.807515575711
  0
LINE
  5
560
100
AcDbEntity
  8
1
  6
CONTINUOUS
 62
           3
100
AcDbLine
 10
3071.064942457815
 20
-2831.807515575711
 11
3070.82306799002
 21
-2832.326217045789
  0
LINE
  5
55F
100
AcDbEntity
  8
1
  6
CONTINUOUS
 62
           3
100
AcDbLine
 10
3071.020807870924
 20
-2832.636606484788
 11
3071.951943630167
 21
-2832.636606484788
  0
LINE
  5
55E
100
AcDbEntity
  8
1
  6
CONTINUOUS
 62
           3
100
AcDbLine
 10
3070.952312500179
 20
-2832.898424666605
 11
3071.840745911892
 21
-2832.898424666605
  0
LINE
  5
55D
100
AcDbEntity
  8
1
  6
CONTINUOUS
 62
           3
100
AcDbLine
 10
3073.311087513517
 20
-2831.533748998976
 11
3073.027185196836
 21
-2832.142579481967
  0
LINE
  5
55C
100
AcDbEntity
  8
1
  6
CONTINUOUS
 62
           3
100
AcDbLine
 10
3072.742903153483
 20
-2832.132709695058
 11
3073.044852261988
 21
-2831.485177741883
  0
LINE
  5
55B
100
AcDbEntity
  8
1
  6
CONTINUOUS
 62
           3
100
AcDbLine
 10
3071.756057336479
 20
-2831.174788302974
 11
3072.847112381292
 21
-2831.174788302974
  0
LINE
  5
55A
100
AcDbEntity
  8
1
  6
CONTINUOUS
 62
           3
100
AcDbLine
 10
3071.824552707106
 20
-2830.912970121155
 11
3072.915607751947
 21
-2830.912970121155
  0
LINE
  5
559
100
AcDbEntity
  8
1
  6
CONTINUOUS
 62
           3
100
AcDbLine
 10
3071.542740038924
 20
-2830.16336076033
 11
3071.360577574938
 21
-2830.554009425066
  0
LINE
  5
558
100
AcDbEntity
  8
1
  6
CONTINUOUS
 62
           3
100
AcDbLine
 10
3071.626812826322
 20
-2830.602580682158
 11
3071.827022082189
 21
-2830.173230547241
  0
LINE
  5
557
100
AcDbEntity
  8
1
  6
CONTINUOUS
 62
           3
100
AcDbLine
 10
3072.617981605476
 20
-2829.669333757509
 11
3073.549117364837
 21
-2829.669333757509
  0
LINE
  5
556
100
AcDbEntity
  8
1
  6
CONTINUOUS
 62
           3
100
AcDbLine
 10
3072.729179323752
 20
-2829.407515575691
 11
3073.617612735464
 21
-2829.407515575691
  0
LINE
  5
555
100
AcDbEntity
  8
1
  6
CONTINUOUS
 62
           3
100
AcDbLine
 10
3073.746857245623
 20
-2829.979723196419
 11
3073.606722630494
 21
-2830.280242848421
  0
LINE
  5
554
100
AcDbEntity
  8
1
  6
CONTINUOUS
 62
           3
100
AcDbLine
 10
3073.606722630494
 20
-2830.280242848421
 11
3073.895607031094
 21
-2830.280242848421
  0
LINE
  5
553
100
AcDbEntity
  8
1
  6
CONTINUOUS
 62
           3
100
AcDbLine
 10
3074.013092497122
 20
-2830.028294453512
 11
3073.895607031094
 21
-2830.280242848421
  0
LINE
  5
552
100
AcDbEntity
  8
1
  6
CONTINUOUS
 62
           3
100
AcDbLine
 10
3059.180226530563
 20
-2830.16336076033
 11
3058.998064066577
 21
-2830.554009425066
  0
LINE
  5
551
100
AcDbEntity
  8
1
  6
CONTINUOUS
 62
           3
100
AcDbLine
 10
3058.194319230277
 20
-2832.277645788698
 11
3058.413544548881
 21
-2831.807515575711
  0
LINE
  5
550
100
AcDbEntity
  8
1
  6
CONTINUOUS
 62
           3
100
AcDbLine
 10
3058.413544548881
 20
-2831.807515575711
 11
3058.702428949659
 21
-2831.807515575711
  0
LINE
  5
54F
100
AcDbEntity
  8
1
  6
CONTINUOUS
 62
           3
100
AcDbLine
 10
3058.702428949659
 20
-2831.807515575711
 11
3058.460554481718
 21
-2832.326217045789
  0
LINE
  5
54E
100
AcDbEntity
  8
1
  6
CONTINUOUS
 62
           3
100
AcDbLine
 10
3058.658294362561
 20
-2832.636606484788
 11
3059.589430121923
 21
-2832.636606484788
  0
LINE
  5
54D
100
AcDbEntity
  8
1
  6
CONTINUOUS
 62
           3
100
AcDbLine
 10
3058.589798991936
 20
-2832.898424666605
 11
3059.478232403648
 21
-2832.898424666605
  0
LINE
  5
54C
100
AcDbEntity
  8
1
  6
CONTINUOUS
 62
           3
100
AcDbLine
 10
3060.948574005155
 20
-2831.533748998976
 11
3060.664671688474
 21
-2832.142579481967
  0
LINE
  5
54B
100
AcDbEntity
  8
1
  6
CONTINUOUS
 62
           3
100
AcDbLine
 10
3060.380389645209
 20
-2832.132709695058
 11
3060.682338753744
 21
-2831.485177741883
  0
LINE
  5
54A
100
AcDbEntity
  8
1
  6
CONTINUOUS
 62
           3
100
AcDbLine
 10
3059.393543828205
 20
-2831.174788302974
 11
3060.484598872989
 21
-2831.174788302974
  0
LINE
  5
549
100
AcDbEntity
  8
1
  6
CONTINUOUS
 62
           3
100
AcDbLine
 10
3059.462039198861
 20
-2830.912970121155
 11
3060.553094243615
 21
-2830.912970121155
  0
LINE
  5
548
100
AcDbEntity
  8
1
  6
CONTINUOUS
 62
           3
100
AcDbLine
 10
3059.264299317989
 20
-2830.602580682158
 11
3059.464508573946
 21
-2830.173230547241
  0
LINE
  5
547
100
AcDbEntity
  8
1
  6
CONTINUOUS
 62
           3
100
AcDbLine
 10
3060.255468097173
 20
-2829.669333757509
 11
3061.186603856564
 21
-2829.669333757509
  0
LINE
  5
546
100
AcDbEntity
  8
1
  6
CONTINUOUS
 62
           3
100
AcDbLine
 10
3060.366665815448
 20
-2829.407515575691
 11
3061.255099227221
 21
-2829.407515575691
  0
LINE
  5
545
100
AcDbEntity
  8
1
  6
CONTINUOUS
 62
           3
100
AcDbLine
 10
3061.244209122163
 20
-2830.280242848421
 11
3061.53309352285
 21
-2830.280242848421
  0
LINE
  5
544
100
AcDbEntity
  8
1
  6
CONTINUOUS
 62
           3
100
AcDbLine
 10
3061.65057898876
 20
-2830.028294453512
 11
3061.53309352285
 21
-2830.280242848421
  0
LINE
  5
543
100
AcDbEntity
  8
1
  6
CONTINUOUS
 62
           3
100
AcDbLine
 10
3061.384343737261
 20
-2829.979723196419
 11
3061.244209122163
 21
-2830.280242848421
  0
LINE
  5
542
100
AcDbEntity
  8
1
  6
CONTINUOUS
 62
           3
100
AcDbLine
 10
3055.711616464554
 20
-2829.979723196419
 11
3055.571481849454
 21
-2830.280242848421
  0
LINE
  5
541
100
AcDbEntity
  8
1
  6
CONTINUOUS
 62
           3
100
AcDbLine
 10
3054.582740824348
 20
-2829.669333757509
 11
3055.513876583798
 21
-2829.669333757509
  0
LINE
  5
540
100
AcDbEntity
  8
1
  6
CONTINUOUS
 62
           3
100
AcDbLine
 10
3053.591572045281
 20
-2830.602580682158
 11
3053.791781301209
 21
-2830.173230547241
  0
LINE
  5
53F
100
AcDbEntity
  8
1
  6
CONTINUOUS
 62
           3
100
AcDbLine
 10
3054.707662372443
 20
-2832.132709695058
 11
3055.009611481008
 21
-2831.485177741883
  0
LINE
  5
53E
100
AcDbEntity
  8
1
  6
CONTINUOUS
 62
           3
100
AcDbLine
 10
3052.985567089854
 20
-2832.636606484788
 11
3053.916702849216
 21
-2832.636606484788
  0
LINE
  5
53D
100
AcDbEntity
  8
1
  6
CONTINUOUS
 62
           3
100
AcDbLine
 10
3053.029701676834
 20
-2831.807515575711
 11
3052.78782720901
 21
-2832.326217045789
  0
LINE
  5
53C
100
AcDbEntity
  8
1
  6
CONTINUOUS
 62
           3
100
AcDbLine
 10
3050.788475957281
 20
-2831.783293274057
 11
3050.268481649104
 21
-2832.898424666605
  0
LINE
  5
53B
100
AcDbEntity
  8
1
  6
CONTINUOUS
 62
           3
100
AcDbLine
 10
3049.979597248651
 20
-2832.898424666605
 11
3050.536865259761
 21
-2831.703359560051
  0
LINE
  5
53A
100
AcDbEntity
  8
1
  6
CONTINUOUS
 62
           3
100
AcDbLine
 10
3051.195873123567
 20
-2830.290112635329
 11
3050.921175521264
 21
-2830.879203544413
  0
LINE
  5
539
100
AcDbEntity
  8
1
  6
CONTINUOUS
 62
           3
100
AcDbLine
 10
3049.655745864565
 20
-2829.669333757509
 11
3050.800393361998
 21
-2829.669333757509
  0
LINE
  5
538
100
AcDbEntity
  8
1
  6
CONTINUOUS
 62
           3
100
AcDbLine
 10
3048.974088851452
 20
-2831.131151939353
 11
3050.525695759725
 21
-2831.131151939353
  0
LINE
  5
537
100
AcDbEntity
  8
1
  6
CONTINUOUS
 62
           3
100
AcDbLine
 10
3048.974088851452
 20
-2831.131151939353
 11
3049.655745864565
 21
-2829.669333757509
  0
LINE
  5
536
100
AcDbEntity
  8
1
  6
CONTINUOUS
 62
           3
100
AcDbLine
 10
3048.852001028295
 20
-2831.392970121171
 11
3050.339125378888
 21
-2831.392970121171
  0
LINE
  5
535
100
AcDbEntity
  8
1
  6
CONTINUOUS
 62
           3
100
AcDbLine
 10
3048.149996044719
 20
-2832.898424666605
 11
3048.852001028295
 21
-2831.392970121171
  0
LINE
  5
534
100
AcDbEntity
  8
1
  6
CONTINUOUS
 62
           3
100
AcDbLine
 10
3045.212597368571
 20
-2832.898424666605
 11
3046.341767780838
 21
-2832.898424666605
  0
LINE
  5
533
100
AcDbEntity
  8
1
  6
CONTINUOUS
 62
           3
100
AcDbLine
 10
3046.313968351196
 20
-2832.636606484788
 11
3045.281092739227
 21
-2832.636606484788
  0
LINE
  5
532
100
AcDbEntity
  8
1
  6
CONTINUOUS
 62
           3
100
AcDbLine
 10
3047.528207065666
 20
-2832.142579481967
 11
3048.514114365892
 21
-2830.028294453512
  0
LINE
  5
531
100
AcDbEntity
  8
1
  6
CONTINUOUS
 62
           3
100
AcDbLine
 10
3048.247879114569
 20
-2829.979723196419
 11
3047.302667755297
 21
-2832.006735497604
  0
LINE
  5
530
100
AcDbEntity
  8
1
  6
CONTINUOUS
 62
           3
100
AcDbLine
 10
3046.989464192085
 20
-2829.407515575691
 11
3048.118634604293
 21
-2829.407515575691
  0
LINE
  5
52F
100
AcDbEntity
  8
1
  6
CONTINUOUS
 62
           3
100
AcDbLine
 10
3047.017263621639
 20
-2829.669333757509
 11
3048.050139233726
 21
-2829.669333757509
  0
LINE
  5
52E
100
AcDbEntity
  8
1
  6
CONTINUOUS
 62
           3
100
AcDbLine
 10
3045.803024907199
 20
-2830.16336076033
 11
3044.817117606943
 21
-2832.277645788698
  0
LINE
  5
52D
100
AcDbEntity
  8
1
  6
CONTINUOUS
 62
           3
100
AcDbLine
 10
3045.083352858354
 20
-2832.326217045789
 11
3046.028564217539
 21
-2830.299204744695
  0
LINE
  5
52C
100
AcDbEntity
  8
1
  6
CONTINUOUS
 62
           3
100
AcDbLine
 10
3041.953771851853
 20
-2832.326217045789
 11
3042.898983211125
 21
-2830.299204744695
  0
LINE
  5
52B
100
AcDbEntity
  8
1
  6
CONTINUOUS
 62
           3
100
AcDbLine
 10
3043.184387344724
 20
-2832.636606484788
 11
3042.151511732755
 21
-2832.636606484788
  0
LINE
  5
52A
100
AcDbEntity
  8
1
  6
CONTINUOUS
 62
           3
100
AcDbLine
 10
3045.118298108009
 20
-2829.979723196419
 11
3044.173086748707
 21
-2832.006735497604
  0
LINE
  5
529
100
AcDbEntity
  8
1
  6
CONTINUOUS
 62
           3
100
AcDbLine
 10
3043.887682615226
 20
-2829.669333757509
 11
3044.920558227195
 21
-2829.669333757509
  0
LINE
  5
528
100
AcDbEntity
  8
1
  6
CONTINUOUS
 62
           3
100
AcDbLine
 10
3040.054806338223
 20
-2832.636606484788
 11
3038.679453872975
 21
-2832.636606484788
  0
LINE
  5
527
100
AcDbEntity
  8
1
  6
CONTINUOUS
 62
           3
100
AcDbLine
 10
3041.916348615319
 20
-2830.134917915905
 11
3041.043505742294
 21
-2832.006735497604
  0
LINE
  5
526
100
AcDbEntity
  8
1
  6
CONTINUOUS
 62
           3
100
AcDbLine
 10
3040.063115869575
 20
-2829.669333757509
 11
3041.619738794039
 21
-2829.669333757509
  0
LINE
  5
525
100
AcDbEntity
  8
1
  6
CONTINUOUS
 62
           3
100
AcDbLine
 10
3038.679453872975
 20
-2832.636606484788
 11
3040.063115869575
 21
-2829.669333757509
  0
LINE
  5
524
100
AcDbEntity
  8
1
  6
CONTINUOUS
 62
           3
100
AcDbLine
 10
3068.204761585539
 20
-2832.352970121143
 11
3070.911010663276
 21
-2829.407515575691
  0
LINE
  5
523
100
AcDbEntity
  8
1
  6
CONTINUOUS
 62
           3
100
AcDbLine
 10
3068.303592019466
 20
-2829.407515575691
 11
3068.204761585539
 21
-2832.352970121143
  0
LINE
  5
522
100
AcDbEntity
  8
1
  6
CONTINUOUS
 62
           3
100
AcDbLine
 10
3069.51807238348
 20
-2832.898424666605
 11
3069.806809384027
 21
-2832.898424666605
  0
LINE
  5
521
100
AcDbEntity
  8
1
  6
CONTINUOUS
 62
           3
100
AcDbLine
 10
3066.195754376446
 20
-2832.898424666605
 11
3066.483687935356
 21
-2832.898424666605
  0
LINE
  5
520
100
AcDbEntity
  8
1
  6
CONTINUOUS
 62
           3
100
AcDbLine
 10
3067.85877557609
 20
-2832.898424666605
 11
3068.150811380257
 21
-2832.898424666605
  0
LINE
  5
51F
100
AcDbEntity
  8
1
  6
CONTINUOUS
 62
           3
100
AcDbLine
 10
3070.911010663276
 20
-2829.407515575691
 11
3071.434647027002
 21
-2829.407515575691
  0
LINE
  5
51E
100
AcDbEntity
  8
1
  6
CONTINUOUS
 62
           3
100
AcDbLine
 10
3067.823592019479
 20
-2829.407515575691
 11
3068.303592019466
 21
-2829.407515575691
  0
LINE
  5
51D
100
AcDbEntity
  8
1
  6
CONTINUOUS
 62
           3
100
AcDbLine
 10
3069.806809384027
 20
-2832.898424666605
 11
3071.434647027002
 21
-2829.407515575691
  0
LINE
  5
51C
100
AcDbEntity
  8
1
  6
CONTINUOUS
 62
           3
100
AcDbLine
 10
3069.51807238348
 20
-2832.898424666605
 11
3071.023822203179
 21
-2829.669333757509
  0
LINE
  5
51B
100
AcDbEntity
  8
1
  6
CONTINUOUS
 62
           3
100
AcDbLine
 10
3068.150811380257
 20
-2832.898424666605
 11
3071.023822203179
 21
-2829.669333757509
  0
LINE
  5
51A
100
AcDbEntity
  8
1
  6
CONTINUOUS
 62
           3
100
AcDbLine
 10
3067.989437755114
 20
-2829.669333757509
 11
3067.85877557609
 21
-2832.898424666605
  0
LINE
  5
519
100
AcDbEntity
  8
1
  6
CONTINUOUS
 62
           3
100
AcDbLine
 10
3066.483687935356
 20
-2832.898424666605
 11
3067.989437755114
 21
-2829.669333757509
  0
LINE
  5
518
100
AcDbEntity
  8
1
  6
CONTINUOUS
 62
           3
100
AcDbLine
 10
3066.195754376446
 20
-2832.898424666605
 11
3067.823592019479
 21
-2829.407515575691
  0
LINE
  5
517
100
AcDbEntity
  8
1
  6
CONTINUOUS
 62
           3
100
AcDbLine
 10
3065.845945415475
 20
-2832.636606484788
 11
3065.74420556272
 21
-2832.898424666605
  0
LINE
  5
516
100
AcDbEntity
  8
1
  6
CONTINUOUS
 62
           3
100
AcDbLine
 10
3066.659864236947
 20
-2830.912970121155
 11
3066.558124384311
 21
-2831.174788302974
  0
LINE
  5
515
100
AcDbEntity
  8
1
  6
CONTINUOUS
 62
           3
100
AcDbLine
 10
3067.270303353119
 20
-2829.669333757509
 11
3067.372043205813
 21
-2829.407515575691
  0
LINE
  5
514
100
AcDbEntity
  8
1
  6
CONTINUOUS
 62
           3
100
AcDbLine
 10
3064.782041044615
 20
-2830.912970121155
 11
3065.392480160815
 21
-2829.669333757509
  0
LINE
  5
513
100
AcDbEntity
  8
1
  6
CONTINUOUS
 62
           3
100
AcDbLine
 10
3063.968122223114
 20
-2832.636606484788
 11
3064.680301191978
 21
-2831.174788302974
  0
LINE
  5
512
100
AcDbEntity
  8
1
  6
CONTINUOUS
 62
           3
100
AcDbLine
 10
3065.205410201294
 20
-2829.407515575691
 11
3063.57757255826
 21
-2832.898424666605
  0
LINE
  5
511
100
AcDbEntity
  8
1
  6
CONTINUOUS
 62
           3
100
AcDbLine
 10
3065.74420556272
 20
-2832.898424666605
 11
3063.57757255826
 21
-2832.898424666605
  0
LINE
  5
510
100
AcDbEntity
  8
1
  6
CONTINUOUS
 62
           3
100
AcDbLine
 10
3063.968122223114
 20
-2832.636606484788
 11
3065.845945415475
 21
-2832.636606484788
  0
LINE
  5
50F
100
AcDbEntity
  8
1
  6
CONTINUOUS
 62
           3
100
AcDbLine
 10
3066.558124384311
 20
-2831.174788302974
 11
3064.680301191978
 21
-2831.174788302974
  0
LINE
  5
50E
100
AcDbEntity
  8
1
  6
CONTINUOUS
 62
           3
100
AcDbLine
 10
3064.782041044615
 20
-2830.912970121155
 11
3066.659864236947
 21
-2830.912970121155
  0
LINE
  5
50D
100
AcDbEntity
  8
1
  6
CONTINUOUS
 62
           3
100
AcDbLine
 10
3065.392480160815
 20
-2829.669333757509
 11
3067.270303353119
 21
-2829.669333757509
  0
LINE
  5
50C
100
AcDbEntity
  8
1
  6
CONTINUOUS
 62
           3
100
AcDbLine
 10
3065.205410201294
 20
-2829.407515575691
 11
3067.372043205813
 21
-2829.407515575691
  0
LINE
  5
50B
100
AcDbEntity
  8
1
  6
CONTINUOUS
 62
           3
100
AcDbLine
 10
3038.268481649099
 20
-2832.898424666605
 11
3039.896319292191
 21
-2829.407515575691
  0
LINE
  5
50A
100
AcDbEntity
  8
1
  6
CONTINUOUS
 62
           3
100
AcDbLine
 10
3039.896319292191
 20
-2829.407515575691
 11
3041.688234164725
 21
-2829.407515575691
  0
LINE
  5
509
100
AcDbEntity
  8
1
  6
CONTINUOUS
 62
           3
100
AcDbLine
 10
3042.182583866643
 20
-2830.183489172965
 11
3041.269045052633
 21
-2832.142579481967
  0
LINE
  5
508
100
AcDbEntity
  8
1
  6
CONTINUOUS
 62
           3
100
AcDbLine
 10
3043.859883185583
 20
-2829.407515575691
 11
3044.989053597851
 21
-2829.407515575691
  0
LINE
  5
507
100
AcDbEntity
  8
1
  6
CONTINUOUS
 62
           3
100
AcDbLine
 10
3042.083016362099
 20
-2832.898424666605
 11
3043.212186774278
 21
-2832.898424666605
  0
LINE
  5
506
100
AcDbEntity
  8
1
  6
CONTINUOUS
 62
           3
100
AcDbLine
 10
3042.673443900758
 20
-2830.16336076033
 11
3041.687536600353
 21
-2832.277645788698
  0
LINE
  5
505
100
AcDbEntity
  8
1
  6
CONTINUOUS
 62
           3
100
AcDbLine
 10
3044.398626059193
 20
-2832.142579481967
 11
3045.384533359479
 21
-2830.028294453512
  0
LINE
  5
504
100
AcDbEntity
  8
1
  6
CONTINUOUS
 62
           3
100
AcDbLine
 10
3049.488949287063
 20
-2829.407515575691
 11
3050.865446140854
 21
-2829.407515575691
  0
LINE
  5
503
100
AcDbEntity
  8
1
  6
CONTINUOUS
 62
           3
100
AcDbLine
 10
3049.488949287063
 20
-2829.407515575691
 11
3047.861111644207
 21
-2832.898424666605
  0
LINE
  5
502
100
AcDbEntity
  8
1
  6
CONTINUOUS
 62
           3
100
AcDbLine
 10
3051.459623149978
 20
-2830.336621467703
 11
3051.257538643826
 21
-2830.773305449252
  0
LINE
  5
501
100
AcDbEntity
  8
1
  6
CONTINUOUS
 62
           3
100
AcDbLine
 10
3047.861111644207
 20
-2832.898424666605
 11
3048.149996044719
 21
-2832.898424666605
  0
LINE
  5
500
100
AcDbEntity
  8
1
  6
CONTINUOUS
 62
           3
100
AcDbLine
 10
3049.979597248651
 20
-2832.898424666605
 11
3050.268481649104
 21
-2832.898424666605
  0
LINE
  5
4FF
100
AcDbEntity
  8
1
  6
CONTINUOUS
 62
           3
100
AcDbLine
 10
3040.082605767865
 20
-2832.898424666605
 11
3038.268481649099
 21
-2832.898424666605
  0
LINE
  5
4FE
100
AcDbEntity
  8
1
  6
CONTINUOUS
 62
           3
100
AcDbLine
 10
3053.507499257856
 20
-2830.16336076033
 11
3053.32533679384
 21
-2830.554009425066
  0
LINE
  5
4FD
100
AcDbEntity
  8
1
  6
CONTINUOUS
 62
           3
100
AcDbLine
 10
3055.275846732448
 20
-2831.533748998976
 11
3054.991944415797
 21
-2832.142579481967
  0
LINE
  5
4FC
100
AcDbEntity
  8
1
  6
CONTINUOUS
 62
           3
100
AcDbLine
 10
3052.521591957569
 20
-2832.277645788698
 11
3052.740817276175
 21
-2831.807515575711
  0
LINE
  5
4FB
100
AcDbEntity
  8
1
  6
CONTINUOUS
 62
           3
100
AcDbLine
 10
3055.977851716023
 20
-2830.028294453512
 11
3055.860366250114
 21
-2830.280242848421
  0
LINE
  5
4FA
100
AcDbEntity
  8
1
  6
CONTINUOUS
 62
           3
100
AcDbLine
 10
3054.693938542624
 20
-2829.407515575691
 11
3055.582371954454
 21
-2829.407515575691
  0
LINE
  5
4F9
100
AcDbEntity
  8
1
  6
CONTINUOUS
 62
           3
100
AcDbLine
 10
3052.917071719227
 20
-2832.898424666605
 11
3053.805505130911
 21
-2832.898424666605
  0
LINE
  5
4F8
100
AcDbEntity
  8
1
  6
CONTINUOUS
 62
           3
100
AcDbLine
 10
3053.720816555381
 20
-2831.174788302974
 11
3054.811871600282
 21
-2831.174788302974
  0
LINE
  5
4F7
100
AcDbEntity
  8
1
  6
CONTINUOUS
 62
           3
100
AcDbLine
 10
3053.789311926066
 20
-2830.912970121155
 11
3054.880366970908
 21
-2830.912970121155
  0
LINE
  5
4F6
100
AcDbEntity
  8
1
  6
CONTINUOUS
 62
           3
100
AcDbLine
 10
3052.740817276175
 20
-2831.807515575711
 11
3053.029701676834
 21
-2831.807515575711
  0
LINE
  5
4F5
100
AcDbEntity
  8
1
  6
CONTINUOUS
 62
           3
100
AcDbLine
 10
3055.571481849454
 20
-2830.280242848421
 11
3055.860366250114
 21
-2830.280242848421
  0
LINE
  5
4F4
100
AcDbEntity
  8
1
  6
CONTINUOUS
 62
           3
100
AcDbLine
 10
3056.922904399537
 20
-2829.407515575691
 11
3057.192559495664
 21
-2830.934788302951
  0
LINE
  5
4F3
100
AcDbEntity
  8
1
  6
CONTINUOUS
 62
           3
100
AcDbLine
 10
3058.870618585386
 20
-2829.407515575691
 11
3057.192559495664
 21
-2830.934788302951
  0
LINE
  5
4F2
100
AcDbEntity
  8
1
  6
CONTINUOUS
 62
           3
100
AcDbLine
 10
3059.255724086184
 20
-2829.407515575691
 11
3057.160454109445
 21
-2831.371151939346
  0
LINE
  5
4F1
100
AcDbEntity
  8
1
  6
CONTINUOUS
 62
           3
100
AcDbLine
 10
3056.914640528655
 20
-2831.278944318516
 11
3056.607617080674
 21
-2829.407515575691
  0
LINE
  5
4F0
100
AcDbEntity
  8
1
  6
CONTINUOUS
 62
           3
100
AcDbLine
 10
3056.914640528655
 20
-2831.278944318516
 11
3056.159390740125
 21
-2832.898424666605
  0
LINE
  5
4EF
100
AcDbEntity
  8
1
  6
CONTINUOUS
 62
           3
100
AcDbLine
 10
3056.448275140608
 20
-2832.898424666605
 11
3057.160454109445
 21
-2831.371151939346
  0
LINE
  5
4EE
100
AcDbEntity
  8
1
  6
CONTINUOUS
 62
           3
100
AcDbLine
 10
3056.607617080674
 20
-2829.407515575691
 11
3056.922904399537
 21
-2829.407515575691
  0
LINE
  5
4ED
100
AcDbEntity
  8
1
  6
CONTINUOUS
 62
           3
100
AcDbLine
 10
3058.870618585386
 20
-2829.407515575691
 11
3059.255724086184
 21
-2829.407515575691
  0
LINE
  5
4EC
100
AcDbEntity
  8
1
  6
CONTINUOUS
 62
           3
100
AcDbLine
 10
3056.159390740125
 20
-2832.898424666605
 11
3056.448275140608
 21
-2832.898424666605
  0
LINE
  5
4EB
100
AcDbEntity
  8
1
  6
CONTINUOUS
 62
           3
100
AcDbLine
 10
3062.280344353381
 20
-2829.407515575691
 11
3062.178604500745
 21
-2829.669333757509
  0
LINE
  5
4EA
100
AcDbEntity
  8
1
  6
CONTINUOUS
 62
           3
100
AcDbLine
 10
3064.928451358833
 20
-2829.407515575691
 11
3064.826711506196
 21
-2829.669333757509
  0
LINE
  5
4E9
100
AcDbEntity
  8
1
  6
CONTINUOUS
 62
           3
100
AcDbLine
 10
3062.280344353381
 20
-2829.407515575691
 11
3064.928451358833
 21
-2829.407515575691
  0
LINE
  5
4E8
100
AcDbEntity
  8
1
  6
CONTINUOUS
 62
           3
100
AcDbLine
 10
3062.178604500745
 20
-2829.669333757509
 11
3063.337867832532
 21
-2829.669333757509
  0
LINE
  5
4E7
100
AcDbEntity
  8
1
  6
CONTINUOUS
 62
           3
100
AcDbLine
 10
3061.832118012832
 20
-2832.898424666605
 11
3062.128716094627
 21
-2832.898424666605
  0
ENDBLK
  5
5E9
100
AcDbEntity
  8
0
100
AcDbBlockEnd
  0
BLOCK
  5
76
100
AcDbEntity
  8
0
100
AcDbBlockBegin
  2
VORLAGE__6
 70
           0
 10
3433.629500693945
 20
-1472.925156161801
 30
0.0
  3
VORLAGE__6
  1

  0
INSERT
  5
77
100
AcDbEntity
  8
0
100
AcDbBlockReference
  2
_LOGO
 10
1619.142938593877
 20
-2841.727337345499
  0
ENDBLK
  5
5EA
100
AcDbEntity
  8
0
100
AcDbBlockEnd
  0
BLOCK
  5
79
100
AcDbEntity
  8
0
100
AcDbBlockBegin
  2
8300R0001
 70
           0
 10
17361.029991788379
 20
20946.93715083797
 30
0.0
  3
8300R0001
  1

  0
INSERT
  5
7A
100
AcDbEntity
  8
0
100
AcDbBlockReference
  2
VORLAGE__6
 10
53822.5569625727
 20
53178.401316191135
 41
33.333333333336
 42
33.333333333328
  0
ENDBLK
  5
5EB
100
AcDbEntity
  8
0
100
AcDbBlockEnd
  0
BLOCK
  5
7C
100
AcDbEntity
  8
0
100
AcDbBlockBegin
  2
ENDSCHALTER
 70
           0
 10
36166.880550870701
 20
-5290.39382684306
 30
0.0
  3
ENDSCHALTER
  1

  0
ENDBLK
  5
5EC
100
AcDbEntity
  8
0
100
AcDbBlockEnd
  0
BLOCK
  5
7E
100
AcDbEntity
  8
0
100
AcDbBlockBegin
  2
_1
 70
           0
 10
36166.880550870701
 20
-5290.39382684306
 30
0.0
  3
_1
  1

  0
INSERT
  5
7F
100
AcDbEntity
  8
0
100
AcDbBlockReference
  2
ENDSCHALTER
 10
36166.880550870701
 20
-5290.39382684306
  0
ENDBLK
  5
5ED
100
AcDbEntity
  8
0
100
AcDbBlockEnd
  0
BLOCK
  5
1A5
100
AcDbEntity
  8
0
100
AcDbBlockBegin
  2
*D33
 70
           1
 10
0.0
 20
0.0
 30
0.0
  3
*D33
  1

  0
LINE
  5
1A6
100
AcDbEntity
  8
0
  6
CONTINUOUS
 62
           2
100
AcDbLine
 10
36346.380521192332
 20
5066.684504654948
 11
36513.047187858996
 21
5066.684504654948
  0
LINE
  5
1A7
100
AcDbEntity
  8
0
  6
CONTINUOUS
 62
           2
100
AcDbLine
 10
36146.380521192325
 20
5066.684504654948
 11
35979.71385452566
 21
5066.684504654948
  0
LINE
  5
1A8
100
AcDbEntity
  8
0
  6
CONTINUOUS
 62
           2
100
AcDbLine
 10
36146.380521192325
 20
5066.684504654948
 11
36346.380521192332
 21
5066.684504654948
  0
LINE
  5
1A9
100
AcDbEntity
  8
0
  6
CONTINUOUS
 62
           2
100
AcDbLine
 10
36346.380521192332
 20
5533.389537789814
 11
36346.380521192332
 21
5000.017837988281
  0
LINE
  5
1AA
100
AcDbEntity
  8
0
  6
CONTINUOUS
 62
           2
100
AcDbLine
 10
36146.380521192325
 20
5417.389537789816
 11
36146.380521192325
 21
5000.017837988281
  0
SOLID
  5
1AB
100
AcDbEntity
  8
0
 62
           2
100
AcDbTrace
 10
36063.047187858989
 20
5055.713463189331
 11
36063.047187858989
 21
5077.655546120564
 12
36146.380521192325
 22
5066.684504654948
 13
36146.380521192325
 23
5066.684504654948
  0
SOLID
  5
1AC
100
AcDbEntity
  8
0
 62
           2
100
AcDbTrace
 10
36429.713854525668
 20
5077.655546120564
 11
36429.713854525668
 21
5055.713463189331
 12
36346.380521192332
 22
5066.684504654948
 13
36346.380521192332
 23
5066.684504654948
  0
TEXT
  5
1AE
100
AcDbEntity
  8
0
 62
           1
100
AcDbText
 10
36185.936615267397
 20
5133.351171321614
 40
58.333333333333
  1
200
 41
1.357142857143
  7
CONVERTER_2
100
AcDbText
  0
ENDBLK
  5
1AF
100
AcDbEntity
  8
0
100
AcDbBlockEnd
  0
BLOCK
  5
1B3
100
AcDbEntity
  8
0
100
AcDbBlockBegin
  2
*D34
 70
           1
 10
0.0
 20
0.0
 30
0.0
  3
*D34
  1

  0
LINE
  5
1B4
100
AcDbEntity
  8
0
  6
CONTINUOUS
 62
           2
100
AcDbLine
 10
40822.999999999993
 20
2598.994018844036
 11
41182.999999999993
 21
2598.994018844036
  0
LINE
  5
1B5
100
AcDbEntity
  8
0
  6
CONTINUOUS
 62
           2
100
AcDbLine
 10
40822.999999999993
 20
3001.389537789817
 11
40822.999999999993
 21
2532.32735217737
  0
LINE
  5
1B6
100
AcDbEntity
  8
0
  6
CONTINUOUS
 62
           2
100
AcDbLine
 10
41182.999999999993
 20
3001.389537789818
 11
41182.999999999993
 21
2532.32735217737
  0
SOLID
  5
1B7
100
AcDbEntity
  8
0
 62
           2
100
AcDbTrace
 10
40906.333333333328
 20
2609.965060309653
 11
40906.333333333328
 21
2588.02297737842
 12
40822.999999999993
 22
2598.994018844036
 13
40822.999999999993
 23
2598.994018844036
  0
SOLID
  5
1B8
100
AcDbEntity
  8
0
 62
           2
100
AcDbTrace
 10
41099.666666666657
 20
2588.02297737842
 11
41099.666666666657
 21
2609.965060309653
 12
41182.999999999993
 22
2598.994018844036
 13
41182.999999999993
 23
2598.994018844036
  0
TEXT
  5
1B9
100
AcDbEntity
  8
0
 62
           1
100
AcDbText
 10
40921.855299867413
 20
2665.660685510703
 40
58.333333333333
  1
360
 41
1.357142857143
  7
CONVERTER_2
100
AcDbText
  0
ENDBLK
  5
1BA
100
AcDbEntity
  8
0
100
AcDbBlockEnd
  0
BLOCK
  5
1BE
100
AcDbEntity
  8
0
100
AcDbBlockBegin
  2
*D35
 70
           1
 10
0.0
 20
0.0
 30
0.0
  3
*D35
  1

  0
LINE
  5
1BF
100
AcDbEntity
  8
0
  6
CONTINUOUS
 62
           2
100
AcDbLine
 10
38643.999999999978
 20
2592.482100337958
 11
38923.0
 21
2592.482100337958
  0
LINE
  5
1C0
100
AcDbEntity
  8
0
  6
CONTINUOUS
 62
           2
100
AcDbLine
 10
38643.999999999978
 20
3001.389537789818
 11
38643.999999999978
 21
2525.815433671291
  0
LINE
  5
1C1
100
AcDbEntity
  8
0
  6
CONTINUOUS
 62
           2
100
AcDbLine
 10
38923.0
 20
3001.389537789818
 11
38923.0
 21
2525.815433671291
  0
SOLID
  5
1C2
100
AcDbEntity
  8
0
 62
           2
100
AcDbTrace
 10
38727.333333333314
 20
2603.453141803574
 11
38727.333333333314
 21
2581.511058872341
 12
38643.999999999978
 22
2592.482100337958
 13
38643.999999999978
 23
2592.482100337958
  0
SOLID
  5
1C3
100
AcDbEntity
  8
0
 62
           2
100
AcDbTrace
 10
38839.666666666664
 20
2581.511058872341
 11
38839.666666666664
 21
2603.453141803574
 12
38923.0
 22
2592.482100337958
 13
38923.0
 23
2592.482100337958
  0
TEXT
  5
1C4
100
AcDbEntity
  8
0
 62
           1
100
AcDbText
 10
38768.436802670942
 20
2659.148767004625
 40
58.333333333333
  1
C  
 41
1.357142857143
  7
CONVERTER_2
100
AcDbText
  0
ENDBLK
  5
1C5
100
AcDbEntity
  8
0
100
AcDbBlockEnd
  0
BLOCK
  5
1C9
100
AcDbEntity
  8
0
100
AcDbBlockBegin
  2
*D36
 70
           1
 10
0.0
 20
0.0
 30
0.0
  3
*D36
  1

  0
LINE
  5
1CA
100
AcDbEntity
  8
0
  6
CONTINUOUS
 62
           2
100
AcDbLine
 10
38562.999999999978
 20
6409.441297912618
 11
38922.999999999993
 21
6409.441297912618
  0
LINE
  5
1CB
100
AcDbEntity
  8
0
  6
CONTINUOUS
 62
           2
100
AcDbLine
 10
38562.999999999978
 20
6161.389537789823
 11
38562.999999999978
 21
6476.107964579285
  0
LINE
  5
1CC
100
AcDbEntity
  8
0
  6
CONTINUOUS
 62
           2
100
AcDbLine
 10
38922.999999999993
 20
6161.389537789823
 11
38922.999999999993
 21
6476.107964579285
  0
SOLID
  5
1CD
100
AcDbEntity
  8
0
 62
           2
100
AcDbTrace
 10
38646.333333333314
 20
6420.412339378235
 11
38646.333333333314
 21
6398.470256447002
 12
38562.999999999978
 22
6409.441297912618
 13
38562.999999999978
 23
6409.441297912618
  0
SOLID
  5
1CE
100
AcDbEntity
  8
0
 62
           2
100
AcDbTrace
 10
38839.666666666657
 20
6398.470256447002
 11
38839.666666666657
 21
6420.412339378235
 12
38922.999999999993
 22
6409.441297912618
 13
38922.999999999993
 23
6409.441297912618
  0
TEXT
  5
1CF
100
AcDbEntity
  8
0
 62
           1
100
AcDbText
 10
38705.486152686302
 20
6476.107964579284
 40
58.333333333333
  1
E
 41
1.357142857143
  7
CONVERTER_2
100
AcDbText
  0
ENDBLK
  5
1D0
100
AcDbEntity
  8
0
100
AcDbBlockEnd
  0
BLOCK
  5
1D4
100
AcDbEntity
  8
0
100
AcDbBlockBegin
  2
*D37
 70
           1
 10
0.0
 20
0.0
 30
0.0
  3
*D37
  1

  0
LINE
  5
1D5
100
AcDbEntity
  8
0
  6
CONTINUOUS
 62
           2
100
AcDbLine
 10
36346.380521192332
 20
6381.553786446367
 11
36856.380521192332
 21
6381.553786446367
  0
LINE
  5
1D6
100
AcDbEntity
  8
0
  6
CONTINUOUS
 62
           2
100
AcDbLine
 10
36346.380521192332
 20
6068.389537789815
 11
36346.380521192332
 21
6448.220453113034
  0
LINE
  5
1D7
100
AcDbEntity
  8
0
  6
CONTINUOUS
 62
           2
100
AcDbLine
 10
36856.380521192332
 20
6161.389537789824
 11
36856.380521192332
 21
6448.220453113034
  0
SOLID
  5
1D8
100
AcDbEntity
  8
0
 62
           2
100
AcDbTrace
 10
36429.713854525668
 20
6392.524827911983
 11
36429.713854525668
 21
6370.58274498075
 12
36346.380521192332
 22
6381.553786446367
 13
36346.380521192332
 23
6381.553786446367
  0
SOLID
  5
1D9
100
AcDbEntity
  8
0
 62
           2
100
AcDbTrace
 10
36773.047187858996
 20
6370.58274498075
 11
36773.047187858996
 21
6392.524827911983
 12
36856.380521192332
 22
6381.553786446367
 13
36856.380521192332
 23
6381.553786446367
  0
TEXT
  5
1DA
100
AcDbEntity
  8
0
 62
           1
100
AcDbText
 10
36547.4981580807
 20
6448.220453113033
 40
58.333333333333
  1
510
 41
1.357142857143
  7
CONVERTER_2
100
AcDbText
  0
ENDBLK
  5
1DB
100
AcDbEntity
  8
0
100
AcDbBlockEnd
  0
BLOCK
  5
1DF
100
AcDbEntity
  8
0
100
AcDbBlockBegin
  2
*D38
 70
           1
 10
0.0
 20
0.0
 30
0.0
  3
*D38
  1

  0
LINE
  5
1E0
100
AcDbEntity
  8
0
  6
CONTINUOUS
 62
           2
100
AcDbLine
 10
36286.327870803798
 20
6244.17703943878
 11
36286.327870803798
 21
6469.66425639972
  0
LINE
  5
1E1
100
AcDbEntity
  8
0
  6
CONTINUOUS
 62
           2
100
AcDbLine
 10
36286.327870803798
 20
6208.389537789814
 11
36286.327870803798
 21
6244.17703943878
  0
LINE
  5
1E2
100
AcDbEntity
  8
0
  6
CONTINUOUS
 62
           2
100
AcDbLine
 10
36286.327870803798
 20
6041.722871123147
 11
36286.327870803798
 21
6208.389537789814
  0
LINE
  5
1E3
100
AcDbEntity
  8
0
  6
CONTINUOUS
 62
           2
100
AcDbLine
 10
36820.380521192317
 20
6244.17703943878
 11
36219.661204137134
 21
6244.17703943878
  0
LINE
  5
1E4
100
AcDbEntity
  8
0
  6
CONTINUOUS
 62
           2
100
AcDbLine
 10
36486.380521192332
 20
6208.389537789814
 11
36219.661204137134
 21
6208.389537789814
  0
SOLID
  5
1E5
100
AcDbEntity
  8
0
 62
           2
100
AcDbTrace
 10
36275.356829338183
 20
6327.510372772113
 11
36297.298912269413
 21
6327.510372772113
 12
36286.327870803798
 22
6244.17703943878
 13
36286.327870803798
 23
6244.17703943878
  0
SOLID
  5
1E6
100
AcDbEntity
  8
0
 62
           2
100
AcDbTrace
 10
36297.298912269413
 20
6125.056204456481
 11
36275.356829338183
 21
6125.056204456481
 12
36286.327870803798
 22
6208.389537789814
 13
36286.327870803798
 23
6208.389537789814
  0
MTEXT
  5
1E7
100
AcDbEntity
  8
0
 62
           1
100
AcDbMText
 10
36219.661204137134
 20
6382.16425639972
 30
0.0
 40
58.333333333333
 41
0.0
 71
           7
 72
           1
  1
40
  7
CONVERTER_2
 11
0.0
 21
1.0
 31
0.0
  0
ENDBLK
  5
1E8
100
AcDbEntity
  8
0
100
AcDbBlockEnd
  0
BLOCK
  5
1EC
100
AcDbEntity
  8
0
100
AcDbBlockBegin
  2
*D39
 70
           1
 10
0.0
 20
0.0
 30
0.0
  3
*D39
  1

  0
LINE
  5
1ED
100
AcDbEntity
  8
0
  6
CONTINUOUS
 62
           2
100
AcDbLine
 10
37211.458994211498
 20
6208.389537789819
 11
37211.458994211498
 21
6694.627683158801
  0
LINE
  5
1EE
100
AcDbEntity
  8
0
  6
CONTINUOUS
 62
           2
100
AcDbLine
 10
37211.458994211498
 20
6188.389537789822
 11
37211.458994211498
 21
6208.389537789819
  0
LINE
  5
1EF
100
AcDbEntity
  8
0
  6
CONTINUOUS
 62
           2
100
AcDbLine
 10
37211.458994211498
 20
6021.722871123155
 11
37211.458994211498
 21
6188.389537789822
  0
LINE
  5
1F0
100
AcDbEntity
  8
0
  6
CONTINUOUS
 62
           2
100
AcDbLine
 10
36856.380521192317
 20
6208.389537789819
 11
37278.12566087817
 21
6208.389537789819
  0
LINE
  5
1F1
100
AcDbEntity
  8
0
  6
CONTINUOUS
 62
           2
100
AcDbLine
 10
36594.380521192317
 20
6188.389537789822
 11
37278.12566087817
 21
6188.389537789822
  0
SOLID
  5
1F2
100
AcDbEntity
  8
0
 62
           2
100
AcDbTrace
 10
37200.487952745883
 20
6291.722871123152
 11
37222.430035677113
 21
6291.722871123152
 12
37211.458994211498
 22
6208.389537789819
 13
37211.458994211498
 23
6208.389537789819
  0
SOLID
  5
1F3
100
AcDbEntity
  8
0
 62
           2
100
AcDbTrace
 10
37222.430035677113
 20
6105.056204456489
 11
37200.487952745883
 21
6105.056204456489
 12
37211.458994211498
 22
6188.389537789822
 13
37211.458994211498
 23
6188.389537789822
  0
MTEXT
  5
1F4
100
AcDbEntity
  8
0
 62
           1
100
AcDbMText
 10
37144.792327544834
 20
6607.127683158801
 30
0.0
 40
58.333333333333
 41
0.0
 71
           7
 72
           1
  1
20
  7
CONVERTER_2
 11
0.0
 21
1.0
 31
0.0
  0
ENDBLK
  5
1F5
100
AcDbEntity
  8
0
100
AcDbBlockEnd
  0
BLOCK
  5
1F9
100
AcDbEntity
  8
0
100
AcDbBlockBegin
  2
*D40
 70
           1
 10
0.0
 20
0.0
 30
0.0
  3
*D40
  1

  0
LINE
  5
1FA
100
AcDbEntity
  8
0
  6
CONTINUOUS
 62
           2
100
AcDbLine
 10
37409.532911790498
 20
5708.389537789821
 11
37409.532911790498
 21
6188.389537789822
  0
LINE
  5
1FB
100
AcDbEntity
  8
0
  6
CONTINUOUS
 62
           2
100
AcDbLine
 10
36850.380521192317
 20
5708.389537789821
 11
37476.19957845717
 21
5708.389537789821
  0
LINE
  5
1FC
100
AcDbEntity
  8
0
  6
CONTINUOUS
 62
           2
100
AcDbLine
 10
36594.380521192317
 20
6188.389537789822
 11
37476.19957845717
 21
6188.389537789822
  0
SOLID
  5
1FD
100
AcDbEntity
  8
0
 62
           2
100
AcDbTrace
 10
37420.503953256113
 20
6105.056204456489
 11
37398.561870324884
 21
6105.056204456489
 12
37409.532911790498
 22
6188.389537789822
 13
37409.532911790498
 23
6188.389537789822
  0
SOLID
  5
1FE
100
AcDbEntity
  8
0
 62
           2
100
AcDbTrace
 10
37398.561870324884
 20
5791.722871123154
 11
37420.503953256113
 21
5791.722871123154
 12
37409.532911790498
 22
5708.389537789821
 13
37409.532911790498
 23
5708.389537789821
  0
MTEXT
  5
1FF
100
AcDbEntity
  8
0
 62
           1
100
AcDbMText
 10
37342.866245123834
 20
5883.338097368174
 30
0.0
 40
58.333333333333
 41
0.0
 71
           7
 72
           1
  1
480
  7
CONVERTER_2
 11
0.0
 21
1.0
 31
0.0
  0
ENDBLK
  5
200
100
AcDbEntity
  8
0
100
AcDbBlockEnd
  0
BLOCK
  5
204
100
AcDbEntity
  8
0
100
AcDbBlockBegin
  2
*D41
 70
           1
 10
0.0
 20
0.0
 30
0.0
  3
*D41
  1

  0
LINE
  5
205
100
AcDbEntity
  8
0
  6
CONTINUOUS
 62
           2
100
AcDbLine
 10
38643.999999999985
 20
2415.344912342157
 11
41183.0
 21
2415.344912342157
  0
LINE
  5
206
100
AcDbEntity
  8
0
  6
CONTINUOUS
 62
           2
100
AcDbLine
 10
38643.999999999985
 20
3001.389537789817
 11
38643.999999999985
 21
2348.67824567549
  0
LINE
  5
207
100
AcDbEntity
  8
0
  6
CONTINUOUS
 62
           2
100
AcDbLine
 10
41183.0
 20
3001.389537789818
 11
41183.0
 21
2348.67824567549
  0
SOLID
  5
208
100
AcDbEntity
  8
0
 62
           2
100
AcDbTrace
 10
41099.666666666664
 20
2404.37387087654
 11
41099.666666666664
 21
2426.315953807773
 12
41183.0
 22
2415.344912342157
 13
41183.0
 23
2415.344912342157
  0
SOLID
  5
209
100
AcDbEntity
  8
0
 62
           2
100
AcDbTrace
 10
38727.333333333321
 20
2426.315953807773
 11
38727.333333333321
 21
2404.37387087654
 12
38643.999999999985
 22
2415.344912342157
 13
38643.999999999985
 23
2415.344912342157
  0
TEXT
  5
20A
100
AcDbEntity
  8
0
 62
           1
100
AcDbText
 10
39403.930194019224
 20
2482.011579008823
 40
58.333333333333
  1
DW + 535 (DW<=3800)
 41
1.357142857143
  7
CONVERTER_2
100
AcDbText
  0
ENDBLK
  5
20B
100
AcDbEntity
  8
0
100
AcDbBlockEnd
  0
BLOCK
  5
20F
100
AcDbEntity
  8
0
100
AcDbBlockBegin
  2
*D42
 70
           1
 10
0.0
 20
0.0
 30
0.0
  3
*D42
  1

  0
LINE
  5
210
100
AcDbEntity
  8
0
  6
CONTINUOUS
 62
           2
100
AcDbLine
 10
36596.713854525668
 20
2597.728020607367
 11
36763.380521192332
 21
2597.728020607367
  0
LINE
  5
211
100
AcDbEntity
  8
0
  6
CONTINUOUS
 62
           2
100
AcDbLine
 10
36763.380521192332
 20
2597.728020607367
 11
36856.380521192332
 21
2597.728020607367
  0
LINE
  5
212
100
AcDbEntity
  8
0
  6
CONTINUOUS
 62
           2
100
AcDbLine
 10
36856.380521192332
 20
2597.728020607367
 11
37060.174653853959
 21
2597.728020607367
  0
LINE
  5
213
100
AcDbEntity
  8
0
  6
CONTINUOUS
 62
           2
100
AcDbLine
 10
36763.380521192332
 20
3051.389537789819
 11
36763.380521192332
 21
2531.0613539407
  0
LINE
  5
214
100
AcDbEntity
  8
0
  6
CONTINUOUS
 62
           2
100
AcDbLine
 10
36856.380521192332
 20
3001.389537789818
 11
36856.380521192332
 21
2531.0613539407
  0
SOLID
  5
215
100
AcDbEntity
  8
0
 62
           2
100
AcDbTrace
 10
36939.713854525668
 20
2608.699062072983
 11
36939.713854525668
 21
2586.75697914175
 12
36856.380521192332
 22
2597.728020607367
 13
36856.380521192332
 23
2597.728020607367
  0
SOLID
  5
216
100
AcDbEntity
  8
0
 62
           2
100
AcDbTrace
 10
36680.047187858996
 20
2586.75697914175
 11
36680.047187858996
 21
2608.699062072983
 12
36763.380521192332
 22
2597.728020607367
 13
36763.380521192332
 23
2597.728020607367
  0
TEXT
  5
217
100
AcDbEntity
  8
0
 62
           1
100
AcDbText
 10
36972.674653853959
 20
2664.394687274034
 40
58.333333333333
  1
93
 41
1.357142857143
  7
CONVERTER_2
100
AcDbText
  0
ENDBLK
  5
218
100
AcDbEntity
  8
0
100
AcDbBlockEnd
  0
BLOCK
  5
21C
100
AcDbEntity
  8
0
100
AcDbBlockBegin
  2
*D43
 70
           1
 10
0.0
 20
0.0
 30
0.0
  3
*D43
  1

  0
LINE
  5
21D
100
AcDbEntity
  8
0
  6
CONTINUOUS
 62
           2
100
AcDbLine
 10
36591.380521192332
 20
2428.375650347767
 11
36856.380521192332
 21
2428.375650347767
  0
LINE
  5
21E
100
AcDbEntity
  8
0
  6
CONTINUOUS
 62
           2
100
AcDbLine
 10
36591.380521192332
 20
2428.375650347767
 11
36217.815619016139
 21
2428.375650347767
  0
LINE
  5
21F
100
AcDbEntity
  8
0
  6
CONTINUOUS
 62
           2
100
AcDbLine
 10
36591.380521192332
 20
3001.389537789818
 11
36591.380521192332
 21
2361.7089836811
  0
LINE
  5
220
100
AcDbEntity
  8
0
  6
CONTINUOUS
 62
           2
100
AcDbLine
 10
36856.380521192332
 20
3001.389537789818
 11
36856.380521192332
 21
2361.7089836811
  0
SOLID
  5
221
100
AcDbEntity
  8
0
 62
           2
100
AcDbTrace
 10
36773.047187858996
 20
2417.40460888215
 11
36773.047187858996
 21
2439.346691813383
 12
36856.380521192332
 22
2428.375650347767
 13
36856.380521192332
 23
2428.375650347767
  0
SOLID
  5
222
100
AcDbEntity
  8
0
 62
           2
100
AcDbTrace
 10
36674.713854525668
 20
2439.346691813383
 11
36674.713854525668
 21
2417.40460888215
 12
36591.380521192332
 22
2428.375650347767
 13
36591.380521192332
 23
2428.375650347767
  0
TEXT
  5
223
100
AcDbEntity
  8
0
 62
           1
100
AcDbText
 10
36217.815619016139
 20
2495.042317014434
 40
58.333333333333
  1
265
 41
1.357142857143
  7
CONVERTER_2
100
AcDbText
  0
ENDBLK
  5
224
100
AcDbEntity
  8
0
100
AcDbBlockEnd
  0
BLOCK
  5
228
100
AcDbEntity
  8
0
100
AcDbBlockBegin
  2
*D44
 70
           1
 10
0.0
 20
0.0
 30
0.0
  3
*D44
  1

  0
LINE
  5
229
100
AcDbEntity
  8
0
  6
CONTINUOUS
 62
           2
100
AcDbLine
 10
37409.018023393437
 20
3001.389537789818
 11
37409.018023393437
 21
5708.389537789822
  0
LINE
  5
22A
100
AcDbEntity
  8
0
  6
CONTINUOUS
 62
           2
100
AcDbLine
 10
36856.380521192332
 20
3001.389537789818
 11
37475.684690060101
 21
3001.389537789818
  0
LINE
  5
22B
100
AcDbEntity
  8
0
  6
CONTINUOUS
 62
           2
100
AcDbLine
 10
36850.380521192332
 20
5708.389537789822
 11
37475.684690060101
 21
5708.389537789822
  0
SOLID
  5
22C
100
AcDbEntity
  8
0
 62
           2
100
AcDbTrace
 10
37419.989064859052
 20
5625.056204456489
 11
37398.046981927822
 21
5625.056204456489
 12
37409.018023393437
 22
5708.389537789822
 13
37409.018023393437
 23
5708.389537789822
  0
SOLID
  5
22D
100
AcDbEntity
  8
0
 62
           2
100
AcDbTrace
 10
37398.046981927822
 20
3084.722871123152
 11
37419.989064859052
 21
3084.722871123152
 12
37409.018023393437
 22
3001.389537789818
 13
37409.018023393437
 23
3001.389537789818
  0
MTEXT
  5
22E
100
AcDbEntity
  8
0
 62
           1
100
AcDbMText
 10
37342.351356726766
 20
4289.583671690381
 30
0.0
 40
58.333333333333
 41
0.0
 71
           7
 72
           1
  1
DH
  7
CONVERTER_2
 11
0.0
 21
1.0
 31
0.0
  0
ENDBLK
  5
22F
100
AcDbEntity
  8
0
100
AcDbBlockEnd
  0
BLOCK
  5
233
100
AcDbEntity
  8
0
100
AcDbBlockBegin
  2
*D45
 70
           1
 10
0.0
 20
0.0
 30
0.0
  3
*D45
  1

  0
LINE
  5
234
100
AcDbEntity
  8
0
  6
CONTINUOUS
 62
           2
100
AcDbLine
 10
36204.238834514028
 20
5708.389537789819
 11
36204.238834514028
 21
6208.389537789814
  0
LINE
  5
235
100
AcDbEntity
  8
0
  6
CONTINUOUS
 62
           2
100
AcDbLine
 10
36486.380521192332
 20
6208.389537789814
 11
36137.572167847364
 21
6208.389537789814
  0
LINE
  5
236
100
AcDbEntity
  8
0
  6
CONTINUOUS
 62
           2
100
AcDbLine
 10
36486.380521192332
 20
5708.389537789819
 11
36137.572167847364
 21
5708.389537789819
  0
SOLID
  5
237
100
AcDbEntity
  8
0
 62
           2
100
AcDbTrace
 10
36193.267793048413
 20
5791.722871123152
 11
36215.209875979643
 21
5791.722871123152
 12
36204.238834514028
 22
5708.389537789819
 13
36204.238834514028
 23
5708.389537789819
  0
SOLID
  5
238
100
AcDbEntity
  8
0
 62
           2
100
AcDbTrace
 10
36215.209875979643
 20
6125.056204456481
 11
36193.267793048413
 21
6125.056204456481
 12
36204.238834514028
 22
6208.389537789814
 13
36204.238834514028
 23
6208.389537789814
  0
MTEXT
  5
239
100
AcDbEntity
  8
0
 62
           1
100
AcDbMText
 10
36137.572167847364
 20
5800.95725594897
 30
0.0
 40
58.333333333333
 41
0.0
 71
           7
 72
           1
  1
500
  7
CONVERTER_2
 11
0.0
 21
1.0
 31
0.0
  0
ENDBLK
  5
23A
100
AcDbEntity
  8
0
100
AcDbBlockEnd
  0
BLOCK
  5
23E
100
AcDbEntity
  8
0
100
AcDbBlockBegin
  2
*D46
 70
           1
 10
0.0
 20
0.0
 30
0.0
  3
*D46
  1

  0
LINE
  5
23F
100
AcDbEntity
  8
0
  6
CONTINUOUS
 62
           2
100
AcDbLine
 10
36031.820988226325
 20
5443.389537789815
 11
36031.820988226325
 21
6208.389537789814
  0
LINE
  5
240
100
AcDbEntity
  8
0
  6
CONTINUOUS
 62
           2
100
AcDbLine
 10
36486.380521192332
 20
6208.389537789814
 11
35965.154321559661
 21
6208.389537789814
  0
LINE
  5
241
100
AcDbEntity
  8
0
  6
CONTINUOUS
 62
           2
100
AcDbLine
 10
36436.380521192332
 20
5443.389537789815
 11
35965.154321559661
 21
5443.389537789815
  0
SOLID
  5
242
100
AcDbEntity
  8
0
 62
           2
100
AcDbTrace
 10
36042.79202969194
 20
6125.056204456481
 11
36020.849946760711
 21
6125.056204456481
 12
36031.820988226325
 22
6208.389537789814
 13
36031.820988226325
 23
6208.389537789814
  0
SOLID
  5
243
100
AcDbEntity
  8
0
 62
           2
100
AcDbTrace
 10
36020.849946760711
 20
5526.722871123148
 11
36042.79202969194
 21
5526.722871123148
 12
36031.820988226325
 22
5443.389537789815
 13
36031.820988226325
 23
5443.389537789815
  0
MTEXT
  5
244
100
AcDbEntity
  8
0
 62
           1
100
AcDbMText
 10
35965.154321559661
 20
5753.74760756065
 30
0.0
 40
58.333333333333
 41
0.0
 71
           7
 72
           1
  1
765
  7
CONVERTER_2
 11
0.0
 21
1.0
 31
0.0
  0
ENDBLK
  5
245
100
AcDbEntity
  8
0
100
AcDbBlockEnd
  0
BLOCK
  5
303
100
AcDbEntity
  8
0
100
AcDbBlockBegin
  2
*D47
 70
           1
 10
0.0
 20
0.0
 30
0.0
  3
*D47
  1

  0
LINE
  5
304
100
AcDbEntity
  8
0
  6
CONTINUOUS
 62
           2
100
AcDbLine
 10
40822.999999999993
 20
6426.784570409297
 11
41292.999999999993
 21
6426.784570409297
  0
LINE
  5
305
100
AcDbEntity
  8
0
  6
CONTINUOUS
 62
           2
100
AcDbLine
 10
40822.999999999993
 20
6161.389537789824
 11
40822.999999999993
 21
6493.451237075964
  0
LINE
  5
306
100
AcDbEntity
  8
0
  6
CONTINUOUS
 62
           2
100
AcDbLine
 10
41292.999999999993
 20
6013.389537789821
 11
41292.999999999993
 21
6493.451237075964
  0
SOLID
  5
307
100
AcDbEntity
  8
0
 62
           2
100
AcDbTrace
 10
40906.333333333328
 20
6437.755611874914
 11
40906.333333333328
 21
6415.813528943681
 12
40822.999999999993
 22
6426.784570409297
 13
40822.999999999993
 23
6426.784570409297
  0
SOLID
  5
308
100
AcDbEntity
  8
0
 62
           2
100
AcDbTrace
 10
41209.666666666657
 20
6415.813528943681
 11
41209.666666666657
 21
6437.755611874914
 12
41292.999999999993
 22
6426.784570409297
 13
41292.999999999993
 23
6426.784570409297
  0
TEXT
  5
309
100
AcDbEntity
  8
0
 62
           1
100
AcDbText
 10
40873.375607447299
 20
6493.451237075963
 40
58.333333333333
  1
470
 41
1.357142857143
  7
CONVERTER_2
100
AcDbText
  0
ENDBLK
  5
30A
100
AcDbEntity
  8
0
100
AcDbBlockEnd
  0
BLOCK
  5
30E
100
AcDbEntity
  8
0
100
AcDbBlockBegin
  2
*D48
 70
           1
 10
0.0
 20
0.0
 30
0.0
  3
*D48
  1

  0
LINE
  5
30F
100
AcDbEntity
  8
0
  6
CONTINUOUS
 62
           2
100
AcDbLine
 10
41420.509909538407
 20
3001.389537789817
 11
41420.509909538407
 21
4411.389537789815
  0
LINE
  5
310
100
AcDbEntity
  8
0
  6
CONTINUOUS
 62
           2
100
AcDbLine
 10
41271.54123675645
 20
3001.389537789817
 11
41487.176576205071
 21
3001.389537789817
  0
LINE
  5
311
100
AcDbEntity
  8
0
  6
CONTINUOUS
 62
           2
100
AcDbLine
 10
41257.999999999993
 20
4411.389537789815
 11
41487.176576205071
 21
4411.389537789815
  0
SOLID
  5
312
100
AcDbEntity
  8
0
 62
           2
100
AcDbTrace
 10
41409.538868072792
 20
3084.722871123151
 11
41431.480951004021
 21
3084.722871123151
 12
41420.509909538407
 22
3001.389537789817
 13
41420.509909538407
 23
3001.389537789817
  0
SOLID
  5
313
100
AcDbEntity
  8
0
 62
           2
100
AcDbTrace
 10
41431.480951004021
 20
4328.056204456482
 11
41409.538868072792
 21
4328.056204456482
 12
41420.509909538407
 22
4411.389537789815
 13
41420.509909538407
 23
4411.389537789815
  0
MTEXT
  5
314
100
AcDbEntity
  8
0
 62
           1
100
AcDbMText
 10
41353.843242871735
 20
3667.4811204146
 30
0.0
 40
58.333333333333
 41
0.0
 71
           7
 72
           1
  1
1410
  7
CONVERTER_2
 11
0.0
 21
1.0
 31
0.0
  0
ENDBLK
  5
315
100
AcDbEntity
  8
0
100
AcDbBlockEnd
  0
BLOCK
  5
319
100
AcDbEntity
  8
0
100
AcDbBlockBegin
  2
*D49
 70
           1
 10
0.0
 20
0.0
 30
0.0
  3
*D49
  1

  0
LINE
  5
31A
100
AcDbEntity
  8
0
  6
CONTINUOUS
 62
           2
100
AcDbLine
 10
41016.333333333328
 20
4743.574800567287
 11
41182.999999999993
 21
4743.574800567287
  0
LINE
  5
31B
100
AcDbEntity
  8
0
  6
CONTINUOUS
 62
           2
100
AcDbLine
 10
41182.999999999993
 20
4743.574800567287
 11
41257.999999999993
 21
4743.574800567287
  0
LINE
  5
31C
100
AcDbEntity
  8
0
  6
CONTINUOUS
 62
           2
100
AcDbLine
 10
41257.999999999993
 20
4743.574800567287
 11
41424.666666666657
 21
4743.574800567287
  0
LINE
  5
31D
100
AcDbEntity
  8
0
  6
CONTINUOUS
 62
           2
100
AcDbLine
 10
41182.999999999993
 20
4590.389537789815
 11
41182.999999999993
 21
4810.241467233954
  0
LINE
  5
31E
100
AcDbEntity
  8
0
  6
CONTINUOUS
 62
           2
100
AcDbLine
 10
41257.999999999993
 20
4590.389537789815
 11
41257.999999999993
 21
4810.241467233954
  0
SOLID
  5
31F
100
AcDbEntity
  8
0
 62
           2
100
AcDbTrace
 10
41341.333333333328
 20
4754.545842032903
 11
41341.333333333328
 21
4732.60375910167
 12
41257.999999999993
 22
4743.574800567287
 13
41257.999999999993
 23
4743.574800567287
  0
SOLID
  5
320
100
AcDbEntity
  8
0
 62
           2
100
AcDbTrace
 10
41099.666666666657
 20
4732.60375910167
 11
41099.666666666657
 21
4754.545842032903
 12
41182.999999999993
 22
4743.574800567287
 13
41182.999999999993
 23
4743.574800567287
  0
TEXT
  5
321
100
AcDbEntity
  8
0
 62
           1
100
AcDbText
 10
41336.616670545198
 20
4810.241467233953
 40
58.333333333333
  1
75
 41
1.357142857143
  7
CONVERTER_2
100
AcDbText
  0
ENDBLK
  5
322
100
AcDbEntity
  8
0
100
AcDbBlockEnd
  0
BLOCK
  5
326
100
AcDbEntity
  8
0
100
AcDbBlockBegin
  2
*D50
 70
           1
 10
0.0
 20
0.0
 30
0.0
  3
*D50
  1

  0
LINE
  5
327
100
AcDbEntity
  8
0
  6
CONTINUOUS
 62
           2
100
AcDbLine
 10
36631.38052119231
 20
5181.991092897627
 11
36851.380521192325
 21
5181.991092897627
  0
LINE
  5
328
100
AcDbEntity
  8
0
  6
CONTINUOUS
 62
           2
100
AcDbLine
 10
36631.38052119231
 20
5181.991092897627
 11
36464.713854525646
 21
5181.991092897627
  0
LINE
  5
329
100
AcDbEntity
  8
0
  6
CONTINUOUS
 62
           2
100
AcDbLine
 10
36851.380521192325
 20
5181.991092897627
 11
37018.047187858989
 21
5181.991092897627
  0
LINE
  5
32A
100
AcDbEntity
  8
0
  6
CONTINUOUS
 62
           2
100
AcDbLine
 10
36631.38052119231
 20
5658.389537789821
 11
36631.38052119231
 21
5115.32442623096
  0
LINE
  5
32B
100
AcDbEntity
  8
0
  6
CONTINUOUS
 62
           2
100
AcDbLine
 10
36851.380521192325
 20
5658.389537789821
 11
36851.380521192325
 21
5115.32442623096
  0
SOLID
  5
32C
100
AcDbEntity
  8
0
 62
           2
100
AcDbTrace
 10
36934.71385452566
 20
5192.962134363243
 11
36934.71385452566
 21
5171.02005143201
 12
36851.380521192325
 22
5181.991092897627
 13
36851.380521192325
 23
5181.991092897627
  0
SOLID
  5
32D
100
AcDbEntity
  8
0
 62
           2
100
AcDbTrace
 10
36548.047187858974
 20
5171.02005143201
 11
36548.047187858974
 21
5192.962134363243
 12
36631.38052119231
 22
5181.991092897627
 13
36631.38052119231
 23
5181.991092897627
  0
TEXT
  5
32E
100
AcDbEntity
  8
0
 62
           1
100
AcDbText
 10
36674.922271637399
 20
5248.657759564293
 40
58.333333333333
  1
220
 41
1.357142857143
  7
CONVERTER_2
100
AcDbText
  0
ENDBLK
  5
32F
100
AcDbEntity
  8
0
100
AcDbBlockEnd
  0
BLOCK
  5
333
100
AcDbEntity
  8
0
100
AcDbBlockBegin
  2
*D51
 70
           1
 10
0.0
 20
0.0
 30
0.0
  3
*D51
  1

  0
LINE
  5
334
100
AcDbEntity
  8
0
  6
CONTINUOUS
 62
           2
100
AcDbLine
 10
37050.615293617731
 20
5875.056204456488
 11
37050.615293617731
 21
5708.389537789821
  0
LINE
  5
335
100
AcDbEntity
  8
0
  6
CONTINUOUS
 62
           2
100
AcDbLine
 10
37050.615293617731
 20
5648.389537789821
 11
37050.615293617731
 21
5708.389537789821
  0
LINE
  5
336
100
AcDbEntity
  8
0
  6
CONTINUOUS
 62
           2
100
AcDbLine
 10
37050.615293617731
 20
5648.389537789821
 11
37050.615293617731
 21
5449.92864522665
  0
LINE
  5
337
100
AcDbEntity
  8
0
  6
CONTINUOUS
 62
           2
100
AcDbLine
 10
36851.380521192325
 20
5648.389537789821
 11
37117.281960284403
 21
5648.389537789821
  0
LINE
  5
338
100
AcDbEntity
  8
0
  6
CONTINUOUS
 62
           2
100
AcDbLine
 10
36842.303864224603
 20
5708.389537789821
 11
37117.281960284403
 21
5708.389537789821
  0
SOLID
  5
339
100
AcDbEntity
  8
0
 62
           2
100
AcDbTrace
 10
37039.644252152117
 20
5791.722871123154
 11
37061.586335083346
 21
5791.722871123154
 12
37050.615293617731
 22
5708.389537789821
 13
37050.615293617731
 23
5708.389537789821
  0
SOLID
  5
33A
100
AcDbEntity
  8
0
 62
           2
100
AcDbTrace
 10
37061.586335083346
 20
5565.056204456488
 11
37039.644252152117
 21
5565.056204456488
 12
37050.615293617731
 22
5648.389537789821
 13
37050.615293617731
 23
5648.389537789821
  0
MTEXT
  5
33B
100
AcDbEntity
  8
0
 62
           1
100
AcDbMText
 10
36983.948626951067
 20
5449.92864522665
 30
0.0
 40
58.333333333333
 41
0.0
 71
           7
 72
           1
  1
60
  7
CONVERTER_2
 11
0.0
 21
1.0
 31
0.0
  0
ENDBLK
  5
33C
100
AcDbEntity
  8
0
100
AcDbBlockEnd
  0
BLOCK
  5
471
100
AcDbEntity
  8
0
100
AcDbBlockBegin
  2
*D52
 70
           1
 10
0.0
 20
0.0
 30
0.0
  3
*D52
  1

  0
LINE
  5
472
100
AcDbEntity
  8
0
  6
CONTINUOUS
 62
           2
100
AcDbLine
 10
41232.999999999971
 20
464.91858932504
 11
41489.464889095987
 21
464.91858932504
  0
LINE
  5
473
100
AcDbEntity
  8
0
  6
CONTINUOUS
 62
           2
100
AcDbLine
 10
41182.999999999971
 20
464.91858932504
 11
41232.999999999971
 21
464.91858932504
  0
LINE
  5
474
100
AcDbEntity
  8
0
  6
CONTINUOUS
 62
           2
100
AcDbLine
 10
41016.333333333307
 20
464.91858932504
 11
41182.999999999971
 21
464.91858932504
  0
LINE
  5
475
100
AcDbEntity
  8
0
  6
CONTINUOUS
 62
           2
100
AcDbLine
 10
41232.999999999971
 20
1257.269357450717
 11
41232.999999999971
 21
398.251922658373
  0
LINE
  5
476
100
AcDbEntity
  8
0
  6
CONTINUOUS
 62
           2
100
AcDbLine
 10
41182.999999999971
 20
1257.269357450717
 11
41182.999999999971
 21
398.251922658373
  0
SOLID
  5
477
100
AcDbEntity
  8
0
 62
           2
100
AcDbTrace
 10
41316.333333333307
 20
475.889630790656
 11
41316.333333333307
 21
453.947547859424
 12
41232.999999999971
 22
464.91858932504
 13
41232.999999999971
 23
464.91858932504
  0
SOLID
  5
478
100
AcDbEntity
  8
0
 62
           2
100
AcDbTrace
 10
41099.666666666635
 20
453.947547859424
 11
41099.666666666635
 21
475.889630790656
 12
41182.999999999971
 22
464.91858932504
 13
41182.999999999971
 23
464.91858932504
  0
TEXT
  5
479
100
AcDbEntity
  8
0
 62
           1
100
AcDbText
 10
41401.964889095987
 20
531.585255991707
 40
58.333333333333
  1
50
 41
1.357142857143
  7
CONVERTER_2
100
AcDbText
  0
ENDBLK
  5
47A
100
AcDbEntity
  8
0
100
AcDbBlockEnd
  0
BLOCK
  5
47E
100
AcDbEntity
  8
0
100
AcDbBlockBegin
  2
*D53
 70
           1
 10
0.0
 20
0.0
 30
0.0
  3
*D53
  1

  0
LINE
  5
47F
100
AcDbEntity
  8
0
  6
CONTINUOUS
 62
           2
100
AcDbLine
 10
38513.0
 20
937.092162846797
 11
38224.801486404103
 21
937.092162846797
  0
LINE
  5
480
100
AcDbEntity
  8
0
  6
CONTINUOUS
 62
           2
100
AcDbLine
 10
38513.0
 20
937.092162846797
 11
38563.0
 21
937.092162846797
  0
LINE
  5
481
100
AcDbEntity
  8
0
  6
CONTINUOUS
 62
           2
100
AcDbLine
 10
38729.666666666672
 20
937.092162846797
 11
38563.0
 21
937.092162846797
  0
LINE
  5
482
100
AcDbEntity
  8
0
  6
CONTINUOUS
 62
           2
100
AcDbLine
 10
38563.0
 20
1269.269357450717
 11
38563.0
 21
870.42549618013
  0
LINE
  5
483
100
AcDbEntity
  8
0
  6
CONTINUOUS
 62
           2
100
AcDbLine
 10
38513.0
 20
1269.269357450717
 11
38513.0
 21
870.42549618013
  0
SOLID
  5
484
100
AcDbEntity
  8
0
 62
           2
100
AcDbTrace
 10
38429.666666666664
 20
926.12112138118
 11
38429.666666666664
 21
948.063204312413
 12
38513.0
 22
937.092162846797
 13
38513.0
 23
937.092162846797
  0
SOLID
  5
485
100
AcDbEntity
  8
0
 62
           2
100
AcDbTrace
 10
38646.333333333336
 20
948.063204312413
 11
38646.333333333336
 21
926.12112138118
 12
38563.0
 22
937.092162846797
 13
38563.0
 23
937.092162846797
  0
TEXT
  5
486
100
AcDbEntity
  8
0
 62
           1
100
AcDbText
 10
38224.801486404103
 20
1003.758829513463
 40
58.333333333333
  1
50
 41
1.357142857143
  7
CONVERTER_2
100
AcDbText
  0
ENDBLK
  5
487
100
AcDbEntity
  8
0
100
AcDbBlockEnd
  0
BLOCK
  5
497
100
AcDbEntity
  8
0
100
AcDbBlockBegin
  2
*D54
 70
           1
 10
0.0
 20
0.0
 30
0.0
  3
*D54
  1

  0
LINE
  5
498
100
AcDbEntity
  8
0
  6
CONTINUOUS
 62
           2
100
AcDbLine
 10
38922.999999999993
 20
1860.428265145567
 11
40822.999999999985
 21
1860.428265145567
  0
LINE
  5
499
100
AcDbEntity
  8
0
  6
CONTINUOUS
 62
           2
100
AcDbLine
 10
40822.999999999985
 20
1792.269357450717
 11
40822.999999999985
 21
1927.094931812233
  0
LINE
  5
49A
100
AcDbEntity
  8
0
  6
CONTINUOUS
 62
           2
100
AcDbLine
 10
38922.999999999993
 20
1792.269357450716
 11
38922.999999999993
 21
1927.094931812233
  0
SOLID
  5
49B
100
AcDbEntity
  8
0
 62
           2
100
AcDbTrace
 10
40739.66666666665
 20
1849.45722367995
 11
40739.66666666665
 21
1871.399306611183
 12
40822.999999999985
 22
1860.428265145567
 13
40822.999999999985
 23
1860.428265145567
  0
SOLID
  5
49C
100
AcDbEntity
  8
0
 62
           2
100
AcDbTrace
 10
39006.333333333328
 20
1871.399306611183
 11
39006.333333333328
 21
1849.45722367995
 12
38922.999999999993
 22
1860.428265145567
 13
38922.999999999993
 23
1860.428265145567
  0
TEXT
  5
49D
100
AcDbEntity
  8
0
 62
           1
100
AcDbText
 10
39751.470166646861
 20
1927.094931812233
 40
58.333333333333
  1
DW  
 41
1.357142857143
  7
CONVERTER_2
100
AcDbText
  0
ENDBLK
  5
49E
100
AcDbEntity
  8
0
100
AcDbBlockEnd
  0
ENDSEC
  0
SECTION
  2
ENTITIES
  0
MTEXT
  5
5FF
100
AcDbEntity
  8
1
 62
           3
100
AcDbMText
 10
37340.022743597627
 20
1009.612874798722
 30
0.0
 40
66.666666666667
 41
0.0
 71
           7
 72
           1
  1
Montagefreiraum\PExtra fixing space
  7
CONVERTER_1
  0
MTEXT
  5
5FE
100
AcDbEntity
  8
1
 62
           3
100
AcDbMText
 10
36470.31777392784
 20
6893.942680370852
 30
0.0
 40
66.666666666667
 41
0.0
 71
           7
 72
           1
  1
Montagefreiraum\PExtra fixing space
  7
CONVERTER_1
  0
MTEXT
  5
5FD
100
AcDbEntity
  8
1
 62
           3
100
AcDbMText
 10
41362.045919348951
 20
876.220421081281
 30
0.0
 40
66.666666666667
 41
0.0
 71
           7
 72
           1
  1
Montagefreiraum\PExtra fixing space
  7
CONVERTER_1
  0
MTEXT
  5
5FC
100
AcDbEntity
  8
1
 62
           3
100
AcDbMText
 10
35991.698672259561
 20
4589.593732235893
 30
0.0
 40
66.666666666667
 41
0.0
 71
           7
 72
           1
  1
Montagefreiraum\PExtra fixing space
  7
CONVERTER_1
  0
MTEXT
  5
5FB
100
AcDbEntity
  8
1
 62
           3
100
AcDbMText
 10
37579.049896938712
 20
5391.379967318975
 30
0.0
 40
66.666666666667
 41
0.0
 71
           7
 72
           1
  1
Steuerung /\Pcontrol unit
  7
CONVERTER_1
  0
MTEXT
  5
5FA
100
AcDbEntity
  8
1
 62
           3
100
AcDbMText
 10
39251.243876885128
 20
6749.590818969751
 30
0.0
 40
83.333333333333
 41
0.0
 71
           7
 72
           1
  1
Steuerung u. Display optional an Wand montierbar *\PControl unit and display can optional be fixed on wall *
  7
CONVERTER_1
  0
MTEXT
  5
5F9
100
AcDbEntity
  8
1
 62
           3
100
AcDbMText
 10
41437.50574019122
 20
4504.142018064735
 30
0.0
 40
66.666666666667
 41
0.0
 71
           7
 72
           1
  1
Bedieneinheit/\PKeyboard
  7
CONVERTER_1
  0
LINE
  5
5F8
100
AcDbEntity
  8
1
  6
CONTINUOUS
 62
           2
100
AcDbLine
 10
41521.085315370801
 20
821.543226510195
 11
41425.34242266501
 21
672.609837856726
  0
LINE
  5
5F7
100
AcDbEntity
  8
1
  6
CONTINUOUS
 62
           2
100
AcDbLine
 10
37140.648413205112
 20
6726.087408085739
 11
37077.283556967603
 21
6877.3454520075
  0
LINE
  5
5F6
100
AcDbEntity
  8
1
  6
CONTINUOUS
 62
           2
100
AcDbLine
 10
37974.162078338763
 20
1064.01870437088
 11
38145.613237068617
 21
1029.175038537671
  0
LINE
  5
5F5
100
AcDbEntity
  8
1
  6
CONTINUOUS
 62
           2
100
AcDbLine
 10
36280.112784947501
 20
6754.703794773639
 11
36439.546939351487
 21
6920.27003203935
  0
LINE
  5
5F4
100
AcDbEntity
  8
1
  6
CONTINUOUS
 62
           3
100
AcDbLine
 10
36759.529497702897
 20
5698.08501521014
 11
37599.529497702912
 21
5580.08501521014
  0
LINE
  5
5F3
100
AcDbEntity
  8
1
  6
CONTINUOUS
 62
           3
100
AcDbLine
 10
41715.0
 20
6077.389537789816
 11
41448.000000000007
 21
6701.389537789816
  0
LINE
  5
5F2
100
AcDbEntity
  8
1
  6
CONTINUOUS
 62
           3
100
AcDbLine
 10
41448.000000000007
 20
6701.389537789816
 11
41283.659917931291
 21
6592.941767896755
  0
LINE
  5
5F1
100
AcDbEntity
  8
1
  6
CONTINUOUS
 62
           3
100
AcDbLine
 10
41272.999999999971
 20
5873.54651807932
 11
41715.0
 21
6077.389537789816
  0
LINE
  5
5F0
100
AcDbEntity
  8
1
  6
CONTINUOUS
 62
           3
100
AcDbLine
 10
41274.137004243697
 20
4786.156691044951
 11
41715.000000000007
 21
6077.389537789816
  0
LINE
  5
5EF
100
AcDbEntity
  8
1
  6
CONTINUOUS
 62
           2
100
AcDbLine
 10
36135.811001629001
 20
4810.288599562722
 11
36262.921678273902
 21
5103.195810961981
  0
INSERT
  5
82
100
AcDbEntity
  8
0
100
AcDbBlockReference
  2
8300079
 10
7734.907763164041
 20
1966.26675977652
  0
INSERT
  5
83
100
AcDbEntity
  8
0
100
AcDbBlockReference
  2
ANTRIEB_SA
 10
16776.19413407821
 20
19227.437150838039
  0
INSERT
  5
84
100
AcDbEntity
  8
0
100
AcDbBlockReference
  2
_SCHALTKASTEN_VA__4
 10
10428.540802781101
 20
5781.122806826084
  0
INSERT
  5
85
100
AcDbEntity
  8
0
100
AcDbBlockReference
  2
STURZABDICHTUNG_SA
 10
-1398.952073997285
 20
1207.000000000002
  0
INSERT
  5
86
100
AcDbEntity
  8
0
100
AcDbBlockReference
  2
DRAUFSICHT_PRINZIPZG
 10
16970.0
 20
20430.940657297469
  0
INSERT
  5
87
100
AcDbEntity
  8
0
100
AcDbBlockReference
  2
VORLAGE__5
 10
61621.223629239365
 20
52578.401316191099
 41
33.333333333343
 42
33.333333333328
  0
INSERT
  5
88
100
AcDbEntity
  8
0
100
AcDbBlockReference
  2
8300R0001
 10
17361.029991788379
 20
20946.93715083797
  0
INSERT
  5
89
100
AcDbEntity
  8
0
100
AcDbBlockReference
  2
_1
 10
36166.880550870701
 20
-5290.39382684306
  0
ENDSEC
  0
SECTION
  2
OBJECTS
  0
DICTIONARY
  5
19
100
AcDbDictionary
  3
ACAD_GROUP
350
1A
  3
ACAD_MLINESTYLE
350
1B
  0
DICTIONARY
  5
1A
102
{ACAD_REACTORS
330
19
102
}
100
AcDbDictionary
  0
DICTIONARY
  5
1B
102
{ACAD_REACTORS
330
19
102
}
100
AcDbDictionary
  3
STANDARD
350
1C
  0
MLINESTYLE
  5
1C
102
{ACAD_REACTORS
330
1B
102
}
100
AcDbMlineStyle
  2
STANDARD
 70
           0
  3

 62
           0
 51
90.0
 52
90.0
 71
           2
 49
0.5
 62
         256
  6
BYLAYER
 49
-0.5
 62
         256
  6
BYLAYER
  0
ENDSEC
  0
EOF
