  0
SECTION
  2
HEADER
  9
$ACADVER
  1
AC1014
  9
$ACADMAINTVER
 70
           0
  9
$DWGCODEPAGE
  3
ANSI_1252
  9
$INSBASE
 10
0.0
 20
0.0
 30
0.0
  9
$EXTMIN
 10
1.000000000000E+20
 20
1.000000000000E+20
 30
1.000000000000E+20
  9
$EXTMAX
 10
-1.000000000000E+20
 20
-1.000000000000E+20
 30
-1.000000000000E+20
  9
$LIMMIN
 10
0.0
 20
0.0
  9
$LIMMAX
 10
0.0
 20
0.0
  9
$ORTHOMODE
 70
           0
  9
$REGENMODE
 70
           1
  9
$FILLMODE
 70
           1
  9
$QTEXTMODE
 70
           0
  9
$MIRRTEXT
 70
           1
  9
$DRAGMODE
 70
           2
  9
$LTSCALE
 40
1.0
  9
$OSMODE
 70
           0
  9
$ATTMODE
 70
           1
  9
$TEXTSIZE
 40
0.2
  9
$TRACEWID
 40
0.05
  9
$TEXTSTYLE
  7
STANDARD
  9
$CLAYER
  8
0
  9
$CELTYPE
  6
CONTINUOUS
  9
$CECOLOR
 62
         256
  9
$CELTSCALE
 40
1.0
  9
$DELOBJ
 70
           1
  9
$DISPSILH
 70
           0
  9
$DIMSCALE
 40
1.0
  9
$DIMASZ
 40
0.18
  9
$DIMEXO
 40
0.0625
  9
$DIMDLI
 40
0.38
  9
$DIMRND
 40
0.0
  9
$DIMDLE
 40
0.0
  9
$DIMEXE
 40
0.18
  9
$DIMTP
 40
0.0
  9
$DIMTM
 40
0.0
  9
$DIMTXT
 40
0.18
  9
$DIMCEN
 40
0.09
  9
$DIMTSZ
 40
0.0
  9
$DIMTOL
 70
           0
  9
$DIMLIM
 70
           0
  9
$DIMTIH
 70
           1
  9
$DIMTOH
 70
           1
  9
$DIMSE1
 70
           0
  9
$DIMSE2
 70
           0
  9
$DIMTAD
 70
           0
  9
$DIMZIN
 70
           0
  9
$DIMBLK
  1

  9
$DIMASO
 70
           1
  9
$DIMSHO
 70
           1
  9
$DIMPOST
  1

  9
$DIMAPOST
  1

  9
$DIMALT
 70
           0
  9
$DIMALTD
 70
           2
  9
$DIMALTF
 40
25.4
  9
$DIMLFAC
 40
1.0
  9
$DIMTOFL
 70
           0
  9
$DIMTVP
 40
0.0
  9
$DIMTIX
 70
           0
  9
$DIMSOXD
 70
           0
  9
$DIMSAH
 70
           0
  9
$DIMBLK1
  1

  9
$DIMBLK2
  1

  9
$DIMSTYLE
  2
STANDARD
  9
$DIMCLRD
 70
           0
  9
$DIMCLRE
 70
           0
  9
$DIMCLRT
 70
           0
  9
$DIMTFAC
 40
1.0
  9
$DIMGAP
 40
0.09
  9
$DIMJUST
 70
           0
  9
$DIMSD1
 70
           0
  9
$DIMSD2
 70
           0
  9
$DIMTOLJ
 70
           1
  9
$DIMTZIN
 70
           0
  9
$DIMALTZ
 70
           0
  9
$DIMALTTZ
 70
           0
  9
$DIMFIT
 70
           3
  9
$DIMUPT
 70
           0
  9
$DIMUNIT
 70
           2
  9
$DIMDEC
 70
           4
  9
$DIMTDEC
 70
           4
  9
$DIMALTU
 70
           2
  9
$DIMALTTD
 70
           2
  9
$DIMTXSTY
  7
STANDARD
  9
$DIMAUNIT
 70
           0
  9
$LUNITS
 70
           2
  9
$LUPREC
 70
           4
  9
$SKETCHINC
 40
0.1
  9
$FILLETRAD
 40
0.0
  9
$AUNITS
 70
           0
  9
$AUPREC
 70
           0
  9
$MENU
  1
acad
  9
$ELEVATION
 40
0.0
  9
$PELEVATION
 40
0.0
  9
$THICKNESS
 40
0.0
  9
$LIMCHECK
 70
           0
  9
$BLIPMODE
 70
           1
  9
$CHAMFERA
 40
0.0
  9
$CHAMFERB
 40
0.0
  9
$CHAMFERC
 40
0.0
  9
$CHAMFERD
 40
0.0
  9
$SKPOLY
 70
           0
  9
$TDCREATE
 40
0.000000000
  9
$TDUPDATE
 40
0.000000000
  9
$TDINDWG
 40
0.0000000000
  9
$TDUSRTIMER
 40
0.0000000000
  9
$USRTIMER
 70
           1
  9
$ANGBASE
 50
0.0
  9
$ANGDIR
 70
           0
  9
$PDMODE
 70
           0
  9
$PDSIZE
 40
0.0
  9
$PLINEWID
 40
0.0
  9
$COORDS
 70
           0
  9
$SPLFRAME
 70
           0
  9
$SPLINETYPE
 70
           6
  9
$SPLINESEGS
 70
           8
  9
$ATTDIA
 70
           0
  9
$ATTREQ
 70
           1
  9
$HANDLING
 70
           1
  9
$HANDSEED
  5
5E8
  9
$SURFTAB1
 70
           6
  9
$SURFTAB2
 70
           6
  9
$SURFTYPE
 70
           6
  9
$SURFU
 70
           6
  9
$SURFV
 70
           6
  9
$UCSNAME
  2

  9
$UCSORG
 10
0.0
 20
0.0
 30
0.0
  9
$UCSXDIR
 10
1.0
 20
0.0
 30
0.0
  9
$UCSYDIR
 10
0.0
 20
1.0
 30
0.0
  9
$PUCSNAME
  2

  9
$PUCSORG
 10
0.0
 20
0.0
 30
0.0
  9
$PUCSXDIR
 10
1.0
 20
0.0
 30
0.0
  9
$PUCSYDIR
 10
0.0
 20
1.0
 30
0.0
  9
$USERI1
 70
           0
  9
$USERI2
 70
           0
  9
$USERI3
 70
           0
  9
$USERI4
 70
           0
  9
$USERI5
 70
           0
  9
$USERR1
 40
0.0
  9
$USERR2
 40
0.0
  9
$USERR3
 40
0.0
  9
$USERR4
 40
0.0
  9
$USERR5
 40
0.0
  9
$WORLDVIEW
 70
           1
  9
$SHADEDGE
 70
           3
  9
$SHADEDIF
 70
          70
  9
$TILEMODE
 70
           1
  9
$MAXACTVP
 70
          16
  9
$PINSBASE
 10
0.0
 20
0.0
 30
0.0
  9
$PLIMCHECK
 70
           0
  9
$PEXTMIN
 10
1.000000000000E+20
 20
1.000000000000E+20
 30
1.000000000000E+20
  9
$PEXTMAX
 10
-1.000000000000E+20
 20
-1.000000000000E+20
 30
-1.000000000000E+20
  9
$PLIMMIN
 10
0.0
 20
0.0
  9
$PLIMMAX
 10
12.0
 20
9.0
  9
$UNITMODE
 70
           0
  9
$VISRETAIN
 70
           0
  9
$PLINEGEN
 70
           1
  9
$PSLTSCALE
 70
           0
  9
$TREEDEPTH
 70
        3020
  9
$PICKSTYLE
 70
           1
  9
$CMLSTYLE
  2
STANDARD
  9
$CMLJUST
 70
           0
  9
$CMLSCALE
 40
1.0
  9
$PROXYGRAPHICS
 70
           0
  9
$MEASUREMENT
 70
           1
  0
ENDSEC
  0
SECTION
  2
CLASSES
  0
CLASS
  1
LWPOLYLINE
  2
AcDbPolyline
  3
"AutoCAD"
 90
        0
280
           0
281
           1
  0
CLASS
  1
IMAGE
  2
AcDbRasterImage
  3
ISM
 90
      127
280
           0
281
           1
  0
CLASS
  1
OLE2FRAME
  2
AcDbOle2Frame
  3
""
 90
        0
280
           0
281
           1
  0
CLASS
  1
HATCH
  2
AcDbHatch
  3
"ACAD_SEDONA"
 90
        0
280
           0
281
           1
  0
CLASS
  1
DICTIONARYVAR
  2
AcDbDictionaryVar
  3
"AutoCAD"
 90
        0
280
           0
281
           0
  0
CLASS
  1
RASTERVARIABLES
  2
AcDbRasterVariables
  3
ISM
 90
        0
280
           0
281
           0
  0
CLASS
  1
IMAGEDEF
  2
AcDbRasterImageDef
  3
ISM
 90
        0
280
           0
281
           0
  0
CLASS
  1
IMAGEDEF_REACTOR
  2
AcDbRasterImageDefReactor
  3
ISM
 90
        1
280
           0
281
           0
  0
CLASS
  1
IDBUFFER
  2
AcDbIdBuffer
  3
"Acad"
 90
        0
280
           0
281
           0
  0
CLASS
  1
SPATIAL_FILTER
  2
AcDbSpatialFilter
  3
"Acad"
 90
        0
280
           0
281
           0
  0
CLASS
  1
XRECORD
  2
AcDbXrecord
  3
"<Built In>"
 90
        0
280
           0
281
           0
  0
CLASS
  1
SORTENTSTABLE
  2
AcDbSortentsTable
  3
"AutoCAD"
 90
        0
280
           0
281
           0
  0
CLASS
  1
LAYER_INDEX
  2
AcDbLayerIndex
  3
"Acad"
 90
        0
280
           0
281
           0
  0
CLASS
  1
SPATIAL_INDEX
  2
AcDbSpatialIndex
  3
"Acad"
 90
        0
280
           0
281
           0
  0
CLASS
  1
OBJECT_PTR
  2
CAseDLPNTableRecord
  3
"ASE-LPNTableRecord"
 90
        1
280
           0
281
           0
  0
CLASS
  1
LAYOUT
  2
AcDbLayout
  3
"AutoCAD 2000"
 90
        1
280
           0
281
           0
  0
CLASS
  1
PLOTSETTINGS
  2
AcDbPlotSettings
  3
"AutoCAD 2000"
 90
        1
280
           0
281
           0
  0
CLASS
  1
ACDBDICTIONARYWDFLT
  2
AcDbDictionaryWithDefault
  3
"AutoCAD 2000"
 90
        1
280
           0
281
           0
  0
CLASS
  1
ACDBPLACEHOLDER
  2
AcDbPlaceHolder
  3
"AutoCAD 2000"
 90
        1
280
           0
281
           0
  0
CLASS
  1
VBA_PROJECT
  2
AcDbVbaProject
  3
"acadvba"
 90
        1
280
           0
281
           0
  0
CLASS
  1
WIPEOUT
  2
AcDbWipeout
  3
WipeOut|AutoCAD Express Tool|expresstools@autodesk.com
 90
      127
280
           0
281
           1
  0
CLASS
  1
WIPEOUTVARIABLES
  2
AcDbWipeoutVariables
  3
WipeOut|AutoCAD Express Tool|expresstools@autodesk.com
 90
        0
280
           0
281
           0
  0
CLASS
  1
RTEXT
  2
RText
  3
RText|AutoCAD Express Tool|expresstools@autodesk.com
 90
        0
280
           0
281
           1
  0
CLASS
  1
ARCALIGNEDTEXT
  2
AcDbArcAlignedText
  3
ATEXT|AutoCAD Express Tool|expresstools@autodesk.com
 90
        0
280
           0
281
           1
  0
ENDSEC
  0
SECTION
  2
TABLES
  0
TABLE
  2
VPORT
  5
7
100
AcDbSymbolTable
 70
           1
  0
VPORT
  5
15
100
AcDbSymbolTableRecord
100
AcDbViewportTableRecord
  2
*ACTIVE
 70
           0
 10
0.0
 20
0.0
 11
1.0
 21
1.0
 12
6.591288
 22
4.579184
 13
0.0
 23
0.0
 14
1.0
 24
1.0
 15
0.0
 25
0.0
 16
0.0
 26
0.0
 36
1.0
 17
0.0
 27
0.0
 37
0.0
 40
9.158369
 41
0.688564
 42
50.0
 43
0.0
 44
0.0
 50
0.0
 51
0.0
 71
           0
 72
         100
 73
           1
 74
           1
 75
           0
 76
           0
 77
           0
 78
           0
  0
ENDTAB
  0
TABLE
  2
LTYPE
  5
4
100
AcDbSymbolTable
 70
          10
  0
LTYPE
  5
11
100
AcDbSymbolTableRecord
100
AcDbLinetypeTableRecord
  2
BYBLOCK
 70
          64
  3

 72
          65
 73
           0
 40
0.0
  0
LTYPE
  5
12
100
AcDbSymbolTableRecord
100
AcDbLinetypeTableRecord
  2
BYLAYER
 70
          64
  3

 72
          65
 73
           0
 40
0.0
  0
LTYPE
  5
13
100
AcDbSymbolTableRecord
100
AcDbLinetypeTableRecord
  2
CONTINUOUS
 70
          64
  3
Solid line
 72
          65
 73
           0
 40
0.0
  0
LTYPE
  5
1D
100
AcDbSymbolTableRecord
100
AcDbLinetypeTableRecord
  2
DASHED
 70
          64
  3
Dashed
 72
          65
 73
           2
 40
15.0
 49
12.0
 74
           0
 49
-3.0
 74
           0
  0
LTYPE
  5
1E
100
AcDbSymbolTableRecord
100
AcDbLinetypeTableRecord
  2
DOTTED
 70
          64
  3
Dotted
 72
          65
 73
           2
 40
3.5
 49
0.5
 74
           0
 49
-3.0
 74
           0
  0
LTYPE
  5
1F
100
AcDbSymbolTableRecord
100
AcDbLinetypeTableRecord
  2
DOT_CENTER
 70
          64
  3
Dot_Center
 72
          65
 73
           4
 40
2.0
 49
1.25
 74
           0
 49
-0.25
 74
           0
 49
0.25
 74
           0
 49
-0.25
 74
           0
  0
LTYPE
  5
20
100
AcDbSymbolTableRecord
100
AcDbLinetypeTableRecord
  2
LONG_DASHED
 70
          64
  3
Long_Dashed
 72
          65
 73
           2
 40
2.0
 49
1.5
 74
           0
 49
-0.5
 74
           0
  0
LTYPE
  5
21
100
AcDbSymbolTableRecord
100
AcDbLinetypeTableRecord
  2
DASH_CENTER
 70
          64
  3
Dash_Center
 72
          65
 73
           4
 40
36.0
 49
24.0
 74
           0
 49
-3.0
 74
           0
 49
6.0
 74
           0
 49
-3.0
 74
           0
  0
LTYPE
  5
22
100
AcDbSymbolTableRecord
100
AcDbLinetypeTableRecord
  2
PHANTOM
 70
          64
  3
Phantom
 72
          65
 73
           6
 40
2.5
 49
1.25
 74
           0
 49
-0.25
 74
           0
 49
0.25
 74
           0
 49
-0.25
 74
           0
 49
0.25
 74
           0
 49
-0.25
 74
           0
  0
LTYPE
  5
23
100
AcDbSymbolTableRecord
100
AcDbLinetypeTableRecord
  2
CENTER_DASH_DASH
 70
          64
  3
Center_Dash_Dash
 72
          65
 73
           6
 40
22.0
 49
12.0
 74
           0
 49
-3.0
 74
           0
 49
0.5
 74
           0
 49
-3.0
 74
           0
 49
0.5
 74
           0
 49
-3.0
 74
           0
  0
ENDTAB
  0
TABLE
  2
LAYER
  5
2
100
AcDbSymbolTable
 70
           2
  0
LAYER
  5
14
100
AcDbSymbolTableRecord
100
AcDbLayerTableRecord
  2
0
 70
           0
 62
           7
  6
CONTINUOUS
  0
LAYER
  5
24
100
AcDbSymbolTableRecord
100
AcDbLayerTableRecord
  2
1
 70
           0
 62
           7
  6
CONTINUOUS
  0
ENDTAB
  0
TABLE
  2
STYLE
  5
3
100
AcDbSymbolTable
 70
           5
  0
STYLE
  5
17
100
AcDbSymbolTableRecord
100
AcDbTextStyleTableRecord
  2
STANDARD
 70
           0
 40
0.0
 41
1.0
 50
0.0
 71
           0
 42
0.0
  3
txt
  4

  0
STYLE
  5
160
100
AcDbSymbolTableRecord
100
AcDbTextStyleTableRecord
  2
CONVERTER_1
 70
           0
 40
0.0
 41
1.357142857143
 50
0.0
 71
           0
 42
0.0
  3
simplex.shx
  4

  0
STYLE
  5
202
100
AcDbSymbolTableRecord
100
AcDbTextStyleTableRecord
  2
CONVERTER_2
 70
           0
 40
0.0
 41
0.665
 50
0.0
 71
           0
 42
0.0
  3
simplex.shx
  4

  0
STYLE
  5
4BB
100
AcDbSymbolTableRecord
100
AcDbTextStyleTableRecord
  2
CONVERTER_3
 70
           0
 40
0.0
 41
0.95
 50
0.0
 71
           0
 42
0.0
  3
complex.shx
  4

  0
STYLE
  5
4BD
100
AcDbSymbolTableRecord
100
AcDbTextStyleTableRecord
  2
CONVERTER_4
 70
           0
 40
0.0
 41
0.608
 50
0.0
 71
           0
 42
0.0
  3
simplex.shx
  4

  0
ENDTAB
  0
TABLE
  2
VIEW
  5
5
100
AcDbSymbolTable
 70
           0
  0
ENDTAB
  0
TABLE
  2
UCS
  5
6
100
AcDbSymbolTable
 70
           0
  0
ENDTAB
  0
TABLE
  2
APPID
  5
8
100
AcDbSymbolTable
 70
           1
  0
APPID
  5
16
100
AcDbSymbolTableRecord
100
AcDbRegAppTableRecord
  2
ACAD
 70
           0
  0
ENDTAB
  0
TABLE
  2
DIMSTYLE
  5
9
100
AcDbSymbolTable
 70
          25
  0
DIMSTYLE
105
18
100
AcDbSymbolTableRecord
100
AcDbDimStyleTableRecord
  2
STANDARD
 70
           0
  3

  4

  5

  6

  7

 40
1.0
 41
0.18
 42
0.0625
 43
0.38
 44
0.18
 45
0.0
 46
0.0
 47
0.0
 48
0.0
 71
           0
 72
           0
 73
           1
 74
           1
 75
           0
 76
           0
 77
           0
 78
           0
140
0.18
141
0.09
142
0.0
143
25.4
144
1.0
145
0.0
146
1.0
147
0.09
170
           0
171
           2
172
           0
173
           0
174
           0
175
           0
176
           0
177
           0
178
           0
270
           2
271
           4
272
           4
273
           2
274
           2
275
           0
280
           0
281
           0
282
           0
283
           1
284
           0
285
           0
286
           0
287
           0
288
           0
340
17
  0
DIMSTYLE
105
163
100
AcDbSymbolTableRecord
100
AcDbDimStyleTableRecord
  2
ME10_DIM_0
 70
           0
  3

  4

  5

  6

  7

 40
1.0
 41
66.666666666667
 42
0.0
 43
0.38
 44
66.666666666667
 45
0.0
 46
0.0
 47
0.0
 48
0.0
 71
           0
 72
           0
 73
           0
 74
           0
 75
           0
 76
           0
 77
           1
 78
           8
140
66.666666666667
141
0.09
142
0.0
143
25.4
144
1.0
145
0.0
146
1.0
147
0.625
170
           0
171
           2
172
           0
173
           1
174
           0
175
           0
176
           2
177
           2
178
           1
270
           2
271
           2
272
           4
273
           2
274
           2
275
           0
280
           0
281
           0
282
           0
283
           1
284
           0
285
           0
286
           0
287
           3
288
           0
340
17
  0
DIMSTYLE
105
17D
100
AcDbSymbolTableRecord
100
AcDbDimStyleTableRecord
  2
ME10_DIM_1
 70
           0
  3

  4

  5

  6

  7

 40
1.0
 41
66.666666666667
 42
0.0
 43
0.38
 44
66.666666666667
 45
0.0
 46
0.0
 47
0.0
 48
0.0
 71
           0
 72
           0
 73
           0
 74
           0
 75
           0
 76
           0
 77
           1
 78
           8
140
66.666666666667
141
0.09
142
0.0
143
25.4
144
1.0
145
0.0
146
1.0
147
0.625
170
           0
171
           2
172
           0
173
           1
174
           0
175
           0
176
           2
177
           2
178
           1
270
           2
271
           2
272
           4
273
           2
274
           2
275
           0
280
           0
281
           0
282
           0
283
           1
284
           0
285
           0
286
           0
287
           3
288
           0
340
17
  0
DIMSTYLE
105
188
100
AcDbSymbolTableRecord
100
AcDbDimStyleTableRecord
  2
ME10_DIM_2
 70
           0
  3

  4

  5

  6

  7

 40
1.0
 41
66.666666666667
 42
0.0
 43
0.38
 44
66.666666666667
 45
0.0
 46
0.0
 47
0.0
 48
0.0
 71
           0
 72
           0
 73
           0
 74
           0
 75
           0
 76
           0
 77
           1
 78
           8
140
66.666666666667
141
0.09
142
0.0
143
25.4
144
1.0
145
0.0
146
1.0
147
0.625
170
           0
171
           2
172
           0
173
           1
174
           0
175
           0
176
           2
177
           2
178
           1
270
           2
271
           2
272
           4
273
           2
274
           2
275
           0
280
           0
281
           0
282
           0
283
           1
284
           0
285
           0
286
           0
287
           3
288
           0
340
17
  0
DIMSTYLE
105
195
100
AcDbSymbolTableRecord
100
AcDbDimStyleTableRecord
  2
ME10_DIM_3
 70
           0
  3

  4

  5

  6

  7

 40
1.0
 41
66.666666666667
 42
0.0
 43
0.38
 44
66.666666666667
 45
0.0
 46
0.0
 47
0.0
 48
0.0
 71
           0
 72
           0
 73
           0
 74
           0
 75
           0
 76
           0
 77
           1
 78
           8
140
66.666666666667
141
0.09
142
0.0
143
25.4
144
1.0
145
0.0
146
1.0
147
0.625
170
           0
171
           2
172
           0
173
           1
174
           0
175
           0
176
           2
177
           2
178
           1
270
           2
271
           2
272
           4
273
           2
274
           2
275
           0
280
           0
281
           0
282
           0
283
           1
284
           0
285
           0
286
           0
287
           3
288
           0
340
17
  0
DIMSTYLE
105
20F
100
AcDbSymbolTableRecord
100
AcDbDimStyleTableRecord
  2
ME10_DIM_4
 70
           0
  3

  4

  5

  6

  7

 40
1.0
 41
66.666666666667
 42
0.0
 43
0.38
 44
66.666666666667
 45
0.0
 46
0.0
 47
0.0
 48
0.0
 71
           0
 72
           0
 73
           0
 74
           0
 75
           0
 76
           0
 77
           1
 78
           8
140
66.666666666667
141
0.09
142
0.0
143
25.4
144
1.0
145
0.0
146
1.0
147
0.625
170
           0
171
           2
172
           0
173
           1
174
           0
175
           0
176
           2
177
           2
178
           1
270
           2
271
           2
272
           4
273
           2
274
           2
275
           0
280
           0
281
           0
282
           0
283
           1
284
           0
285
           0
286
           0
287
           3
288
           0
340
17
  0
DIMSTYLE
105
21A
100
AcDbSymbolTableRecord
100
AcDbDimStyleTableRecord
  2
ME10_DIM_5
 70
           0
  3

  4

  5

  6

  7

 40
1.0
 41
66.666666666667
 42
0.0
 43
0.38
 44
66.666666666667
 45
0.0
 46
0.0
 47
0.0
 48
0.0
 71
           0
 72
           0
 73
           0
 74
           0
 75
           0
 76
           0
 77
           1
 78
           8
140
66.666666666667
141
0.09
142
0.0
143
25.4
144
1.0
145
0.0
146
1.0
147
0.625
170
           0
171
           2
172
           0
173
           1
174
           0
175
           0
176
           2
177
           2
178
           1
270
           2
271
           2
272
           4
273
           2
274
           2
275
           0
280
           0
281
           0
282
           0
283
           1
284
           0
285
           0
286
           0
287
           3
288
           0
340
17
  0
DIMSTYLE
105
227
100
AcDbSymbolTableRecord
100
AcDbDimStyleTableRecord
  2
ME10_DIM_6
 70
           0
  3

  4

  5

  6

  7

 40
1.0
 41
66.666666666667
 42
0.0
 43
0.38
 44
66.666666666667
 45
0.0
 46
0.0
 47
0.0
 48
0.0
 71
           0
 72
           0
 73
           0
 74
           0
 75
           0
 76
           0
 77
           1
 78
           8
140
66.666666666667
141
0.09
142
0.0
143
25.4
144
1.0
145
0.0
146
1.0
147
0.625
170
           0
171
           2
172
           0
173
           1
174
           0
175
           0
176
           2
177
           2
178
           1
270
           2
271
           2
272
           4
273
           2
274
           2
275
           0
280
           0
281
           0
282
           0
283
           1
284
           0
285
           0
286
           0
287
           3
288
           0
340
17
  0
DIMSTYLE
105
232
100
AcDbSymbolTableRecord
100
AcDbDimStyleTableRecord
  2
ME10_DIM_7
 70
           0
  3

  4

  5

  6

  7

 40
1.0
 41
66.666666666667
 42
0.0
 43
0.38
 44
66.666666666667
 45
0.0
 46
0.0
 47
0.0
 48
0.0
 71
           0
 72
           0
 73
           0
 74
           0
 75
           0
 76
           0
 77
           1
 78
           8
140
66.666666666667
141
0.09
142
0.0
143
25.4
144
1.0
145
0.0
146
1.0
147
0.625
170
           0
171
           2
172
           0
173
           1
174
           0
175
           0
176
           2
177
           2
178
           1
270
           2
271
           2
272
           4
273
           2
274
           2
275
           0
280
           0
281
           0
282
           0
283
           1
284
           0
285
           0
286
           0
287
           3
288
           0
340
17
  0
DIMSTYLE
105
23D
100
AcDbSymbolTableRecord
100
AcDbDimStyleTableRecord
  2
ME10_DIM_8
 70
           0
  3

  4

  5

  6

  7

 40
1.0
 41
66.666666666667
 42
0.0
 43
0.38
 44
66.666666666667
 45
0.0
 46
0.0
 47
0.0
 48
0.0
 71
           0
 72
           0
 73
           0
 74
           0
 75
           0
 76
           0
 77
           1
 78
           8
140
66.666666666667
141
0.09
142
0.0
143
25.4
144
1.0
145
0.0
146
1.0
147
0.625
170
           0
171
           2
172
           0
173
           1
174
           0
175
           0
176
           2
177
           2
178
           1
270
           2
271
           2
272
           4
273
           2
274
           2
275
           0
280
           0
281
           0
282
           0
283
           1
284
           0
285
           0
286
           0
287
           3
288
           0
340
17
  0
DIMSTYLE
105
24A
100
AcDbSymbolTableRecord
100
AcDbDimStyleTableRecord
  2
ME10_DIM_9
 70
           0
  3

  4

  5

  6

  7

 40
1.0
 41
66.666666666667
 42
0.0
 43
0.38
 44
66.666666666667
 45
0.0
 46
0.0
 47
0.0
 48
0.0
 71
           0
 72
           0
 73
           0
 74
           0
 75
           0
 76
           0
 77
           1
 78
           8
140
66.666666666667
141
0.09
142
0.0
143
25.4
144
1.0
145
0.0
146
1.0
147
0.625
170
           0
171
           2
172
           0
173
           1
174
           0
175
           0
176
           2
177
           2
178
           1
270
           2
271
           2
272
           4
273
           2
274
           2
275
           0
280
           0
281
           0
282
           0
283
           1
284
           0
285
           0
286
           0
287
           3
288
           0
340
17
  0
DIMSTYLE
105
255
100
AcDbSymbolTableRecord
100
AcDbDimStyleTableRecord
  2
ME10_DIM_10
 70
           0
  3

  4

  5

  6

  7

 40
1.0
 41
66.666666666667
 42
0.0
 43
0.38
 44
66.666666666667
 45
0.0
 46
0.0
 47
0.0
 48
0.0
 71
           0
 72
           0
 73
           0
 74
           0
 75
           0
 76
           0
 77
           1
 78
           8
140
66.666666666667
141
0.09
142
0.0
143
25.4
144
1.0
145
0.0
146
1.0
147
0.625
170
           0
171
           2
172
           0
173
           1
174
           0
175
           0
176
           2
177
           2
178
           1
270
           2
271
           2
272
           4
273
           2
274
           2
275
           0
280
           0
281
           0
282
           0
283
           1
284
           0
285
           0
286
           0
287
           3
288
           0
340
17
  0
DIMSTYLE
105
260
100
AcDbSymbolTableRecord
100
AcDbDimStyleTableRecord
  2
ME10_DIM_11
 70
           0
  3

  4

  5

  6

  7

 40
1.0
 41
66.666666666667
 42
0.0
 43
0.38
 44
66.666666666667
 45
0.0
 46
0.0
 47
0.0
 48
0.0
 71
           0
 72
           0
 73
           0
 74
           0
 75
           0
 76
           0
 77
           1
 78
           8
140
66.666666666667
141
0.09
142
0.0
143
25.4
144
1.0
145
0.0
146
1.0
147
0.625
170
           0
171
           2
172
           0
173
           1
174
           0
175
           0
176
           2
177
           2
178
           1
270
           2
271
           2
272
           4
273
           2
274
           2
275
           0
280
           0
281
           0
282
           0
283
           1
284
           0
285
           0
286
           0
287
           3
288
           0
340
17
  0
DIMSTYLE
105
26B
100
AcDbSymbolTableRecord
100
AcDbDimStyleTableRecord
  2
ME10_DIM_12
 70
           0
  3

  4

  5

  6

  7

 40
1.0
 41
66.666666666667
 42
0.0
 43
0.38
 44
66.666666666667
 45
0.0
 46
0.0
 47
0.0
 48
0.0
 71
           0
 72
           0
 73
           0
 74
           0
 75
           0
 76
           0
 77
           1
 78
           8
140
66.666666666667
141
0.09
142
0.0
143
25.4
144
1.0
145
0.0
146
1.0
147
0.625
170
           0
171
           2
172
           0
173
           1
174
           0
175
           0
176
           2
177
           2
178
           1
270
           2
271
           2
272
           4
273
           2
274
           2
275
           0
280
           0
281
           0
282
           0
283
           1
284
           0
285
           0
286
           0
287
           3
288
           0
340
17
  0
DIMSTYLE
105
278
100
AcDbSymbolTableRecord
100
AcDbDimStyleTableRecord
  2
ME10_DIM_13
 70
           0
  3

  4

  5

  6

  7

 40
1.0
 41
66.666666666667
 42
0.0
 43
0.38
 44
66.666666666667
 45
0.0
 46
0.0
 47
0.0
 48
0.0
 71
           0
 72
           0
 73
           0
 74
           0
 75
           0
 76
           0
 77
           1
 78
           8
140
66.666666666667
141
0.09
142
0.0
143
25.4
144
1.0
145
0.0
146
1.0
147
0.625
170
           0
171
           2
172
           0
173
           1
174
           0
175
           0
176
           2
177
           2
178
           1
270
           2
271
           2
272
           4
273
           2
274
           2
275
           0
280
           0
281
           0
282
           0
283
           1
284
           0
285
           0
286
           0
287
           3
288
           0
340
17
  0
DIMSTYLE
105
32F
100
AcDbSymbolTableRecord
100
AcDbDimStyleTableRecord
  2
ME10_DIM_14
 70
           0
  3

  4

  5

  6

  7

 40
1.0
 41
66.666666666667
 42
0.0
 43
0.38
 44
66.666666666667
 45
0.0
 46
0.0
 47
0.0
 48
0.0
 71
           0
 72
           0
 73
           0
 74
           0
 75
           0
 76
           0
 77
           1
 78
           8
140
66.666666666667
141
0.09
142
0.0
143
25.4
144
1.0
145
0.0
146
1.0
147
0.625
170
           0
171
           2
172
           0
173
           1
174
           0
175
           0
176
           2
177
           2
178
           1
270
           2
271
           2
272
           4
273
           2
274
           2
275
           0
280
           0
281
           0
282
           0
283
           1
284
           0
285
           0
286
           0
287
           3
288
           0
340
17
  0
DIMSTYLE
105
33A
100
AcDbSymbolTableRecord
100
AcDbDimStyleTableRecord
  2
ME10_DIM_15
 70
           0
  3

  4

  5

  6

  7

 40
1.0
 41
66.666666666667
 42
0.0
 43
0.38
 44
66.666666666667
 45
0.0
 46
0.0
 47
0.0
 48
0.0
 71
           0
 72
           0
 73
           0
 74
           0
 75
           0
 76
           0
 77
           1
 78
           8
140
66.666666666667
141
0.09
142
0.0
143
25.4
144
1.0
145
0.0
146
1.0
147
0.625
170
           0
171
           2
172
           0
173
           1
174
           0
175
           0
176
           2
177
           2
178
           1
270
           2
271
           2
272
           4
273
           2
274
           2
275
           0
280
           0
281
           0
282
           0
283
           1
284
           0
285
           0
286
           0
287
           3
288
           0
340
17
  0
DIMSTYLE
105
347
100
AcDbSymbolTableRecord
100
AcDbDimStyleTableRecord
  2
ME10_DIM_16
 70
           0
  3

  4

  5

  6

  7

 40
1.0
 41
66.666666666667
 42
0.0
 43
0.38
 44
66.666666666667
 45
0.0
 46
0.0
 47
0.0
 48
0.0
 71
           0
 72
           0
 73
           0
 74
           0
 75
           0
 76
           0
 77
           1
 78
           8
140
66.666666666667
141
0.09
142
0.0
143
25.4
144
1.0
145
0.0
146
1.0
147
0.625
170
           0
171
           2
172
           0
173
           1
174
           0
175
           0
176
           2
177
           2
178
           1
270
           2
271
           2
272
           4
273
           2
274
           2
275
           0
280
           0
281
           0
282
           0
283
           1
284
           0
285
           0
286
           0
287
           3
288
           0
340
17
  0
DIMSTYLE
105
38D
100
AcDbSymbolTableRecord
100
AcDbDimStyleTableRecord
  2
ME10_DIM_17
 70
           0
  3

  4

  5

  6

  7

 40
1.0
 41
66.666666666667
 42
0.0
 43
0.38
 44
66.666666666667
 45
0.0
 46
0.0
 47
0.0
 48
0.0
 71
           0
 72
           0
 73
           0
 74
           0
 75
           0
 76
           0
 77
           1
 78
           8
140
66.666666666667
141
0.09
142
0.0
143
25.4
144
1.0
145
0.0
146
1.0
147
0.625
170
           0
171
           2
172
           0
173
           1
174
           0
175
           0
176
           2
177
           2
178
           1
270
           2
271
           2
272
           4
273
           2
274
           2
275
           0
280
           0
281
           0
282
           0
283
           1
284
           0
285
           0
286
           0
287
           3
288
           0
340
17
  0
DIMSTYLE
105
474
100
AcDbSymbolTableRecord
100
AcDbDimStyleTableRecord
  2
ME10_DIM_18
 70
           0
  3

  4

  5

  6

  7

 40
1.0
 41
66.666666666667
 42
0.0
 43
0.38
 44
66.666666666667
 45
0.0
 46
0.0
 47
0.0
 48
0.0
 71
           0
 72
           0
 73
           0
 74
           0
 75
           0
 76
           0
 77
           1
 78
           8
140
66.666666666667
141
0.09
142
0.0
143
25.4
144
1.0
145
0.0
146
1.0
147
0.625
170
           0
171
           2
172
           0
173
           1
174
           0
175
           0
176
           2
177
           2
178
           1
270
           2
271
           2
272
           4
273
           2
274
           2
275
           0
280
           0
281
           0
282
           0
283
           1
284
           0
285
           0
286
           0
287
           3
288
           0
340
17
  0
DIMSTYLE
105
47F
100
AcDbSymbolTableRecord
100
AcDbDimStyleTableRecord
  2
ME10_DIM_19
 70
           0
  3

  4

  5

  6

  7

 40
1.0
 41
66.666666666667
 42
0.0
 43
0.38
 44
66.666666666667
 45
0.0
 46
0.0
 47
0.0
 48
0.0
 71
           0
 72
           0
 73
           0
 74
           0
 75
           0
 76
           0
 77
           1
 78
           8
140
66.666666666667
141
0.09
142
0.0
143
25.4
144
1.0
145
0.0
146
1.0
147
0.625
170
           0
171
           2
172
           0
173
           1
174
           0
175
           0
176
           2
177
           2
178
           1
270
           2
271
           2
272
           4
273
           2
274
           2
275
           0
280
           0
281
           0
282
           0
283
           1
284
           0
285
           0
286
           0
287
           3
288
           0
340
17
  0
DIMSTYLE
105
48C
100
AcDbSymbolTableRecord
100
AcDbDimStyleTableRecord
  2
ME10_DIM_20
 70
           0
  3

  4

  5

  6

  7

 40
1.0
 41
66.666666666667
 42
0.0
 43
0.38
 44
66.666666666667
 45
0.0
 46
0.0
 47
0.0
 48
0.0
 71
           0
 72
           0
 73
           0
 74
           0
 75
           0
 76
           0
 77
           1
 78
           8
140
66.666666666667
141
0.09
142
0.0
143
25.4
144
1.0
145
0.0
146
1.0
147
0.625
170
           0
171
           2
172
           0
173
           1
174
           0
175
           0
176
           2
177
           2
178
           1
270
           2
271
           2
272
           4
273
           2
274
           2
275
           0
280
           0
281
           0
282
           0
283
           1
284
           0
285
           0
286
           0
287
           3
288
           0
340
17
  0
DIMSTYLE
105
4A2
100
AcDbSymbolTableRecord
100
AcDbDimStyleTableRecord
  2
ME10_DIM_21
 70
           0
  3

  4

  5

  6

  7

 40
1.0
 41
66.666666666667
 42
0.0
 43
0.38
 44
66.666666666667
 45
0.0
 46
0.0
 47
0.0
 48
0.0
 71
           0
 72
           0
 73
           0
 74
           0
 75
           0
 76
           0
 77
           1
 78
           8
140
66.666666666667
141
0.09
142
0.0
143
25.4
144
1.0
145
0.0
146
1.0
147
0.625
170
           0
171
           2
172
           0
173
           1
174
           0
175
           0
176
           2
177
           2
178
           1
270
           2
271
           2
272
           4
273
           2
274
           2
275
           0
280
           0
281
           0
282
           0
283
           1
284
           0
285
           0
286
           0
287
           3
288
           0
340
17
  0
DIMSTYLE
105
4AD
100
AcDbSymbolTableRecord
100
AcDbDimStyleTableRecord
  2
ME10_DIM_22
 70
           0
  3

  4

  5

  6

  7

 40
1.0
 41
83.333333333333
 42
0.0
 43
0.38
 44
66.666666666667
 45
0.0
 46
0.0
 47
0.0
 48
0.0
 71
           0
 72
           0
 73
           0
 74
           0
 75
           0
 76
           0
 77
           1
 78
           8
140
83.333333333333
141
0.09
142
0.0
143
25.4
144
1.0
145
0.0
146
1.0
147
0.625
170
           0
171
           2
172
           0
173
           1
174
           0
175
           0
176
           2
177
           2
178
           1
270
           2
271
           2
272
           4
273
           2
274
           2
275
           0
280
           0
281
           0
282
           0
283
           1
284
           0
285
           0
286
           0
287
           3
288
           0
340
17
  0
DIMSTYLE
105
5D6
100
AcDbSymbolTableRecord
100
AcDbDimStyleTableRecord
  2
ME10_DIM_23
 70
           0
  3

  4

  5

  6

  7

 40
1.0
 41
66.666666666667
 42
0.0
 43
0.38
 44
66.666666666667
 45
0.0
 46
0.0
 47
0.0
 48
0.0
 71
           0
 72
           0
 73
           0
 74
           0
 75
           0
 76
           0
 77
           1
 78
           8
140
66.666666666667
141
0.09
142
0.0
143
25.4
144
1.0
145
0.0
146
1.0
147
0.625
170
           0
171
           2
172
           0
173
           1
174
           0
175
           0
176
           2
177
           2
178
           1
270
           2
271
           2
272
           4
273
           2
274
           2
275
           0
280
           0
281
           0
282
           0
283
           1
284
           0
285
           0
286
           0
287
           3
288
           0
340
17
  0
ENDTAB
  0
TABLE
  2
BLOCK_RECORD
  5
1
100
AcDbSymbolTable
 70
          58
  0
BLOCK_RECORD
  5
A
100
AcDbSymbolTableRecord
100
AcDbBlockTableRecord
  2
*MODEL_SPACE
  0
BLOCK_RECORD
  5
B
100
AcDbSymbolTableRecord
100
AcDbBlockTableRecord
  2
*PAPER_SPACE
  0
BLOCK_RECORD
  5
25
100
AcDbSymbolTableRecord
100
AcDbBlockTableRecord
  2
BREMSL_FTHEBEL_VA
  0
BLOCK_RECORD
  5
27
100
AcDbSymbolTableRecord
100
AcDbBlockTableRecord
  2
_SEITENTEIL_UNTEN_VA__1
  0
BLOCK_RECORD
  5
2A
100
AcDbSymbolTableRecord
100
AcDbBlockTableRecord
  2
_VORDERANSICHT
  0
BLOCK_RECORD
  5
2D
100
AcDbSymbolTableRecord
100
AcDbBlockTableRecord
  2
8300079
  0
BLOCK_RECORD
  5
30
100
AcDbSymbolTableRecord
100
AcDbBlockTableRecord
  2
GETRIEBEMOTOR_SA
  0
BLOCK_RECORD
  5
32
100
AcDbSymbolTableRecord
100
AcDbBlockTableRecord
  2
WELLENVERKLEIDUNG
  0
BLOCK_RECORD
  5
34
100
AcDbSymbolTableRecord
100
AcDbBlockTableRecord
  2
SEITENTEILPROFIL_UNTEN_VA
  0
BLOCK_RECORD
  5
37
100
AcDbSymbolTableRecord
100
AcDbBlockTableRecord
  2
_SEITENTEIL_UNTEN_VA__2
  0
BLOCK_RECORD
  5
3A
100
AcDbSymbolTableRecord
100
AcDbBlockTableRecord
  2
GETRIEBEMOTOR_VA
  0
BLOCK_RECORD
  5
3C
100
AcDbSymbolTableRecord
100
AcDbBlockTableRecord
  2
ANTRIEB_SA
  0
BLOCK_RECORD
  5
41
100
AcDbSymbolTableRecord
100
AcDbBlockTableRecord
  2
_SCHALTKASTEN_VA
  0
BLOCK_RECORD
  5
43
100
AcDbSymbolTableRecord
100
AcDbBlockTableRecord
  2
MAUER_SA
  0
BLOCK_RECORD
  5
45
100
AcDbSymbolTableRecord
100
AcDbBlockTableRecord
  2
STURZABDICHTUNG_SA
  0
BLOCK_RECORD
  5
48
100
AcDbSymbolTableRecord
100
AcDbBlockTableRecord
  2
VERBINDUNGSPROFIL_DS
  0
BLOCK_RECORD
  5
4A
100
AcDbSymbolTableRecord
100
AcDbBlockTableRecord
  2
WINKEL__DREHMOMENTST_TZE14
  0
BLOCK_RECORD
  5
4C
100
AcDbSymbolTableRecord
100
AcDbBlockTableRecord
  2
_DREHMOMENTENST_TZE_DS
  0
BLOCK_RECORD
  5
4F
100
AcDbSymbolTableRecord
100
AcDbBlockTableRecord
  2
_MOTORPLATTE_MIT_DREHMOM16
  0
BLOCK_RECORD
  5
52
100
AcDbSymbolTableRecord
100
AcDbBlockTableRecord
  2
E_MOTOR_DS
  0
BLOCK_RECORD
  5
54
100
AcDbSymbolTableRecord
100
AcDbBlockTableRecord
  2
GETRIEBE_DS
  0
BLOCK_RECORD
  5
56
100
AcDbSymbolTableRecord
100
AcDbBlockTableRecord
  2
_MOTOR_DS
  0
BLOCK_RECORD
  5
5A
100
AcDbSymbolTableRecord
100
AcDbBlockTableRecord
  2
_ANTRIEB_DS
  0
BLOCK_RECORD
  5
5E
100
AcDbSymbolTableRecord
100
AcDbBlockTableRecord
  2
SEITENPROFIL_DS
  0
BLOCK_RECORD
  5
60
100
AcDbSymbolTableRecord
100
AcDbBlockTableRecord
  2
_SEITENTEILE_DS
  0
BLOCK_RECORD
  5
63
100
AcDbSymbolTableRecord
100
AcDbBlockTableRecord
  2
MAUER
  0
BLOCK_RECORD
  5
65
100
AcDbSymbolTableRecord
100
AcDbBlockTableRecord
  2
DRAUFSICHT_PRINZIPZG
  0
BLOCK_RECORD
  5
6B
100
AcDbSymbolTableRecord
100
AcDbBlockTableRecord
  2
_RAHMEN
  0
BLOCK_RECORD
  5
6D
100
AcDbSymbolTableRecord
100
AcDbBlockTableRecord
  2
_ZEICHNUNGSNUMMER
  0
BLOCK_RECORD
  5
6F
100
AcDbSymbolTableRecord
100
AcDbBlockTableRecord
  2
__BERSCHRIFT
  0
BLOCK_RECORD
  5
71
100
AcDbSymbolTableRecord
100
AcDbBlockTableRecord
  2
VORLAGE__3
  0
BLOCK_RECORD
  5
76
100
AcDbSymbolTableRecord
100
AcDbBlockTableRecord
  2
_LOGO
  0
BLOCK_RECORD
  5
78
100
AcDbSymbolTableRecord
100
AcDbBlockTableRecord
  2
VORLAGE__4
  0
BLOCK_RECORD
  5
7B
100
AcDbSymbolTableRecord
100
AcDbBlockTableRecord
  2
8300R0001
  0
BLOCK_RECORD
  5
7E
100
AcDbSymbolTableRecord
100
AcDbBlockTableRecord
  2
MOTORHAUBE
  0
BLOCK_RECORD
  5
80
100
AcDbSymbolTableRecord
100
AcDbBlockTableRecord
  2
_1
  0
BLOCK_RECORD
  5
157
100
AcDbSymbolTableRecord
100
AcDbBlockTableRecord
  2
*D34
  0
BLOCK_RECORD
  5
174
100
AcDbSymbolTableRecord
100
AcDbBlockTableRecord
  2
*D35
  0
BLOCK_RECORD
  5
17F
100
AcDbSymbolTableRecord
100
AcDbBlockTableRecord
  2
*D36
  0
BLOCK_RECORD
  5
18A
100
AcDbSymbolTableRecord
100
AcDbBlockTableRecord
  2
*D37
  0
BLOCK_RECORD
  5
206
100
AcDbSymbolTableRecord
100
AcDbBlockTableRecord
  2
*D38
  0
BLOCK_RECORD
  5
211
100
AcDbSymbolTableRecord
100
AcDbBlockTableRecord
  2
*D39
  0
BLOCK_RECORD
  5
21C
100
AcDbSymbolTableRecord
100
AcDbBlockTableRecord
  2
*D40
  0
BLOCK_RECORD
  5
229
100
AcDbSymbolTableRecord
100
AcDbBlockTableRecord
  2
*D41
  0
BLOCK_RECORD
  5
234
100
AcDbSymbolTableRecord
100
AcDbBlockTableRecord
  2
*D42
  0
BLOCK_RECORD
  5
23F
100
AcDbSymbolTableRecord
100
AcDbBlockTableRecord
  2
*D43
  0
BLOCK_RECORD
  5
24C
100
AcDbSymbolTableRecord
100
AcDbBlockTableRecord
  2
*D44
  0
BLOCK_RECORD
  5
257
100
AcDbSymbolTableRecord
100
AcDbBlockTableRecord
  2
*D45
  0
BLOCK_RECORD
  5
262
100
AcDbSymbolTableRecord
100
AcDbBlockTableRecord
  2
*D46
  0
BLOCK_RECORD
  5
26D
100
AcDbSymbolTableRecord
100
AcDbBlockTableRecord
  2
*D47
  0
BLOCK_RECORD
  5
326
100
AcDbSymbolTableRecord
100
AcDbBlockTableRecord
  2
*D48
  0
BLOCK_RECORD
  5
331
100
AcDbSymbolTableRecord
100
AcDbBlockTableRecord
  2
*D49
  0
BLOCK_RECORD
  5
33C
100
AcDbSymbolTableRecord
100
AcDbBlockTableRecord
  2
*D50
  0
BLOCK_RECORD
  5
384
100
AcDbSymbolTableRecord
100
AcDbBlockTableRecord
  2
*D51
  0
BLOCK_RECORD
  5
46B
100
AcDbSymbolTableRecord
100
AcDbBlockTableRecord
  2
*D52
  0
BLOCK_RECORD
  5
476
100
AcDbSymbolTableRecord
100
AcDbBlockTableRecord
  2
*D53
  0
BLOCK_RECORD
  5
481
100
AcDbSymbolTableRecord
100
AcDbBlockTableRecord
  2
*D54
  0
BLOCK_RECORD
  5
499
100
AcDbSymbolTableRecord
100
AcDbBlockTableRecord
  2
*D55
  0
BLOCK_RECORD
  5
4A4
100
AcDbSymbolTableRecord
100
AcDbBlockTableRecord
  2
*D56
  0
BLOCK_RECORD
  5
5CD
100
AcDbSymbolTableRecord
100
AcDbBlockTableRecord
  2
*D57
  0
ENDTAB
  0
ENDSEC
  0
SECTION
  2
BLOCKS
  0
BLOCK
  5
D
100
AcDbEntity
  8
0
100
AcDbBlockBegin
  2
*MODEL_SPACE
 70
           0
 10
0.0
 20
0.0
 30
0.0
  3
*MODEL_SPACE
  1

  0
ENDBLK
  5
E
100
AcDbEntity
  8
0
100
AcDbBlockEnd
  0
BLOCK
  5
F
100
AcDbEntity
 67
           1
  8
0
100
AcDbBlockBegin
  2
*PAPER_SPACE
 70
           0
 10
0.0
 20
0.0
 30
0.0
  3
*PAPER_SPACE
  1

  0
ENDBLK
  5
10
100
AcDbEntity
 67
           1
  8
0
100
AcDbBlockEnd
  0
BLOCK
  5
26
100
AcDbEntity
  8
0
100
AcDbBlockBegin
  2
BREMSL_FTHEBEL_VA
 70
           0
 10
13345.722576757589
 20
1362.411518891204
 30
0.0
  3
BREMSL_FTHEBEL_VA
  1

  0
LWPOLYLINE
  5
CD
100
AcDbEntity
  8
1
  6
CONTINUOUS
 62
           7
 60
           1
100
AcDbPolyline
 90
        3
 70
           0
 10
26751.8990010538
 20
3336.549572987216
 10
26751.8990010538
 20
3335.14963415994
 10
26751.8990010538
 20
3333.549572987216
  0
LWPOLYLINE
  5
CC
100
AcDbEntity
  8
1
  6
CONTINUOUS
 62
           7
 60
           1
100
AcDbPolyline
 90
        2
 70
           0
 10
26735.8990010538
 20
3333.549572987216
 10
26735.8990010538
 20
3336.549572987216
  0
LWPOLYLINE
  5
CB
100
AcDbEntity
  8
0
  6
DOT_CENTER
 62
           3
 60
           1
100
AcDbPolyline
 90
       34
 70
           0
 10
22220.279544926219
 20
3528.158909643316
 10
22220.279522246139
 20
3472.158908375223
 10
22223.279522246132
 20
3472.158908375222
 10
22223.279522246139
 20
3473.158908375224
 10
22224.279522246139
 20
3473.158908375224
 10
22224.279522246132
 20
3475.658908375224
 10
22226.779522246139
 20
3478.158908375222
 10
22240.279522246139
 20
3478.158908375222
 10
22240.279522246139
 20
3473.158908375224
 10
22240.279522246139
 20
3449.158908375223
 10
22270.279522246139
 20
3449.158908375222
 10
22270.279522246139
 20
3432.158908375222
 10
22240.279522246139
 20
3432.158908375222
 10
22240.279522246139
 20
3388.825908375223
 10
22240.279522246132
 20
3367.158908375222
 10
22240.279522246132
 20
3361.158908375223
 10
22240.279522246132
 20
3342.158908375222
 10
22240.279522246132
 20
3338.158908375223
 10
22240.279522246132
 20
3331.515908375222
 10
22240.279522246132
 20
3323.158908375223
 10
22240.279522246132
 20
3321.158908375222
 10
22240.279522246132
 20
3315.158908375223
 10
22240.279522246132
 20
3313.158908375222
 10
22235.279522246132
 20
3313.158908375222
 10
22231.279522246132
 20
3323.158908375223
 10
22226.279522246132
 20
3323.158908375223
 10
22223.279522246132
 20
3326.158908375223
 10
22223.279522246132
 20
3342.158908375223
 10
22220.279522246132
 20
3345.158908375223
 10
22220.279522246132
 20
3326.158908375222
 10
22217.279522246132
 20
3323.158908375223
 10
22202.279522246132
 20
3323.158908375223
 10
22199.279522246132
 20
3326.158908375224
 10
22199.27954010219
 20
3561.158941596027
  0
LWPOLYLINE
  5
CA
100
AcDbEntity
  8
0
  6
DOT_CENTER
 62
           3
 60
           1
100
AcDbPolyline
 90
        5
 70
           1
 10
22220.279522246132
 20
3356.158908375223
 10
22223.279522246132
 20
3356.158908375223
 10
22223.279522246132
 20
3416.158908375223
 10
22220.279522246139
 20
3416.158908375224
 10
22220.279522246132
 20
3356.158908375223
  0
CIRCLE
  5
C9
100
AcDbEntity
  8
0
  6
CONTINUOUS
 62
           7
100
AcDbCircle
 10
26743.8990010538
 20
3329.549572987216
 40
3.0
  0
ARC
  5
C8
100
AcDbEntity
  8
0
  6
CONTINUOUS
 62
           7
100
AcDbCircle
 10
22180.341922246142
 20
3525.925908375224
 40
39.999999999995
100
AcDbArc
 50
3.200202381129
 51
61.742143867562
  0
LINE
  5
C7
100
AcDbEntity
  8
0
  6
DOT_CENTER
 62
           3
100
AcDbLine
 10
26749.8990010538
 20
3329.549572987216
 11
26737.8990010538
 21
3329.549572987216
  0
LINE
  5
C6
100
AcDbEntity
  8
0
  6
DOT_CENTER
 62
           3
100
AcDbLine
 10
26743.8990010538
 20
3323.549572987216
 11
26743.8990010538
 21
3335.549572987216
  0
LINE
  5
C5
100
AcDbEntity
  8
0
  6
DOT_CENTER
 62
           3
100
AcDbLine
 10
26749.8990010538
 20
3468.506034217
 11
26737.8990010538
 21
3468.506034217
  0
LINE
  5
C4
100
AcDbEntity
  8
0
  6
DOT_CENTER
 62
           3
100
AcDbLine
 10
26743.8990010538
 20
3462.506034217
 11
26743.8990010538
 21
3474.506034217
  0
LINE
  5
C3
100
AcDbEntity
  8
0
  6
CONTINUOUS
 62
           7
100
AcDbLine
 10
26749.8990010538
 20
3333.549572987216
 11
26737.8990010538
 21
3333.549572987216
  0
LINE
  5
C2
100
AcDbEntity
  8
0
  6
CONTINUOUS
 62
           7
100
AcDbLine
 10
26737.8990010538
 20
3333.549572987216
 11
26735.8990010538
 21
3333.549572987216
  0
LINE
  5
C1
100
AcDbEntity
  8
0
  6
CONTINUOUS
 62
           7
100
AcDbLine
 10
26749.8990010538
 20
3323.549572987216
 11
26749.8990010538
 21
3333.549572987216
  0
LINE
  5
C0
100
AcDbEntity
  8
0
  6
CONTINUOUS
 62
           7
100
AcDbLine
 10
26737.8990010538
 20
3323.549572987216
 11
26749.8990010538
 21
3323.549572987216
  0
LINE
  5
BF
100
AcDbEntity
  8
0
  6
CONTINUOUS
 62
           7
100
AcDbLine
 10
26737.8990010538
 20
3333.549572987216
 11
26737.8990010538
 21
3323.549572987216
  0
LINE
  5
BE
100
AcDbEntity
  8
0
  6
CONTINUOUS
 62
           7
100
AcDbLine
 10
26751.8990010538
 20
3336.549572987216
 11
26735.8990010538
 21
3336.549572987216
  0
LINE
  5
BD
100
AcDbEntity
  8
0
  6
CONTINUOUS
 62
           7
100
AcDbLine
 10
26751.8990010538
 20
3333.549572987216
 11
26749.8990010538
 21
3333.549572987216
  0
LINE
  5
BC
100
AcDbEntity
  8
0
  6
CONTINUOUS
 62
           7
100
AcDbLine
 10
26751.8990010538
 20
3570.506034217
 11
26751.8990010538
 21
3333.549572987216
  0
LINE
  5
BB
100
AcDbEntity
  8
0
  6
CONTINUOUS
 62
           7
100
AcDbLine
 10
26735.8990010538
 20
3570.506034217
 11
26751.8990010538
 21
3570.506034217
  0
LINE
  5
BA
100
AcDbEntity
  8
0
  6
CONTINUOUS
 62
           7
100
AcDbLine
 10
26735.8990010538
 20
3333.549572987216
 11
26735.8990010538
 21
3570.506034217
  0
LINE
  5
B9
100
AcDbEntity
  8
0
  6
CONTINUOUS
 62
           7
100
AcDbLine
 10
22199.279522246132
 20
3326.158908375224
 11
22199.27954010219
 21
3561.158941596027
  0
LINE
  5
B8
100
AcDbEntity
  8
0
  6
CONTINUOUS
 62
           7
100
AcDbLine
 10
22220.279522246132
 20
3345.158908375223
 11
22220.279522246132
 21
3356.158908375223
  0
LINE
  5
B7
100
AcDbEntity
  8
0
  6
CONTINUOUS
 62
           7
100
AcDbLine
 10
22217.279522246132
 20
3323.158908375223
 11
22202.279522246132
 21
3323.158908375223
  0
LINE
  5
B6
100
AcDbEntity
  8
0
  6
CONTINUOUS
 62
           7
100
AcDbLine
 10
22220.279522246132
 20
3326.158908375222
 11
22217.279522246132
 21
3323.158908375223
  0
LINE
  5
B5
100
AcDbEntity
  8
0
  6
CONTINUOUS
 62
           7
100
AcDbLine
 10
22199.279522246132
 20
3326.158908375224
 11
22202.279522246132
 21
3323.158908375223
  0
LINE
  5
B4
100
AcDbEntity
  8
0
  6
CONTINUOUS
 62
           7
100
AcDbLine
 10
22199.279522246132
 20
3326.158908375224
 11
22220.279522246132
 21
3326.158908375222
  0
LINE
  5
B3
100
AcDbEntity
  8
0
  6
CONTINUOUS
 62
           7
100
AcDbLine
 10
22223.279522246132
 20
3326.158908375223
 11
22223.279522246132
 21
3342.158908375223
  0
LINE
  5
B2
100
AcDbEntity
  8
0
  6
CONTINUOUS
 62
           7
100
AcDbLine
 10
22223.279522246139
 20
3473.158908375224
 11
22224.279522246139
 21
3473.158908375224
  0
LINE
  5
B1
100
AcDbEntity
  8
0
  6
CONTINUOUS
 62
           7
100
AcDbLine
 10
22240.279522246132
 20
3323.158908375223
 11
22240.279522246132
 21
3331.515908375222
  0
LINE
  5
B0
100
AcDbEntity
  8
0
  6
CONTINUOUS
 62
           7
100
AcDbLine
 10
22240.279522246132
 20
3323.158908375223
 11
22231.279522246132
 21
3323.158908375223
  0
LINE
  5
AF
100
AcDbEntity
  8
0
  6
CONTINUOUS
 62
           7
100
AcDbLine
 10
22223.279522246132
 20
3326.158908375223
 11
22226.279522246132
 21
3323.158908375223
  0
LINE
  5
AE
100
AcDbEntity
  8
0
  6
CONTINUOUS
 62
           7
100
AcDbLine
 10
22223.279522246132
 20
3326.158908375223
 11
22240.279522246132
 21
3326.158908375223
  0
LINE
  5
AD
100
AcDbEntity
  8
0
  6
CONTINUOUS
 62
           7
100
AcDbLine
 10
22240.279522246132
 20
3323.158908375223
 11
22240.279522246132
 21
3321.158908375222
  0
LINE
  5
AC
100
AcDbEntity
  8
0
  6
CONTINUOUS
 62
           7
100
AcDbLine
 10
22240.279522246132
 20
3313.158908375222
 11
22235.279522246132
 21
3313.158908375222
  0
LINE
  5
AB
100
AcDbEntity
  8
0
  6
CONTINUOUS
 62
           7
100
AcDbLine
 10
22231.279522246132
 20
3323.158908375223
 11
22235.279522246132
 21
3313.158908375222
  0
LINE
  5
AA
100
AcDbEntity
  8
0
  6
CONTINUOUS
 62
           7
100
AcDbLine
 10
22231.279522246132
 20
3323.158908375223
 11
22226.279522246132
 21
3323.158908375223
  0
LINE
  5
A9
100
AcDbEntity
  8
0
  6
CONTINUOUS
 62
           7
100
AcDbLine
 10
22223.279522246132
 20
3356.158908375223
 11
22220.279522246132
 21
3356.158908375223
  0
LINE
  5
A8
100
AcDbEntity
  8
0
  6
CONTINUOUS
 62
           7
100
AcDbLine
 10
22220.279522246132
 20
3345.158908375223
 11
22223.279522246132
 21
3342.158908375223
  0
LINE
  5
A7
100
AcDbEntity
  8
0
  6
CONTINUOUS
 62
           7
100
AcDbLine
 10
22220.279522246132
 20
3345.158908375223
 11
22220.279522246132
 21
3326.158908375222
  0
LINE
  5
A6
100
AcDbEntity
  8
0
  6
CONTINUOUS
 62
           7
100
AcDbLine
 10
22223.279522246132
 20
3342.158908375223
 11
22223.279522246132
 21
3356.158908375223
  0
LINE
  5
A5
100
AcDbEntity
  8
0
  6
CONTINUOUS
 62
           7
100
AcDbLine
 10
22220.279522246132
 20
3356.158908375223
 11
22220.279522246139
 21
3416.158908375224
  0
LINE
  5
A4
100
AcDbEntity
  8
0
  6
CONTINUOUS
 62
           7
100
AcDbLine
 10
22223.279522246132
 20
3356.158908375223
 11
22223.279522246132
 21
3416.158908375223
  0
LINE
  5
A3
100
AcDbEntity
  8
0
  6
CONTINUOUS
 62
           7
100
AcDbLine
 10
22220.279522246139
 20
3416.158908375224
 11
22223.279522246132
 21
3416.158908375223
  0
LINE
  5
A2
100
AcDbEntity
  8
0
  6
CONTINUOUS
 62
           7
100
AcDbLine
 10
22220.279522246139
 20
3472.158908375223
 11
22223.279522246132
 21
3472.158908375222
  0
LINE
  5
A1
100
AcDbEntity
  8
0
  6
CONTINUOUS
 62
           7
100
AcDbLine
 10
22223.279522246132
 20
3416.158908375223
 11
22223.279522246132
 21
3472.158908375222
  0
LINE
  5
A0
100
AcDbEntity
  8
0
  6
CONTINUOUS
 62
           7
100
AcDbLine
 10
22220.279522246139
 20
3472.158908375223
 11
22220.279544926219
 21
3528.158909643316
  0
LINE
  5
9F
100
AcDbEntity
  8
0
  6
CONTINUOUS
 62
           7
100
AcDbLine
 10
22220.279522246139
 20
3416.158908375224
 11
22220.279522246139
 21
3472.158908375223
  0
LINE
  5
9E
100
AcDbEntity
  8
0
  6
CONTINUOUS
 62
           7
100
AcDbLine
 10
22223.279522246132
 20
3472.158908375222
 11
22223.279522246139
 21
3473.158908375224
  0
LINE
  5
9D
100
AcDbEntity
  8
0
  6
CONTINUOUS
 62
           7
100
AcDbLine
 10
22240.279522246132
 20
3361.158908375223
 11
22240.279522246132
 21
3367.158908375222
  0
LINE
  5
9C
100
AcDbEntity
  8
0
  6
CONTINUOUS
 62
           7
100
AcDbLine
 10
22240.279522246132
 20
3367.158908375222
 11
22240.279522246139
 21
3388.825908375223
  0
LINE
  5
9B
100
AcDbEntity
  8
0
  6
CONTINUOUS
 62
           7
100
AcDbLine
 10
22240.279522246132
 20
3321.158908375222
 11
22240.279522246132
 21
3315.158908375223
  0
LINE
  5
9A
100
AcDbEntity
  8
0
  6
CONTINUOUS
 62
           7
100
AcDbLine
 10
22240.279522246132
 20
3315.158908375223
 11
22240.279522246132
 21
3313.158908375222
  0
LINE
  5
99
100
AcDbEntity
  8
0
  6
CONTINUOUS
 62
           7
100
AcDbLine
 10
22240.279522246132
 20
3331.515908375222
 11
22240.279522246132
 21
3338.158908375223
  0
LINE
  5
98
100
AcDbEntity
  8
0
  6
CONTINUOUS
 62
           7
100
AcDbLine
 10
22240.279522246139
 20
3388.825908375223
 11
22240.279522246139
 21
3432.158908375222
  0
LINE
  5
97
100
AcDbEntity
  8
0
  6
CONTINUOUS
 62
           7
100
AcDbLine
 10
22240.279522246132
 20
3338.158908375223
 11
22240.279522246132
 21
3342.158908375222
  0
LINE
  5
96
100
AcDbEntity
  8
0
  6
CONTINUOUS
 62
           7
100
AcDbLine
 10
22240.279522246132
 20
3342.158908375222
 11
22240.279522246132
 21
3361.158908375223
  0
LINE
  5
95
100
AcDbEntity
  8
0
  6
DOT_CENTER
 62
           3
100
AcDbLine
 10
22254.334318829671
 20
3459.158908375223
 11
22233.279522246139
 21
3459.158908375223
  0
LINE
  5
94
100
AcDbEntity
  8
0
  6
DOT_CENTER
 62
           3
100
AcDbLine
 10
22254.33431882966
 20
3319.158908375222
 11
22230.279522246132
 21
3319.158908375222
  0
LINE
  5
93
100
AcDbEntity
  8
0
  6
CONTINUOUS
 62
           7
100
AcDbLine
 10
22240.279522246139
 20
3473.158908375224
 11
22240.279522246139
 21
3478.158908375222
  0
LINE
  5
92
100
AcDbEntity
  8
0
  6
CONTINUOUS
 62
           7
100
AcDbLine
 10
22240.279522246139
 20
3478.158908375222
 11
22226.779522246139
 21
3478.158908375222
  0
LINE
  5
91
100
AcDbEntity
  8
0
  6
CONTINUOUS
 62
           7
100
AcDbLine
 10
22224.279522246132
 20
3475.658908375224
 11
22224.279522246139
 21
3473.158908375224
  0
LINE
  5
90
100
AcDbEntity
  8
0
  6
CONTINUOUS
 62
           7
100
AcDbLine
 10
22224.279522246139
 20
3473.158908375224
 11
22240.279522246139
 21
3473.158908375224
  0
LINE
  5
8F
100
AcDbEntity
  8
0
  6
CONTINUOUS
 62
           7
100
AcDbLine
 10
22224.279522246132
 20
3475.658908375224
 11
22226.779522246139
 21
3478.158908375222
  0
LINE
  5
8E
100
AcDbEntity
  8
0
  6
CONTINUOUS
 62
           7
100
AcDbLine
 10
22240.279522246139
 20
3432.158908375222
 11
22240.279522246139
 21
3449.158908375223
  0
LINE
  5
8D
100
AcDbEntity
  8
0
  6
CONTINUOUS
 62
           7
100
AcDbLine
 10
22240.279522246139
 20
3449.158908375223
 11
22240.279522246139
 21
3473.158908375224
  0
ENDBLK
  5
CE
100
AcDbEntity
  8
0
100
AcDbBlockEnd
  0
BLOCK
  5
28
100
AcDbEntity
  8
0
100
AcDbBlockBegin
  2
_SEITENTEIL_UNTEN_VA__1
 70
           0
 10
7394.959656233684
 20
1464.666452050727
 30
0.0
  3
_SEITENTEIL_UNTEN_VA__1
  1

  0
INSERT
  5
29
100
AcDbEntity
  8
0
100
AcDbBlockReference
  2
BREMSL_FTHEBEL_VA
 10
13345.722576757589
 20
1362.411518891204
  0
ENDBLK
  5
CF
100
AcDbEntity
  8
0
100
AcDbBlockEnd
  0
BLOCK
  5
2B
100
AcDbEntity
  8
0
100
AcDbBlockBegin
  2
_VORDERANSICHT
 70
           0
 10
7379.960127726913
 20
1403.666452050726
 30
0.0
  3
_VORDERANSICHT
  1

  0
INSERT
  5
2C
100
AcDbEntity
  8
0
100
AcDbBlockReference
  2
_SEITENTEIL_UNTEN_VA__1
 10
7394.959656233684
 20
1464.666452050727
  0
ENDBLK
  5
D0
100
AcDbEntity
  8
0
100
AcDbBlockEnd
  0
BLOCK
  5
2E
100
AcDbEntity
  8
0
100
AcDbBlockBegin
  2
8300079
 70
           0
 10
7734.907763164041
 20
1966.26675977652
 30
0.0
  3
8300079
  1

  0
INSERT
  5
2F
100
AcDbEntity
  8
0
100
AcDbBlockReference
  2
_VORDERANSICHT
 10
7379.960127726913
 20
1403.666452050726
  0
ENDBLK
  5
D1
100
AcDbEntity
  8
0
100
AcDbBlockEnd
  0
BLOCK
  5
31
100
AcDbEntity
  8
0
100
AcDbBlockBegin
  2
GETRIEBEMOTOR_SA
 70
           0
 10
10921.532771618489
 20
4222.39725031252
 30
0.0
  3
GETRIEBEMOTOR_SA
  1

  0
DIMENSION
  5
164
100
AcDbEntity
  8
0
100
AcDbDimension
  2
*D34
 10
23305.458375205839
 20
5447.549572987221
 11
23205.458375205839
 21
5311.142206132829
 31
0.0
 53
90.0
  1
<>
  3
ME10_DIM_0
100
AcDbAlignedDimension
 13
23070.413073275591
 23
5554.549572987218
 14
22830.279540711559
 24
5447.54957298722
 50
90.0
100
AcDbRotatedDimension
  0
CIRCLE
  5
156
100
AcDbEntity
  8
0
  6
CONTINUOUS
 62
           7
100
AcDbCircle
 10
22770.279522246132
 20
5896.248272987221
 40
3.323499999999
  0
CIRCLE
  5
155
100
AcDbEntity
  8
0
  6
CONTINUOUS
 62
           7
100
AcDbCircle
 10
22720.279522246132
 20
5896.248272987221
 40
3.323500000002
  0
CIRCLE
  5
154
100
AcDbEntity
  8
0
  6
CONTINUOUS
 62
           7
100
AcDbCircle
 10
22695.279522246132
 20
5939.54958898722
 40
3.323500000002
  0
CIRCLE
  5
153
100
AcDbEntity
  8
0
  6
CONTINUOUS
 62
           7
100
AcDbCircle
 10
22720.279522246132
 20
5982.850872987221
 40
3.323500000002
  0
CIRCLE
  5
152
100
AcDbEntity
  8
0
  6
CONTINUOUS
 62
           7
100
AcDbCircle
 10
22770.279522246132
 20
5982.850872987221
 40
3.323499999999
  0
CIRCLE
  5
151
100
AcDbEntity
  8
0
  6
CONTINUOUS
 62
           7
100
AcDbCircle
 10
22795.279522246132
 20
5939.54957298722
 40
3.323499999999
  0
CIRCLE
  5
150
100
AcDbEntity
  8
0
  6
CONTINUOUS
 62
           7
100
AcDbCircle
 10
22745.279522246132
 20
5939.54957298722
 40
15.0
  0
CIRCLE
  5
14F
100
AcDbEntity
  8
0
  6
CONTINUOUS
 62
           7
100
AcDbCircle
 10
22745.279522246132
 20
5939.54957298722
 40
22.5
  0
CIRCLE
  5
14E
100
AcDbEntity
  8
0
  6
CONTINUOUS
 62
           7
100
AcDbCircle
 10
22745.279522246132
 20
5939.54957298722
 40
40.0
  0
CIRCLE
  5
14D
100
AcDbEntity
  8
0
  6
CONTINUOUS
 62
           7
100
AcDbCircle
 10
22745.279522246132
 20
5939.54957298722
 40
60.0
  0
ARC
  5
14C
100
AcDbEntity
  8
0
  6
CONTINUOUS
 62
           7
100
AcDbCircle
 10
22830.279540711559
 20
5467.54957298722
 40
20.0
100
AcDbArc
 50
-90.0
 51
0.0
  0
ARC
  5
14B
100
AcDbEntity
  8
0
  6
CONTINUOUS
 62
           7
100
AcDbCircle
 10
22694.2795432577
 20
5467.54957298722
 40
20.0
100
AcDbArc
 50
180.0
 51
-90.0
  0
ARC
  5
14A
100
AcDbEntity
  8
0
  6
CONTINUOUS
 62
           7
100
AcDbCircle
 10
22733.529522246132
 20
5923.67408389608
 40
49.791426954598
100
AcDbArc
 50
177.662605786258
 51
-168.301237544825
  0
LWPOLYLINE
  5
149
100
AcDbEntity
  8
0
  6
DOT_CENTER
 62
           3
100
AcDbPolyline
 90
        2
 70
           1
 10
22795.279522246132
 20
5939.54957298722
 42
1.0
 10
22695.279522246132
 20
5939.54957298722
 42
1.0
  0
ARC
  5
148
100
AcDbEntity
  8
0
  6
CONTINUOUS
 62
           3
100
AcDbCircle
 10
22770.279522246132
 20
5896.248272987221
 40
3.999999999998
100
AcDbArc
 50
120.000011567542
 51
30.000011567585
  0
ARC
  5
147
100
AcDbEntity
  8
0
  6
CONTINUOUS
 62
           3
100
AcDbCircle
 10
22720.279522246132
 20
5896.248272987221
 40
4.000000000002
100
AcDbArc
 50
59.999988432367
 51
-30.00001156763
  0
ARC
  5
146
100
AcDbEntity
  8
0
  6
CONTINUOUS
 62
           3
100
AcDbCircle
 10
22695.279522246132
 20
5939.54958898722
 40
4.000000000003
100
AcDbArc
 50
-0.000071619736
 51
-90.0
  0
ARC
  5
145
100
AcDbEntity
  8
0
  6
CONTINUOUS
 62
           3
100
AcDbCircle
 10
22720.279522246132
 20
5982.850872987221
 40
4.000000000004
100
AcDbArc
 50
-59.999988432386
 51
-149.999988432385
  0
ARC
  5
144
100
AcDbEntity
  8
0
  6
CONTINUOUS
 62
           3
100
AcDbCircle
 10
22770.279522246132
 20
5982.850872987221
 40
4.0
100
AcDbArc
 50
-120.000011567523
 51
149.999988432463
  0
ARC
  5
143
100
AcDbEntity
  8
0
  6
CONTINUOUS
 62
           3
100
AcDbCircle
 10
22795.279522246132
 20
5939.54957298722
 40
4.0
100
AcDbArc
 50
180.0
 51
90.0
  0
LINE
  5
142
100
AcDbEntity
  8
1
  6
CONTINUOUS
 62
           7
100
AcDbLine
 10
23070.413073275591
 20
5554.549572987218
 11
23066.757429039371
 21
5554.549572987218
  0
LINE
  5
141
100
AcDbEntity
  8
0
  6
CONTINUOUS
 62
           7
100
AcDbLine
 10
22694.279522246132
 20
5761.54957298722
 11
22696.669522246131
 21
5761.54957298722
  0
LINE
  5
140
100
AcDbEntity
  8
0
  6
CONTINUOUS
 62
           7
100
AcDbLine
 10
22703.669522246131
 20
5756.54957298722
 11
22696.669522246131
 21
5756.54957298722
  0
LINE
  5
13F
100
AcDbEntity
  8
1
  6
CONTINUOUS
 62
           7
100
AcDbLine
 10
22696.669522246131
 20
5756.54957298722
 11
22696.669522246131
 21
5761.54957298722
  0
LINE
  5
13E
100
AcDbEntity
  8
0
  6
CONTINUOUS
 62
           7
100
AcDbLine
 10
22694.279622246129
 20
5666.54957298722
 11
22696.669522246131
 21
5666.54957298722
  0
LINE
  5
13D
100
AcDbEntity
  8
0
  6
CONTINUOUS
 62
           7
100
AcDbLine
 10
22703.669522246131
 20
5676.54957298722
 11
22696.669522246131
 21
5676.54957298722
  0
LINE
  5
13C
100
AcDbEntity
  8
1
  6
CONTINUOUS
 62
           7
100
AcDbLine
 10
22696.669522246131
 20
5676.54957298722
 11
22696.669522246131
 21
5666.54957298722
  0
LINE
  5
13B
100
AcDbEntity
  8
0
  6
CONTINUOUS
 62
           7
100
AcDbLine
 10
22696.669522246131
 20
5666.54957298722
 11
22703.669522246131
 21
5666.54957298722
  0
LINE
  5
13A
100
AcDbEntity
  8
0
  6
CONTINUOUS
 62
           7
100
AcDbLine
 10
22714.779522246132
 20
5676.54957298722
 11
22703.669522246131
 21
5676.54957298722
  0
LINE
  5
139
100
AcDbEntity
  8
1
  6
CONTINUOUS
 62
           7
100
AcDbLine
 10
22703.669522246131
 20
5676.54957298722
 11
22703.669522246131
 21
5666.54957298722
  0
LINE
  5
138
100
AcDbEntity
  8
0
  6
CONTINUOUS
 62
           7
100
AcDbLine
 10
22714.779522246132
 20
5761.54957298722
 11
22703.669522246131
 21
5761.54957298722
  0
LINE
  5
137
100
AcDbEntity
  8
0
  6
CONTINUOUS
 62
           7
100
AcDbLine
 10
22714.779522246132
 20
5756.54957298722
 11
22703.669522246131
 21
5756.54957298722
  0
LINE
  5
136
100
AcDbEntity
  8
1
  6
CONTINUOUS
 62
           7
100
AcDbLine
 10
22703.669522246131
 20
5756.54957298722
 11
22703.669522246131
 21
5761.54957298722
  0
LINE
  5
135
100
AcDbEntity
  8
0
  6
CONTINUOUS
 62
           7
100
AcDbLine
 10
22729.279522246132
 20
5761.54957298722
 11
22714.779522246132
 21
5761.54957298722
  0
LINE
  5
134
100
AcDbEntity
  8
0
  6
CONTINUOUS
 62
           7
100
AcDbLine
 10
22718.833922246129
 20
5756.54957298722
 11
22714.779522246132
 21
5756.54957298722
  0
LINE
  5
133
100
AcDbEntity
  8
1
  6
CONTINUOUS
 62
           7
100
AcDbLine
 10
22714.779522246132
 20
5756.54957298722
 11
22714.779522246132
 21
5761.54957298722
  0
LINE
  5
132
100
AcDbEntity
  8
0
  6
CONTINUOUS
 62
           7
100
AcDbLine
 10
22703.669522246131
 20
5666.54957298722
 11
22714.779522246132
 21
5666.54957298722
  0
LINE
  5
131
100
AcDbEntity
  8
0
  6
CONTINUOUS
 62
           7
100
AcDbLine
 10
22718.833922246129
 20
5676.54957298722
 11
22714.779522246132
 21
5676.54957298722
  0
LINE
  5
130
100
AcDbEntity
  8
1
  6
CONTINUOUS
 62
           7
100
AcDbLine
 10
22714.779522246132
 20
5676.54957298722
 11
22714.779522246132
 21
5666.54957298722
  0
LINE
  5
12F
100
AcDbEntity
  8
0
  6
CONTINUOUS
 62
           7
100
AcDbLine
 10
22714.779522246132
 20
5666.54957298722
 11
22729.279522246132
 21
5666.54957298722
  0
LINE
  5
12E
100
AcDbEntity
  8
0
  6
CONTINUOUS
 62
           7
100
AcDbLine
 10
22746.159522246129
 20
5761.54957298722
 11
22729.279522246132
 21
5761.54957298722
  0
LINE
  5
12D
100
AcDbEntity
  8
1
  6
CONTINUOUS
 62
           7
100
AcDbLine
 10
22729.279522246132
 20
5666.54957298722
 11
22729.279522246132
 21
5761.54957298722
  0
LINE
  5
12C
100
AcDbEntity
  8
0
  6
CONTINUOUS
 62
           7
100
AcDbLine
 10
22729.279522246132
 20
5666.54957298722
 11
22746.159522246129
 21
5666.54957298722
  0
LINE
  5
12B
100
AcDbEntity
  8
0
  6
CONTINUOUS
 62
           7
100
AcDbLine
 10
22778.39942224613
 20
5761.54957298722
 11
22746.159522246129
 21
5761.54957298722
  0
LINE
  5
12A
100
AcDbEntity
  8
1
  6
CONTINUOUS
 62
           7
100
AcDbLine
 10
22746.159522246129
 20
5761.54957298722
 11
22746.159522246129
 21
5666.54957298722
  0
LINE
  5
129
100
AcDbEntity
  8
0
  6
CONTINUOUS
 62
           7
100
AcDbLine
 10
22746.159522246129
 20
5666.54957298722
 11
22778.39942224613
 21
5666.54957298722
  0
LINE
  5
128
100
AcDbEntity
  8
0
  6
CONTINUOUS
 62
           7
100
AcDbLine
 10
22795.279422246131
 20
5761.54957298722
 11
22778.39942224613
 21
5761.54957298722
  0
LINE
  5
127
100
AcDbEntity
  8
1
  6
CONTINUOUS
 62
           7
100
AcDbLine
 10
22778.39942224613
 20
5666.54957298722
 11
22778.39942224613
 21
5761.54957298722
  0
LINE
  5
126
100
AcDbEntity
  8
0
  6
CONTINUOUS
 62
           7
100
AcDbLine
 10
22778.39942224613
 20
5666.54957298722
 11
22795.279422246131
 21
5666.54957298722
  0
LINE
  5
125
100
AcDbEntity
  8
0
  6
CONTINUOUS
 62
           7
100
AcDbLine
 10
22809.779422246131
 20
5761.54957298722
 11
22795.279422246131
 21
5761.54957298722
  0
LINE
  5
124
100
AcDbEntity
  8
1
  6
CONTINUOUS
 62
           7
100
AcDbLine
 10
22795.279422246131
 20
5761.54957298722
 11
22795.279422246131
 21
5666.54957298722
  0
LINE
  5
123
100
AcDbEntity
  8
0
  6
CONTINUOUS
 62
           7
100
AcDbLine
 10
22795.279422246131
 20
5666.54957298722
 11
22809.779422246131
 21
5666.54957298722
  0
LINE
  5
122
100
AcDbEntity
  8
0
  6
CONTINUOUS
 62
           7
100
AcDbLine
 10
22820.889422246131
 20
5761.54957298722
 11
22809.779422246131
 21
5761.54957298722
  0
LINE
  5
121
100
AcDbEntity
  8
1
  6
CONTINUOUS
 62
           7
100
AcDbLine
 10
22809.779422246131
 20
5666.54957298722
 11
22809.779422246131
 21
5761.54957298722
  0
LINE
  5
120
100
AcDbEntity
  8
0
  6
CONTINUOUS
 62
           7
100
AcDbLine
 10
22809.779422246131
 20
5666.54957298722
 11
22820.889422246131
 21
5666.54957298722
  0
LINE
  5
11F
100
AcDbEntity
  8
0
  6
CONTINUOUS
 62
           7
100
AcDbLine
 10
22822.279522246132
 20
5761.54957298722
 11
22820.889422246131
 21
5761.54957298722
  0
LINE
  5
11E
100
AcDbEntity
  8
1
  6
CONTINUOUS
 62
           7
100
AcDbLine
 10
22820.889422246131
 20
5761.54957298722
 11
22820.889422246131
 21
5666.54957298722
  0
LINE
  5
11D
100
AcDbEntity
  8
0
  6
CONTINUOUS
 62
           7
100
AcDbLine
 10
22822.279522246132
 20
5761.54957298722
 11
22827.889422246131
 21
5761.54957298722
  0
LINE
  5
11C
100
AcDbEntity
  8
0
  6
CONTINUOUS
 62
           7
100
AcDbLine
 10
22820.889422246131
 20
5666.54957298722
 11
22827.889422246131
 21
5666.54957298722
  0
LINE
  5
11B
100
AcDbEntity
  8
1
  6
CONTINUOUS
 62
           7
100
AcDbLine
 10
22827.889422246131
 20
5666.54957298722
 11
22827.889422246131
 21
5761.54957298722
  0
LINE
  5
11A
100
AcDbEntity
  8
0
  6
CONTINUOUS
 62
           7
100
AcDbLine
 10
22694.279522246132
 20
5756.54957298722
 11
22694.279522246132
 21
5761.54957298722
  0
LINE
  5
119
100
AcDbEntity
  8
0
  6
CONTINUOUS
 62
           7
100
AcDbLine
 10
22698.279522246132
 20
5861.54957298722
 11
22684.772403121231
 21
5913.578068205982
  0
LINE
  5
118
100
AcDbEntity
  8
0
  6
CONTINUOUS
 62
           7
100
AcDbLine
 10
22698.279522246132
 20
5826.54957298722
 11
22698.279522246132
 21
5861.54957298722
  0
LINE
  5
117
100
AcDbEntity
  8
0
  6
CONTINUOUS
 62
           7
100
AcDbLine
 10
22702.279522246132
 20
5826.54957298722
 11
22698.279522246132
 21
5826.54957298722
  0
LINE
  5
116
100
AcDbEntity
  8
0
  6
DOT_CENTER
 62
           3
100
AcDbLine
 10
22721.833922246129
 20
5716.54957298722
 11
22629.279522246132
 21
5716.54957298722
  0
LINE
  5
115
100
AcDbEntity
  8
0
  6
DOT_CENTER
 62
           3
100
AcDbLine
 10
22827.279522246132
 20
5884.54957298722
 11
22848.27932224613
 21
5884.54957298722
  0
LINE
  5
114
100
AcDbEntity
  8
0
  6
DOT_CENTER
 62
           3
100
AcDbLine
 10
22827.279522246132
 20
5974.54957298722
 11
22848.27932224613
 21
5974.54957298722
  0
LINE
  5
113
100
AcDbEntity
  8
0
  6
DOT_CENTER
 62
           3
100
AcDbLine
 10
22766.779521721601
 20
5902.310448895733
 11
22773.779522770659
 21
5890.186097078704
  0
LINE
  5
112
100
AcDbEntity
  8
0
  6
DOT_CENTER
 62
           3
100
AcDbLine
 10
22723.779522770659
 20
5902.310448895733
 11
22716.779521721601
 21
5890.186097078704
  0
LINE
  5
111
100
AcDbEntity
  8
0
  6
DOT_CENTER
 62
           3
100
AcDbLine
 10
22723.779522770659
 20
5976.788697078706
 11
22716.779521721601
 21
5988.913048895735
  0
LINE
  5
110
100
AcDbEntity
  8
0
  6
DOT_CENTER
 62
           3
100
AcDbLine
 10
22766.779521721601
 20
5976.788697078706
 11
22773.779522770659
 21
5988.913048895735
  0
LINE
  5
10F
100
AcDbEntity
  8
0
  6
DOT_CENTER
 62
           3
100
AcDbLine
 10
22745.279522246132
 20
5876.54957298722
 11
22745.279522246132
 21
6004.54957298722
  0
LINE
  5
10E
100
AcDbEntity
  8
0
  6
DOT_CENTER
 62
           3
100
AcDbLine
 10
22682.779522246132
 20
5939.54957298722
 11
22808.279522246132
 21
5939.54957298722
  0
LINE
  5
10D
100
AcDbEntity
  8
0
  6
CONTINUOUS
 62
           7
100
AcDbLine
 10
22850.279440711562
 20
5666.54957298722
 11
22850.279540711559
 21
5467.54957298722
  0
LINE
  5
10C
100
AcDbEntity
  8
0
  6
CONTINUOUS
 62
           7
100
AcDbLine
 10
22751.529522246132
 20
5447.54957298722
 11
22694.2795432577
 21
5447.54957298722
  0
LINE
  5
10B
100
AcDbEntity
  8
0
  6
CONTINUOUS
 62
           7
100
AcDbLine
 10
22674.2795432577
 20
5467.54957298722
 11
22674.279443257699
 21
5666.54957298722
  0
LINE
  5
10A
100
AcDbEntity
  8
0
  6
CONTINUOUS
 62
           7
100
AcDbLine
 10
22827.889422246131
 20
5761.54957298722
 11
22830.279422246131
 21
5761.54957298722
  0
LINE
  5
109
100
AcDbEntity
  8
0
  6
CONTINUOUS
 62
           7
100
AcDbLine
 10
22830.279422246131
 20
5666.54957298722
 11
22850.279440711562
 21
5666.54957298722
  0
LINE
  5
108
100
AcDbEntity
  8
0
  6
CONTINUOUS
 62
           7
100
AcDbLine
 10
22696.669522246131
 20
5761.54957298722
 11
22702.279522246132
 21
5761.54957298722
  0
LINE
  5
107
100
AcDbEntity
  8
0
  6
CONTINUOUS
 62
           7
100
AcDbLine
 10
22822.279522246132
 20
5816.54957298722
 11
22822.279522246132
 21
5761.54957298722
  0
LINE
  5
106
100
AcDbEntity
  8
0
  6
CONTINUOUS
 62
           7
100
AcDbLine
 10
22703.669522246131
 20
5761.54957298722
 11
22702.279522246132
 21
5761.54957298722
  0
LINE
  5
105
100
AcDbEntity
  8
0
  6
CONTINUOUS
 62
           7
100
AcDbLine
 10
22702.279522246132
 20
5761.54957298722
 11
22702.279522246132
 21
5816.54957298722
  0
LINE
  5
104
100
AcDbEntity
  8
0
  6
CONTINUOUS
 62
           7
100
AcDbLine
 10
22822.279522246132
 20
5826.54957298722
 11
22842.279522246132
 21
5826.54957298722
  0
LINE
  5
103
100
AcDbEntity
  8
0
  6
CONTINUOUS
 62
           7
100
AcDbLine
 10
22702.279522246132
 20
5826.54957298722
 11
22822.279522246132
 21
5826.54957298722
  0
LINE
  5
102
100
AcDbEntity
  8
0
  6
CONTINUOUS
 62
           7
100
AcDbLine
 10
22822.279522246132
 20
5816.54957298722
 11
22822.279522246132
 21
5826.54957298722
  0
LINE
  5
101
100
AcDbEntity
  8
0
  6
CONTINUOUS
 62
           7
100
AcDbLine
 10
22702.279522246132
 20
5816.54957298722
 11
22822.279522246132
 21
5816.54957298722
  0
LINE
  5
100
100
AcDbEntity
  8
0
  6
CONTINUOUS
 62
           7
100
AcDbLine
 10
22702.279522246132
 20
5826.54957298722
 11
22702.279522246132
 21
5816.54957298722
  0
LINE
  5
FF
100
AcDbEntity
  8
0
  6
CONTINUOUS
 62
           7
100
AcDbLine
 10
22683.779522246139
 20
6002.54957298722
 11
22842.279522246132
 21
6002.54957298722
  0
LINE
  5
FE
100
AcDbEntity
  8
0
  6
CONTINUOUS
 62
           7
100
AcDbLine
 10
22842.279522246132
 20
5869.54957298722
 11
22830.279522246132
 21
5869.54957298722
  0
LINE
  5
FD
100
AcDbEntity
  8
0
  6
CONTINUOUS
 62
           7
100
AcDbLine
 10
22842.279522246132
 20
5899.54957298722
 11
22845.279522246132
 21
5899.54957298722
  0
LINE
  5
FC
100
AcDbEntity
  8
0
  6
CONTINUOUS
 62
           7
100
AcDbLine
 10
22842.279522246132
 20
5959.54957298722
 11
22830.279522246132
 21
5959.54957298722
  0
LINE
  5
FB
100
AcDbEntity
  8
0
  6
CONTINUOUS
 62
           7
100
AcDbLine
 10
22842.279522246132
 20
5989.54957298722
 11
22845.279522246132
 21
5989.54957298722
  0
LINE
  5
FA
100
AcDbEntity
  8
0
  6
CONTINUOUS
 62
           7
100
AcDbLine
 10
22842.279522246132
 20
5959.54957298722
 11
22842.279522246132
 21
5899.54957298722
  0
LINE
  5
F9
100
AcDbEntity
  8
0
  6
CONTINUOUS
 62
           7
100
AcDbLine
 10
22842.279522246132
 20
6007.54957298722
 11
22842.279522246132
 21
6002.54957298722
  0
LINE
  5
F8
100
AcDbEntity
  8
0
  6
CONTINUOUS
 62
           7
100
AcDbLine
 10
22845.279522246132
 20
5869.54957298722
 11
22845.279522246132
 21
5879.04957298722
  0
LINE
  5
F7
100
AcDbEntity
  8
0
  6
CONTINUOUS
 62
           7
100
AcDbLine
 10
22830.279522246132
 20
5899.54957298722
 11
22842.279522246132
 21
5899.54957298722
  0
LINE
  5
F6
100
AcDbEntity
  8
0
  6
CONTINUOUS
 62
           7
100
AcDbLine
 10
22845.279522246132
 20
5869.54957298722
 11
22842.279522246132
 21
5869.54957298722
  0
LINE
  5
F5
100
AcDbEntity
  8
0
  6
CONTINUOUS
 62
           7
100
AcDbLine
 10
22845.279522246132
 20
5959.54957298722
 11
22845.279522246132
 21
5969.04957298722
  0
LINE
  5
F4
100
AcDbEntity
  8
0
  6
CONTINUOUS
 62
           7
100
AcDbLine
 10
22830.279522246132
 20
5989.54957298722
 11
22842.279522246132
 21
5989.54957298722
  0
LINE
  5
F3
100
AcDbEntity
  8
0
  6
CONTINUOUS
 62
           7
100
AcDbLine
 10
22845.279522246132
 20
5959.54957298722
 11
22842.279522246132
 21
5959.54957298722
  0
LINE
  5
F2
100
AcDbEntity
  8
0
  6
CONTINUOUS
 62
           7
100
AcDbLine
 10
22683.77952224623
 20
5925.70477298722
 11
22683.779522246139
 21
6002.54957298722
  0
LINE
  5
F1
100
AcDbEntity
  8
0
  6
CONTINUOUS
 62
           7
100
AcDbLine
 10
22842.279522246132
 20
5826.54957298722
 11
22842.279522246132
 21
5869.54957298722
  0
LINE
  5
F0
100
AcDbEntity
  8
0
  6
CONTINUOUS
 62
           7
100
AcDbLine
 10
22683.779522246132
 20
6007.54957298722
 11
22842.279522246132
 21
6007.54957298722
  0
LINE
  5
EF
100
AcDbEntity
  8
0
  6
CONTINUOUS
 62
           7
100
AcDbLine
 10
22632.279522246132
 20
5766.54957298722
 11
22639.279522246132
 21
5766.54957298722
  0
LINE
  5
EE
100
AcDbEntity
  8
0
  6
CONTINUOUS
 62
           7
100
AcDbLine
 10
22639.279522246132
 20
5766.54957298722
 11
22639.279522246132
 21
5764.54957298722
  0
LINE
  5
ED
100
AcDbEntity
  8
0
  6
CONTINUOUS
 62
           7
100
AcDbLine
 10
22639.279522246132
 20
5668.54957298722
 11
22639.279522246132
 21
5666.54957298722
  0
LINE
  5
EC
100
AcDbEntity
  8
0
  6
CONTINUOUS
 62
           7
100
AcDbLine
 10
22639.279522246132
 20
5666.54957298722
 11
22632.279522246132
 21
5666.54957298722
  0
LINE
  5
EB
100
AcDbEntity
  8
0
  6
CONTINUOUS
 62
           7
100
AcDbLine
 10
22632.279522246132
 20
5666.54957298722
 11
22632.279522246132
 21
5766.54957298722
  0
LINE
  5
EA
100
AcDbEntity
  8
0
  6
CONTINUOUS
 62
           7
100
AcDbLine
 10
22688.279522246132
 20
5676.54957298722
 11
22688.279522246132
 21
5668.54957298722
  0
LINE
  5
E9
100
AcDbEntity
  8
0
  6
CONTINUOUS
 62
           7
100
AcDbLine
 10
22688.279522246132
 20
5668.54957298722
 11
22639.279522246132
 21
5668.54957298722
  0
LINE
  5
E8
100
AcDbEntity
  8
0
  6
CONTINUOUS
 62
           7
100
AcDbLine
 10
22639.279522246132
 20
5764.54957298722
 11
22639.279522246132
 21
5668.54957298722
  0
LINE
  5
E7
100
AcDbEntity
  8
0
  6
CONTINUOUS
 62
           7
100
AcDbLine
 10
22639.279522246132
 20
5764.54957298722
 11
22688.279522246132
 21
5764.54957298722
  0
LINE
  5
E6
100
AcDbEntity
  8
0
  6
CONTINUOUS
 62
           7
100
AcDbLine
 10
22688.279522246132
 20
5764.54957298722
 11
22688.279522246132
 21
5756.54957298722
  0
LINE
  5
E5
100
AcDbEntity
  8
0
  6
CONTINUOUS
 62
           7
100
AcDbLine
 10
22688.279522246132
 20
5756.54957298722
 11
22688.279522246132
 21
5676.54957298722
  0
LINE
  5
E4
100
AcDbEntity
  8
0
  6
CONTINUOUS
 62
           7
100
AcDbLine
 10
22694.279622246129
 20
5676.54957298722
 11
22688.279522246132
 21
5676.54957298722
  0
LINE
  5
E3
100
AcDbEntity
  8
0
  6
CONTINUOUS
 62
           7
100
AcDbLine
 10
22718.833922246129
 20
5756.54957298722
 11
22718.833922246129
 21
5676.54957298722
  0
LINE
  5
E2
100
AcDbEntity
  8
0
  6
CONTINUOUS
 62
           7
100
AcDbLine
 10
22696.669522246131
 20
5756.54957298722
 11
22694.279522246132
 21
5756.54957298722
  0
LINE
  5
E1
100
AcDbEntity
  8
0
  6
CONTINUOUS
 62
           7
100
AcDbLine
 10
22694.279522246132
 20
5756.54957298722
 11
22688.279522246132
 21
5756.54957298722
  0
LINE
  5
E0
100
AcDbEntity
  8
0
  6
CONTINUOUS
 62
           7
100
AcDbLine
 10
22683.779522246139
 20
6002.54957298722
 11
22683.779522246132
 21
6007.54957298722
  0
LINE
  5
DF
100
AcDbEntity
  8
0
  6
CONTINUOUS
 62
           7
100
AcDbLine
 10
22842.279522246132
 20
6002.54957298722
 11
22842.279522246132
 21
5989.54957298722
  0
LINE
  5
DE
100
AcDbEntity
  8
1
  6
CONTINUOUS
 62
           7
100
AcDbLine
 10
22830.279422246131
 20
5666.54957298722
 11
22830.279422246131
 21
5761.54957298722
  0
LINE
  5
DD
100
AcDbEntity
  8
0
  6
CONTINUOUS
 62
           7
100
AcDbLine
 10
22827.889422246131
 20
5666.54957298722
 11
22830.279422246131
 21
5666.54957298722
  0
LINE
  5
DC
100
AcDbEntity
  8
1
  6
CONTINUOUS
 62
           7
100
AcDbLine
 10
22694.279622246129
 20
5666.54957298722
 11
22694.279622246129
 21
5676.54957298722
  0
LINE
  5
DB
100
AcDbEntity
  8
0
  6
CONTINUOUS
 62
           7
100
AcDbLine
 10
22696.669522246131
 20
5676.54957298722
 11
22694.279622246129
 21
5676.54957298722
  0
LINE
  5
DA
100
AcDbEntity
  8
0
  6
CONTINUOUS
 62
           7
100
AcDbLine
 10
22674.279443257699
 20
5666.54957298722
 11
22694.279622246129
 21
5666.54957298722
  0
LINE
  5
D9
100
AcDbEntity
  8
0
  6
CONTINUOUS
 62
           7
100
AcDbLine
 10
22845.279522246132
 20
5969.04957298722
 11
22845.279522246132
 21
5989.54957298722
  0
LINE
  5
D8
100
AcDbEntity
  8
0
  6
CONTINUOUS
 62
           7
100
AcDbLine
 10
22830.279522246132
 20
5959.54957298722
 11
22830.279522246132
 21
5989.54957298722
  0
LINE
  5
D7
100
AcDbEntity
  8
0
  6
CONTINUOUS
 62
           7
100
AcDbLine
 10
22845.279522246132
 20
5879.04957298722
 11
22845.279522246132
 21
5899.54957298722
  0
LINE
  5
D6
100
AcDbEntity
  8
0
  6
CONTINUOUS
 62
           7
100
AcDbLine
 10
22830.279522246132
 20
5869.54957298722
 11
22830.279522246132
 21
5899.54957298722
  0
LINE
  5
D5
100
AcDbEntity
  8
0
  6
DOT_CENTER
 62
           3
100
AcDbLine
 10
22762.279522246132
 20
5829.54957298722
 11
22762.279522246132
 21
5784.094208434997
  0
LINE
  5
D4
100
AcDbEntity
  8
0
  6
DOT_CENTER
 62
           3
100
AcDbLine
 10
22762.279522246132
 20
5784.094208434997
 11
22762.279522246132
 21
5596.445439373265
  0
LINE
  5
D3
100
AcDbEntity
  8
0
  6
CONTINUOUS
 62
           7
100
AcDbLine
 10
22830.279540711559
 20
5447.54957298722
 11
22751.529522246132
 21
5447.54957298722
  0
LINE
  5
D2
100
AcDbEntity
  8
0
  6
DOT_CENTER
 62
           3
100
AcDbLine
 10
22762.279522246132
 20
5596.445439373265
 11
22762.279522246132
 21
5447.54957298722
  0
ENDBLK
  5
165
100
AcDbEntity
  8
0
100
AcDbBlockEnd
  0
BLOCK
  5
33
100
AcDbEntity
  8
0
100
AcDbBlockBegin
  2
WELLENVERKLEIDUNG
 70
           0
 10
28193.48089189002
 20
5708.389537789821
 30
0.0
  3
WELLENVERKLEIDUNG
  1

  0
DIMENSION
  5
196
100
AcDbEntity
  8
0
100
AcDbDimension
  2
*D37
 10
22964.1825102972
 20
5686.54957298722
 11
22864.1825102972
 21
5803.791698496141
 31
0.0
 53
90.0
  1
<>
  3
ME10_DIM_3
100
AcDbAlignedDimension
 13
22460.279522246132
 23
5636.54957298722
 14
22610.279522246132
 24
5686.54957298722
 50
90.0
100
AcDbRotatedDimension
  0
DIMENSION
  5
189
100
AcDbEntity
  8
0
100
AcDbDimension
  2
*D36
 10
22460.279522246117
 20
5989.425296015899
 11
22046.647436796298
 21
6089.425296015899
 31
0.0
  1
<>
  3
ME10_DIM_2
100
AcDbAlignedDimension
 13
21662.379892943831
 23
5501.141567502842
 14
22460.279522246132
 24
5636.54957298722
100
AcDbRotatedDimension
  0
DIMENSION
  5
17E
100
AcDbEntity
  8
0
100
AcDbDimension
  2
*D35
 10
23350.765310758139
 20
4886.54957298722
 11
23250.765310758139
 21
5268.653344591689
 31
0.0
 53
90.0
  1
<>
  3
ME10_DIM_1
100
AcDbAlignedDimension
 13
22460.279522246132
 23
5636.54957298722
 14
22460.279522246132
 24
4886.54957298722
 50
90.0
100
AcDbRotatedDimension
  0
LINE
  5
173
100
AcDbEntity
  8
1
  6
DOT_CENTER
 62
           3
100
AcDbLine
 10
21850.279522246132
 20
4886.54957298722
 11
21662.379892943831
 21
5501.141567502842
  0
LINE
  5
172
100
AcDbEntity
  8
1
  6
DOT_CENTER
 62
           3
100
AcDbLine
 10
22105.279522246132
 20
5636.54957298722
 11
21662.379892943831
 21
5501.141567502842
  0
LINE
  5
171
100
AcDbEntity
  8
1
  6
DOT_CENTER
 62
           3
100
AcDbLine
 10
22105.279522246132
 20
5636.54957298722
 11
22460.279522246132
 21
5636.54957298722
  0
LINE
  5
170
100
AcDbEntity
  8
1
  6
DOT_CENTER
 62
           3
100
AcDbLine
 10
21850.279522246132
 20
4886.54957298722
 11
22024.279499539109
 21
4886.54957298722
  0
LINE
  5
16F
100
AcDbEntity
  8
1
  6
DOT_CENTER
 62
           3
100
AcDbLine
 10
22200.27949699296
 20
4886.54957298722
 11
22460.279522246132
 21
4886.54957298722
  0
LINE
  5
16E
100
AcDbEntity
  8
1
  6
DASHED
 62
           3
100
AcDbLine
 10
22610.279522246132
 20
5686.54957298722
 11
22652.029563799519
 21
5686.54957298722
  0
LINE
  5
16D
100
AcDbEntity
  8
1
  6
DOT_CENTER
 62
           3
100
AcDbLine
 10
24181.899001053818
 20
4892.549572987223
 11
26751.8990010538
 21
4892.549572987223
  0
LINE
  5
16C
100
AcDbEntity
  8
1
  6
DOT_CENTER
 62
           3
100
AcDbLine
 10
26751.8990010538
 20
4892.549572987223
 11
26751.8990010538
 21
5636.54957298722
  0
LINE
  5
16B
100
AcDbEntity
  8
1
  6
DOT_CENTER
 62
           3
100
AcDbLine
 10
26751.8990010538
 20
5636.54957298722
 11
24181.899001053818
 21
5636.54957298722
  0
LINE
  5
16A
100
AcDbEntity
  8
1
  6
DOT_CENTER
 62
           3
100
AcDbLine
 10
24181.899001053818
 20
5636.54957298722
 11
24181.899001053818
 21
4892.549572987223
  0
LINE
  5
169
100
AcDbEntity
  8
1
  6
DOT_CENTER
 62
           3
100
AcDbLine
 10
24181.899001053818
 20
820.429392648117
 11
26751.8990010538
 21
820.429392648117
  0
LINE
  5
168
100
AcDbEntity
  8
1
  6
DOT_CENTER
 62
           3
100
AcDbLine
 10
26751.8990010538
 20
820.429392648117
 11
26751.8990010538
 21
20.429392648117
  0
LINE
  5
167
100
AcDbEntity
  8
1
  6
DOT_CENTER
 62
           3
100
AcDbLine
 10
26751.8990010538
 20
20.429392648117
 11
24181.899001053818
 21
20.429392648117
  0
LINE
  5
166
100
AcDbEntity
  8
1
  6
DOT_CENTER
 62
           3
100
AcDbLine
 10
24181.899001053818
 20
20.429392648117
 11
24181.899001053818
 21
820.429392648117
  0
ENDBLK
  5
197
100
AcDbEntity
  8
0
100
AcDbBlockEnd
  0
BLOCK
  5
35
100
AcDbEntity
  8
0
100
AcDbBlockBegin
  2
SEITENTEILPROFIL_UNTEN_VA
 70
           0
 10
10139.766772719689
 20
652.746559109277
 30
0.0
  3
SEITENTEILPROFIL_UNTEN_VA
  1

  0
HATCH
  5
27A
100
AcDbEntity
  8
0
  6
CONTINUOUS
 62
           6
100
AcDbHatch
 10
0.0
 20
0.0
 30
0.0
210
0.0
220
0.0
230
1.0
  2
USER
 70
           0
 71
           1
 91
        2
 92
        1
 93
        7
 72
           1
 10
22367.279522246132
 20
1964.5121943507691
 11
22367.279522246132
 21
1979.549572987218
 72
           1
 10
22367.279522246132
 20
1964.5121943507691
 11
22362.76448303253
 21
1932.5495729872159
 72
           1
 10
22362.76448303253
 20
1932.5495729872159
 11
22359.793973976441
 21
1932.9691870332649
 72
           1
 10
22363.346813345881
 20
1958.120255309532
 11
22359.793973976441
 21
1932.9691870332649
 72
           2
 10
22356.279522246132
 20
1966.549572987218
 40
11.0
 50
180.0
 51
-50.022928138441
 73
           1
 72
           1
 10
22345.279522246132
 20
1966.549572987218
 11
22345.279522246132
 21
1979.549572987218
 72
           1
 10
22345.279522246132
 20
1979.549572987218
 11
22367.279522246132
 21
1979.549572987218
 97
        7
330
1AF
330
1AE
330
1A9
330
1AD
330
1FB
330
1B0
330
1BE
 92
       16
 93
        4
 72
           1
 10
22348.279522246132
 20
1966.54957298722
 11
22348.279522246132
 21
1976.549572987218
 72
           1
 10
22348.279522246132
 20
1976.549572987218
 11
22364.279522246132
 21
1976.549572987218
 72
           1
 10
22364.279522246132
 20
1966.54957298722
 11
22364.279522246132
 21
1976.549572987218
 72
           2
 10
22356.279522246132
 20
1966.549572987218
 40
8.0
 50
179.999999999985
 51
0.000000000015
 73
           1
 97
        4
330
1AC
330
1AA
330
1AB
330
1FA
 75
           1
 76
           0
 52
45.0
 41
1.0
 77
           0
 78
           1
 53
45.0
 43
0.0
 44
0.0
 45
-0.7071067811865475
 46
0.7071067811865476
 79
           0
 98
        1
 10
0.0
 20
0.0
  0
DIMENSION
  5
279
100
AcDbEntity
  8
0
100
AcDbDimension
  2
*D47
 10
26911.899001053804
 20
5703.33334766791
 11
27199.751274145208
 21
5803.33334766791
 31
0.0
  1
<>
  3
ME10_DIM_13
100
AcDbAlignedDimension
 13
27076.8990010538
 23
5028.549572987224
 14
26911.8990010538
 24
4993.549572987224
100
AcDbRotatedDimension
  0
DIMENSION
  5
26C
100
AcDbEntity
  8
0
100
AcDbDimension
  2
*D46
 10
22820.4811940369
 20
5421.549572987222
 11
22720.4811940369
 21
5152.43777014277
 31
0.0
 53
90.0
  1
<>
  3
ME10_DIM_12
100
AcDbAlignedDimension
 13
22454.279522246132
 23
4886.54957298722
 14
22390.6034948583
 24
5421.549572987222
 50
90.0
100
AcDbRotatedDimension
  0
DIMENSION
  5
261
100
AcDbEntity
  8
0
100
AcDbDimension
  2
*D45
 10
22819.341872717101
 20
4886.54957298722
 11
22719.341872717101
 21
3380.799907438709
 31
0.0
 53
90.0
  1
<>
  3
ME10_DIM_11
100
AcDbAlignedDimension
 13
22460.279522246132
 23
1929.549572987217
 14
22454.279522246132
 24
4886.54957298722
 50
90.0
100
AcDbRotatedDimension
  0
DIMENSION
  5
256
100
AcDbEntity
  8
0
100
AcDbDimension
  2
*D44
 10
22460.279522246132
 20
1330.41942787582
 11
22353.879649430211
 21
1430.41942787582
 31
0.0
  1
<>
  3
ME10_DIM_10
100
AcDbAlignedDimension
 13
22240.279522246132
 23
1929.549572987217
 14
22460.279522246132
 24
1929.549572987217
100
AcDbRotatedDimension
  0
DIMENSION
  5
24B
100
AcDbEntity
  8
0
100
AcDbDimension
  2
*D43
 10
22460.279522246128
 20
1596.58748398325
 11
22593.430899926909
 21
1696.58748398325
 31
0.0
  1
<>
  3
ME10_DIM_9
100
AcDbAlignedDimension
 13
22367.279522246132
 23
1979.549572987218
 14
22460.279522246132
 24
1929.549572987217
100
AcDbRotatedDimension
  0
DIMENSION
  5
23E
100
AcDbEntity
  8
0
100
AcDbDimension
  2
*D42
 10
26751.8990010538
 20
1555.898537371327
 11
25481.600873856711
 21
1655.898537371327
 31
0.0
 70
           1
  1
<>
  3
ME10_DIM_8
100
AcDbAlignedDimension
 13
24201.899001053811
 23
1929.549572987216
 14
26751.8990010538
 24
1929.549572987216
  0
DIMENSION
  5
233
100
AcDbEntity
  8
0
100
AcDbDimension
  2
*D41
 10
22460.279522246132
 20
5819.291670943389
 11
22128.780910969312
 21
5919.291670943389
 31
0.0
  1
<>
  3
ME10_DIM_7
100
AcDbAlignedDimension
 13
21755.279522246132
 23
5271.549572987222
 14
22460.279522246132
 24
5421.549572987222
100
AcDbRotatedDimension
  0
DIMENSION
  5
228
100
AcDbEntity
  8
0
100
AcDbDimension
  2
*D40
 10
21606.279522246128
 20
4849.782386891429
 11
21678.704417506109
 21
4949.782386891429
 31
0.0
  1
<>
  3
ME10_DIM_6
100
AcDbAlignedDimension
 13
21755.279522246132
 23
5271.549572987222
 14
21606.279522246132
 24
5229.549572987222
100
AcDbRotatedDimension
  0
DIMENSION
  5
21B
100
AcDbEntity
  8
0
100
AcDbDimension
  2
*D39
 10
23079.764911382241
 20
5611.549572987222
 11
22979.764911382241
 21
5283.909888738998
 31
0.0
 53
90.0
  1
<>
  3
ME10_DIM_5
100
AcDbAlignedDimension
 13
22460.279522246132
 23
4886.54957298722
 14
22095.279522246132
 24
5611.549572987222
 50
90.0
100
AcDbRotatedDimension
  0
DIMENSION
  5
210
100
AcDbEntity
  8
0
100
AcDbDimension
  2
*D38
 10
26426.899001053804
 20
5823.62556283287
 11
26699.611645323799
 21
5923.62556283287
 31
0.0
  1
<>
  3
ME10_DIM_4
100
AcDbAlignedDimension
 13
26911.8990010538
 23
4993.549572987224
 14
26426.8990010538
 24
5421.549572987222
100
AcDbRotatedDimension
  0
TEXT
  5
205
100
AcDbEntity
  8
1
 62
           3
100
AcDbText
 10
22063.581020322272
 20
3105.647895408999
 40
83.333333333333
  1
A
 41
0.665
  7
CONVERTER_2
100
AcDbText
  0
TEXT
  5
204
100
AcDbEntity
  8
1
 62
           3
100
AcDbText
 10
22540.335913670831
 20
3108.86689467348
 40
83.333333333333
  1
A
 41
0.665
  7
CONVERTER_2
100
AcDbText
  0
MTEXT
  5
203
100
AcDbEntity
  8
1
 62
           3
100
AcDbMText
 10
21711.389487906759
 20
703.830578324454
 30
0.0
 40
83.333333333333
 41
0.0
 71
           7
 72
           1
  1
Schnitt/view\PA-A
  7
CONVERTER_2
  0
ARC
  5
201
100
AcDbEntity
  8
1
  6
CONTINUOUS
 62
           7
100
AcDbCircle
 10
21994.545791308781
 20
5296.502656218454
 40
10.000000000002
100
AcDbArc
 50
106.142759644652
 51
-163.857240355395
  0
ARC
  5
200
100
AcDbEntity
  8
1
  6
DASHED
 62
           3
100
AcDbCircle
 10
22411.279522246132
 20
4892.549572987221
 40
3.0
100
AcDbArc
 50
180.0
 51
-90.0
  0
ARC
  5
1FF
100
AcDbEntity
  8
1
  6
DASHED
 62
           3
100
AcDbCircle
 10
22454.279522246132
 20
4892.549572987221
 40
3.0
100
AcDbArc
 50
-90.0
 51
0.0
  0
ARC
  5
1FE
100
AcDbEntity
  8
1
  6
DASHED
 62
           3
100
AcDbCircle
 10
22411.279522246132
 20
4892.549572987221
 40
6.0
100
AcDbArc
 50
-179.999999999991
 51
-90.0
  0
ARC
  5
1FD
100
AcDbEntity
  8
1
  6
DASHED
 62
           3
100
AcDbCircle
 10
22454.279522246132
 20
4892.549572987221
 40
6.000000000001
100
AcDbArc
 50
-90.0
 51
-0.000000000009
  0
ARC
  5
1FC
100
AcDbEntity
  8
1
  6
CONTINUOUS
 62
           7
100
AcDbCircle
 10
22095.279522246132
 20
5271.549572987222
 40
340.0
100
AcDbArc
 50
180.0
 51
-102.053425435238
  0
ARC
  5
1FB
100
AcDbEntity
  8
1
  6
CONTINUOUS
 62
           7
100
AcDbCircle
 10
22356.279522246132
 20
1966.549572987218
 40
11.0
100
AcDbArc
 50
180.0
 51
-50.022928138441
  0
ARC
  5
1FA
100
AcDbEntity
  8
1
  6
CONTINUOUS
 62
           7
100
AcDbCircle
 10
22356.279522246132
 20
1966.549572987218
 40
8.0
100
AcDbArc
 50
179.999999999985
 51
0.000000000015
  0
ARC
  5
1F9
100
AcDbEntity
  8
1
  6
CONTINUOUS
 62
           7
100
AcDbCircle
 10
22095.279522246132
 20
5271.549572987224
 40
339.999999999999
100
AcDbArc
 50
27.121720751235
 51
90.0
  0
ARC
  5
1F8
100
AcDbEntity
  8
1
  6
CONTINUOUS
 62
           7
100
AcDbCircle
 10
22095.279522246132
 20
5271.549572987222
 40
340.0
100
AcDbArc
 50
90.0
 51
180.0
  0
LINE
  5
1F7
100
AcDbEntity
  8
1
  6
CONTINUOUS
 62
           3
100
AcDbLine
 10
27076.8990010538
 20
4993.549572987224
 11
27076.8990010538
 21
5028.549572987224
  0
LINE
  5
1F6
100
AcDbEntity
  8
1
  6
CONTINUOUS
 62
           7
100
AcDbLine
 10
26911.8990010538
 20
4993.549572987224
 11
26911.8990010538
 21
4981.69492377859
  0
LINE
  5
1F5
100
AcDbEntity
  8
1
  6
CONTINUOUS
 62
           7
100
AcDbLine
 10
24526.899001053811
 20
4854.549572987219
 11
26426.8990010538
 21
4854.549572987219
  0
LINE
  5
1F4
100
AcDbEntity
  8
1
  6
CONTINUOUS
 62
           7
100
AcDbLine
 10
24526.899001053811
 20
4729.549572987219
 11
26426.8990010538
 21
4729.549572987219
  0
LINE
  5
1F3
100
AcDbEntity
  8
1
  6
CONTINUOUS
 62
           7
100
AcDbLine
 10
24526.899001053811
 20
4604.549572987219
 11
26426.8990010538
 21
4604.549572987219
  0
LINE
  5
1F2
100
AcDbEntity
  8
1
  6
CONTINUOUS
 62
           7
100
AcDbLine
 10
24526.899001053811
 20
4479.549572987219
 11
26426.8990010538
 21
4479.549572987219
  0
LINE
  5
1F1
100
AcDbEntity
  8
1
  6
CONTINUOUS
 62
           7
100
AcDbLine
 10
24526.899001053811
 20
4354.549572987219
 11
26426.8990010538
 21
4354.549572987219
  0
LINE
  5
1F0
100
AcDbEntity
  8
1
  6
CONTINUOUS
 62
           7
100
AcDbLine
 10
24526.899001053811
 20
4229.549572987219
 11
26426.8990010538
 21
4229.549572987219
  0
LINE
  5
1EF
100
AcDbEntity
  8
1
  6
CONTINUOUS
 62
           7
100
AcDbLine
 10
24526.899001053811
 20
4104.549572987219
 11
26426.8990010538
 21
4104.549572987219
  0
LINE
  5
1EE
100
AcDbEntity
  8
1
  6
CONTINUOUS
 62
           7
100
AcDbLine
 10
24526.899001053811
 20
3979.549572987219
 11
26426.8990010538
 21
3979.549572987219
  0
LINE
  5
1ED
100
AcDbEntity
  8
1
  6
CONTINUOUS
 62
           7
100
AcDbLine
 10
24526.899001053811
 20
3854.549572987219
 11
26426.8990010538
 21
3854.549572987219
  0
LINE
  5
1EC
100
AcDbEntity
  8
1
  6
CONTINUOUS
 62
           7
100
AcDbLine
 10
24526.899001053811
 20
3729.549572987219
 11
26426.8990010538
 21
3729.549572987219
  0
LINE
  5
1EB
100
AcDbEntity
  8
1
  6
CONTINUOUS
 62
           7
100
AcDbLine
 10
24526.899001053811
 20
3604.549572987219
 11
26426.8990010538
 21
3604.549572987219
  0
LINE
  5
1EA
100
AcDbEntity
  8
1
  6
CONTINUOUS
 62
           7
100
AcDbLine
 10
24526.899001053811
 20
3479.549572987219
 11
26426.8990010538
 21
3479.549572987219
  0
LINE
  5
1E9
100
AcDbEntity
  8
1
  6
CONTINUOUS
 62
           7
100
AcDbLine
 10
24526.899001053811
 20
3354.549572987219
 11
26426.8990010538
 21
3354.549572987219
  0
LINE
  5
1E8
100
AcDbEntity
  8
1
  6
CONTINUOUS
 62
           7
100
AcDbLine
 10
24526.899001053811
 20
3229.54957298722
 11
26426.8990010538
 21
3229.54957298722
  0
LINE
  5
1E7
100
AcDbEntity
  8
1
  6
CONTINUOUS
 62
           7
100
AcDbLine
 10
24526.899001053811
 20
3104.54957298722
 11
26426.8990010538
 21
3104.54957298722
  0
LINE
  5
1E6
100
AcDbEntity
  8
1
  6
CONTINUOUS
 62
           7
100
AcDbLine
 10
24526.899001053811
 20
2979.54957298722
 11
26426.8990010538
 21
2979.54957298722
  0
LINE
  5
1E5
100
AcDbEntity
  8
1
  6
CONTINUOUS
 62
           7
100
AcDbLine
 10
24526.899001053811
 20
2854.54957298722
 11
26426.8990010538
 21
2854.54957298722
  0
LINE
  5
1E4
100
AcDbEntity
  8
1
  6
CONTINUOUS
 62
           7
100
AcDbLine
 10
24526.899001053811
 20
2729.54957298722
 11
26426.8990010538
 21
2729.54957298722
  0
LINE
  5
1E3
100
AcDbEntity
  8
1
  6
CONTINUOUS
 62
           7
100
AcDbLine
 10
24526.899001053811
 20
2604.54957298722
 11
26426.8990010538
 21
2604.54957298722
  0
LINE
  5
1E2
100
AcDbEntity
  8
1
  6
CONTINUOUS
 62
           7
100
AcDbLine
 10
24526.899001053811
 20
2479.54957298722
 11
26426.8990010538
 21
2479.54957298722
  0
LINE
  5
1E1
100
AcDbEntity
  8
1
  6
CONTINUOUS
 62
           7
100
AcDbLine
 10
24526.899001053811
 20
2354.54957298722
 11
26426.8990010538
 21
2354.54957298722
  0
LINE
  5
1E0
100
AcDbEntity
  8
1
  6
CONTINUOUS
 62
           7
100
AcDbLine
 10
24526.899001053811
 20
2229.54957298722
 11
26426.8990010538
 21
2229.54957298722
  0
LINE
  5
1DF
100
AcDbEntity
  8
1
  6
CONTINUOUS
 62
           7
100
AcDbLine
 10
24526.899001053811
 20
2104.54957298722
 11
26426.8990010538
 21
2104.54957298722
  0
LINE
  5
1DE
100
AcDbEntity
  8
1
  6
CONTINUOUS
 62
           7
100
AcDbLine
 10
24526.899001053811
 20
1979.54957298722
 11
26426.8990010538
 21
1979.54957298722
  0
LINE
  5
1DD
100
AcDbEntity
  8
1
  6
DASH_CENTER
 62
           3
100
AcDbLine
 10
24371.899001053811
 20
5606.549572987222
 11
26581.8990010538
 21
5606.549572987222
  0
LINE
  5
1DC
100
AcDbEntity
  8
1
  6
DASH_CENTER
 62
           3
100
AcDbLine
 10
26581.8990010538
 20
5421.549572987222
 11
26581.8990010538
 21
5606.549572987222
  0
LINE
  5
1DB
100
AcDbEntity
  8
1
  6
DASH_CENTER
 62
           3
100
AcDbLine
 10
24371.899001053811
 20
5421.549572987222
 11
24371.899001053811
 21
5606.549572987222
  0
LINE
  5
1DA
100
AcDbEntity
  8
1
  6
CONTINUOUS
 62
           7
100
AcDbLine
 10
24526.899001053811
 20
5212.549572987224
 11
26426.8990010538
 21
5212.549572987224
  0
LINE
  5
1D9
100
AcDbEntity
  8
1
  6
CONTINUOUS
 62
           7
100
AcDbLine
 10
24526.899001053811
 20
5320.549572987222
 11
26426.8990010538
 21
5320.549572987222
  0
LINE
  5
1D8
100
AcDbEntity
  8
1
  6
CONTINUOUS
 62
           7
100
AcDbLine
 10
26426.8990010538
 20
5421.549572987222
 11
26751.8990010538
 21
5421.549572987222
  0
LINE
  5
1D7
100
AcDbEntity
  8
1
  6
CONTINUOUS
 62
           7
100
AcDbLine
 10
26581.8990010538
 20
5421.549572987222
 11
26581.8990010538
 21
1929.549572987216
  0
LINE
  5
1D6
100
AcDbEntity
  8
1
  6
CONTINUOUS
 62
           7
100
AcDbLine
 10
26426.8990010538
 20
5421.549572987222
 11
26426.8990010538
 21
1929.549572987217
  0
LINE
  5
1D5
100
AcDbEntity
  8
1
  6
CONTINUOUS
 62
           7
100
AcDbLine
 10
26751.8990010538
 20
5421.549572987222
 11
26751.8990010538
 21
1929.549572987216
  0
LINE
  5
1D4
100
AcDbEntity
  8
1
  6
CONTINUOUS
 62
           7
100
AcDbLine
 10
26426.8990010538
 20
1929.549572987217
 11
26751.8990010538
 21
1929.549572987216
  0
LINE
  5
1D3
100
AcDbEntity
  8
1
  6
DOT_CENTER
 62
           3
100
AcDbLine
 10
24101.899001053811
 20
5266.549572987222
 11
26801.525932285611
 21
5266.549572987222
  0
LINE
  5
1D2
100
AcDbEntity
  8
1
  6
CONTINUOUS
 62
           7
100
AcDbLine
 10
24201.899001053811
 20
5421.549572987222
 11
24526.899001053811
 21
5421.549572987222
  0
LINE
  5
1D1
100
AcDbEntity
  8
1
  6
CONTINUOUS
 62
           7
100
AcDbLine
 10
24371.899001053811
 20
1929.549572987216
 11
24371.899001053811
 21
5421.549572987222
  0
LINE
  5
1D0
100
AcDbEntity
  8
1
  6
CONTINUOUS
 62
           7
100
AcDbLine
 10
24526.899001053811
 20
1929.549572987217
 11
24526.899001053811
 21
5421.549572987222
  0
LINE
  5
1CF
100
AcDbEntity
  8
1
  6
CONTINUOUS
 62
           7
100
AcDbLine
 10
22240.279522246132
 20
1929.549572987217
 11
22240.279522246132
 21
4411.54957298722
  0
LINE
  5
1CE
100
AcDbEntity
  8
1
  6
CONTINUOUS
 62
           7
100
AcDbLine
 10
22460.279522246132
 20
1929.549572987217
 11
22460.279522246132
 21
5421.549572987222
  0
LINE
  5
1CD
100
AcDbEntity
  8
1
  6
CONTINUOUS
 62
           7
100
AcDbLine
 10
24201.899001053811
 20
1929.549572987216
 11
24201.899001053811
 21
5421.549572987222
  0
LINE
  5
1CC
100
AcDbEntity
  8
1
  6
CONTINUOUS
 62
           7
100
AcDbLine
 10
24201.899001053811
 20
1929.549572987216
 11
24526.899001053811
 21
1929.549572987217
  0
LINE
  5
1CB
100
AcDbEntity
  8
1
  6
CONTINUOUS
 62
           7
100
AcDbLine
 10
22240.279522246132
 20
1929.549572987217
 11
22460.279522246132
 21
1929.549572987217
  0
LINE
  5
1CA
100
AcDbEntity
  8
1
  6
CONTINUOUS
 62
           7
100
AcDbLine
 10
21984.940072032368
 20
5293.722340196338
 11
22044.326060271102
 21
5088.549572987222
  0
LINE
  5
1C9
100
AcDbEntity
  8
1
  6
CONTINUOUS
 62
           7
100
AcDbLine
 10
22390.6034948583
 20
5421.549572987222
 11
22460.279522246132
 21
5421.549572987222
  0
LINE
  5
1C8
100
AcDbEntity
  8
1
  6
DOT_CENTER
 62
           3
100
AcDbLine
 10
22095.279522246132
 20
5112.33116125462
 11
22095.279522246132
 21
5430.767984719825
  0
LINE
  5
1C7
100
AcDbEntity
  8
1
  6
DOT_CENTER
 62
           3
100
AcDbLine
 10
22254.497933978731
 20
5271.549572987222
 11
21936.061110513529
 21
5271.549572987222
  0
LINE
  5
1C6
100
AcDbEntity
  8
1
  6
DASHED
 62
           3
100
AcDbLine
 10
22457.279522246132
 20
4926.54957298722
 11
22460.279522246132
 21
4926.54957298722
  0
LINE
  5
1C5
100
AcDbEntity
  8
1
  6
DASHED
 62
           3
100
AcDbLine
 10
22460.279522246132
 20
4926.54957298722
 11
22460.279522246132
 21
4892.54957298722
  0
LINE
  5
1C4
100
AcDbEntity
  8
1
  6
DASHED
 62
           3
100
AcDbLine
 10
22454.279522246132
 20
4886.54957298722
 11
22411.279522246132
 21
4886.54957298722
  0
LINE
  5
1C3
100
AcDbEntity
  8
1
  6
DASHED
 62
           3
100
AcDbLine
 10
22405.279522246132
 20
4892.54957298722
 11
22405.279522246132
 21
4926.54957298722
  0
LINE
  5
1C2
100
AcDbEntity
  8
1
  6
DASHED
 62
           3
100
AcDbLine
 10
22408.279522246132
 20
4892.549572987221
 11
22408.279522246132
 21
4926.54957298722
  0
LINE
  5
1C1
100
AcDbEntity
  8
1
  6
DASHED
 62
           3
100
AcDbLine
 10
22454.279522246132
 20
4889.549572987221
 11
22411.279522246132
 21
4889.549572987221
  0
LINE
  5
1C0
100
AcDbEntity
  8
1
  6
DASHED
 62
           3
100
AcDbLine
 10
22457.279522246132
 20
4926.54957298722
 11
22457.279522246132
 21
4892.549572987221
  0
LINE
  5
1BF
100
AcDbEntity
  8
1
  6
DASHED
 62
           3
100
AcDbLine
 10
22408.279522246132
 20
4926.54957298722
 11
22405.279522246132
 21
4926.54957298722
  0
LINE
  5
1BE
100
AcDbEntity
  8
1
  6
CONTINUOUS
 62
           7
100
AcDbLine
 10
22345.279522246132
 20
1979.549572987218
 11
22367.279522246132
 21
1979.549572987218
  0
LINE
  5
1BD
100
AcDbEntity
  8
1
  6
CONTINUOUS
 62
           7
100
AcDbLine
 10
22367.279522246132
 20
1979.549572987218
 11
22367.279522246132
 21
2909.748606297734
  0
LINE
  5
1BC
100
AcDbEntity
  8
1
  6
CONTINUOUS
 62
           7
100
AcDbLine
 10
22345.279522246132
 20
2906.567883406167
 11
22345.279522246132
 21
1979.549572987218
  0
LINE
  5
1BB
100
AcDbEntity
  8
1
  6
CONTINUOUS
 62
           7
100
AcDbLine
 10
22345.279522246132
 20
2104.549572987218
 11
22367.279522246132
 21
2104.549572987218
  0
LINE
  5
1BA
100
AcDbEntity
  8
1
  6
CONTINUOUS
 62
           7
100
AcDbLine
 10
22345.279522246132
 20
2229.54957298722
 11
22367.279522246132
 21
2229.54957298722
  0
LINE
  5
1B9
100
AcDbEntity
  8
1
  6
CONTINUOUS
 62
           7
100
AcDbLine
 10
22345.279522246132
 20
2354.54957298722
 11
22367.279522246132
 21
2354.54957298722
  0
LINE
  5
1B8
100
AcDbEntity
  8
1
  6
CONTINUOUS
 62
           7
100
AcDbLine
 10
22345.279522246132
 20
2479.54957298722
 11
22367.279522246132
 21
2479.54957298722
  0
LINE
  5
1B7
100
AcDbEntity
  8
1
  6
CONTINUOUS
 62
           7
100
AcDbLine
 10
22345.279522246132
 20
2604.54957298722
 11
22367.279522246132
 21
2604.54957298722
  0
LINE
  5
1B6
100
AcDbEntity
  8
1
  6
CONTINUOUS
 62
           7
100
AcDbLine
 10
22345.279522246132
 20
2729.54957298722
 11
22367.279522246132
 21
2729.54957298722
  0
LINE
  5
1B5
100
AcDbEntity
  8
1
  6
CONTINUOUS
 62
           7
100
AcDbLine
 10
22240.279522246132
 20
2972.363064129059
 11
22309.279522246132
 21
2901.363064129059
  0
LINE
  5
1B4
100
AcDbEntity
  8
1
  6
CONTINUOUS
 62
           7
100
AcDbLine
 10
22309.279522246132
 20
2901.363064129059
 11
22392.279522246132
 21
2913.363064129059
  0
LINE
  5
1B3
100
AcDbEntity
  8
1
  6
CONTINUOUS
 62
           7
100
AcDbLine
 10
22392.279522246132
 20
2913.363064129059
 11
22460.279522246132
 21
2855.26409718047
  0
LINE
  5
1B2
100
AcDbEntity
  8
1
  6
CONTINUOUS
 62
           7
100
AcDbLine
 10
22345.279522246132
 20
2854.54957298722
 11
22367.279522246132
 21
2854.54957298722
  0
LINE
  5
1B1
100
AcDbEntity
  8
1
  6
CONTINUOUS
 62
           7
100
AcDbLine
 10
22460.279522246132
 20
1932.549572987216
 11
22240.279522246132
 21
1932.549572987216
  0
LINE
  5
1B0
100
AcDbEntity
  8
1
  6
CONTINUOUS
 62
           7
100
AcDbLine
 10
22345.279522246132
 20
1966.549572987218
 11
22345.279522246132
 21
1979.549572987218
  0
LINE
  5
1AF
100
AcDbEntity
  8
1
  6
CONTINUOUS
 62
           7
100
AcDbLine
 10
22367.279522246132
 20
1964.512194350769
 11
22367.279522246132
 21
1979.549572987218
  0
LINE
  5
1AE
100
AcDbEntity
  8
1
  6
CONTINUOUS
 62
           7
100
AcDbLine
 10
22367.279522246132
 20
1964.512194350769
 11
22362.76448303253
 21
1932.549572987216
  0
LINE
  5
1AD
100
AcDbEntity
  8
1
  6
CONTINUOUS
 62
           7
100
AcDbLine
 10
22363.346813345881
 20
1958.120255309532
 11
22359.793973976441
 21
1932.969187033265
  0
LINE
  5
1AC
100
AcDbEntity
  8
1
  6
CONTINUOUS
 62
           7
100
AcDbLine
 10
22348.279522246132
 20
1966.54957298722
 11
22348.279522246132
 21
1976.549572987218
  0
LINE
  5
1AB
100
AcDbEntity
  8
1
  6
CONTINUOUS
 62
           7
100
AcDbLine
 10
22364.279522246132
 20
1966.54957298722
 11
22364.279522246132
 21
1976.549572987218
  0
LINE
  5
1AA
100
AcDbEntity
  8
1
  6
CONTINUOUS
 62
           7
100
AcDbLine
 10
22348.279522246132
 20
1976.549572987218
 11
22364.279522246132
 21
1976.549572987218
  0
LINE
  5
1A9
100
AcDbEntity
  8
1
  6
CONTINUOUS
 62
           7
100
AcDbLine
 10
22362.76448303253
 20
1932.549572987216
 11
22359.793973976441
 21
1932.969187033265
  0
LINE
  5
1A8
100
AcDbEntity
  8
1
  6
CONTINUOUS
 62
           7
100
AcDbLine
 10
22133.764198750101
 20
4779.549572987221
 11
22240.279522246132
 21
4411.54957298722
  0
LINE
  5
1A7
100
AcDbEntity
  8
1
  6
CONTINUOUS
 62
           7
100
AcDbLine
 10
22033.77952224615
 20
5318.269081482
 11
21991.765475286658
 21
5306.108375494862
  0
LINE
  5
1A6
100
AcDbEntity
  8
1
  6
DOT_CENTER
 62
           3
100
AcDbLine
 10
22430.467971324411
 20
3049.77104296461
 11
22644.467971324411
 21
3049.77104296461
  0
LINE
  5
1A5
100
AcDbEntity
  8
1
  6
DOT_CENTER
 62
           3
100
AcDbLine
 10
22259.95589439325
 20
3049.77104296461
 11
22142.38829363992
 21
3049.77104296461
  0
LINE
  5
1A4
100
AcDbEntity
  8
1
  6
CONTINUOUS
 62
           7
100
AcDbLine
 10
22142.38829363992
 20
3190.672363497319
 11
22142.38829363992
 21
3074.77104296461
  0
LINE
  5
1A3
100
AcDbEntity
  8
1
  6
DOT_CENTER
 62
           3
100
AcDbLine
 10
22142.38829363992
 20
3049.77104296461
 11
22023.95589439325
 21
3049.77104296461
  0
LINE
  5
1A2
100
AcDbEntity
  8
1
  6
CONTINUOUS
 62
           7
100
AcDbLine
 10
22142.38829363992
 20
3049.77104296461
 11
22136.38829363992
 21
3074.77104296461
  0
LINE
  5
1A1
100
AcDbEntity
  8
1
  6
CONTINUOUS
 62
           7
100
AcDbLine
 10
22142.38829363992
 20
3049.77104296461
 11
22147.59662697326
 21
3074.77104296461
  0
LINE
  5
1A0
100
AcDbEntity
  8
1
  6
CONTINUOUS
 62
           7
100
AcDbLine
 10
22136.38829363992
 20
3074.77104296461
 11
22142.38829363992
 21
3074.77104296461
  0
LINE
  5
19F
100
AcDbEntity
  8
1
  6
CONTINUOUS
 62
           7
100
AcDbLine
 10
22142.38829363992
 20
3074.77104296461
 11
22147.59662697326
 21
3074.77104296461
  0
LINE
  5
19E
100
AcDbEntity
  8
1
  6
CONTINUOUS
 62
           7
100
AcDbLine
 10
22515.38829363992
 20
3190.672363497319
 11
22515.38829363992
 21
3074.77104296461
  0
LINE
  5
19D
100
AcDbEntity
  8
1
  6
CONTINUOUS
 62
           7
100
AcDbLine
 10
22515.38829363992
 20
3049.77104296461
 11
22509.38829363992
 21
3074.77104296461
  0
LINE
  5
19C
100
AcDbEntity
  8
1
  6
CONTINUOUS
 62
           7
100
AcDbLine
 10
22515.38829363992
 20
3049.77104296461
 11
22520.59662697326
 21
3074.77104296461
  0
LINE
  5
19B
100
AcDbEntity
  8
1
  6
CONTINUOUS
 62
           7
100
AcDbLine
 10
22509.38829363992
 20
3074.77104296461
 11
22515.38829363992
 21
3074.77104296461
  0
LINE
  5
19A
100
AcDbEntity
  8
1
  6
CONTINUOUS
 62
           7
100
AcDbLine
 10
22515.38829363992
 20
3074.77104296461
 11
22520.59662697326
 21
3074.77104296461
  0
LINE
  5
199
100
AcDbEntity
  8
1
  6
CONTINUOUS
 62
           7
100
AcDbLine
 10
22235.279522246121
 20
5376.592009972345
 11
22107.301534073991
 21
5339.549572987222
  0
LINE
  5
198
100
AcDbEntity
  8
1
  6
CONTINUOUS
 62
           7
100
AcDbLine
 10
21606.279522246132
 20
5271.549572987222
 11
21606.279522246132
 21
5229.549572987222
  0
INSERT
  5
36
100
AcDbEntity
  8
0
100
AcDbBlockReference
  2
WELLENVERKLEIDUNG
 10
28193.48089189002
 20
5708.389537789821
  0
ENDBLK
  5
27B
100
AcDbEntity
  8
0
100
AcDbBlockEnd
  0
BLOCK
  5
38
100
AcDbEntity
  8
0
100
AcDbBlockBegin
  2
_SEITENTEIL_UNTEN_VA__2
 70
           0
 10
4944.011680487134
 20
1740.893124144855
 30
0.0
  3
_SEITENTEIL_UNTEN_VA__2
  1

  0
INSERT
  5
39
100
AcDbEntity
  8
0
100
AcDbBlockReference
  2
SEITENTEILPROFIL_UNTEN_VA
 10
10139.766772719689
 20
652.746559109277
  0
ENDBLK
  5
27C
100
AcDbEntity
  8
0
100
AcDbBlockEnd
  0
BLOCK
  5
3B
100
AcDbEntity
  8
0
100
AcDbBlockBegin
  2
GETRIEBEMOTOR_VA
 70
           0
 10
9434.487744224958
 20
6897.622937789765
 30
0.0
  3
GETRIEBEMOTOR_VA
  1

  0
ARC
  5
2EA
100
AcDbEntity
  8
1
  6
CONTINUOUS
 62
           7
100
AcDbCircle
 10
27866.8990010538
 20
5462.549572987222
 40
20.0
100
AcDbArc
 50
-90.0
 51
0.0
  0
ARC
  5
2E9
100
AcDbEntity
  8
1
  6
CONTINUOUS
 62
           7
100
AcDbCircle
 10
27750.8990010538
 20
5462.549572987222
 40
20.0
100
AcDbArc
 50
180.0
 51
-90.0
  0
ARC
  5
2E8
100
AcDbEntity
  8
1
  6
CONTINUOUS
 62
           7
100
AcDbCircle
 10
27748.8990010538
 20
5758.549572987222
 40
5.0
100
AcDbArc
 50
90.0
 51
180.0
  0
ARC
  5
2E7
100
AcDbEntity
  8
1
  6
CONTINUOUS
 62
           7
100
AcDbCircle
 10
27748.8990010538
 20
5661.549572987222
 40
5.0
100
AcDbArc
 50
180.0
 51
-90.0
  0
ARC
  5
2E6
100
AcDbEntity
  8
1
  6
CONTINUOUS
 62
           7
100
AcDbCircle
 10
27868.8990010538
 20
5661.549572987222
 40
5.0
100
AcDbArc
 50
-90.0
 51
0.0
  0
ARC
  5
2E5
100
AcDbEntity
  8
1
  6
CONTINUOUS
 62
           7
100
AcDbCircle
 10
27868.8990010538
 20
5758.549572987222
 40
5.0
100
AcDbArc
 50
0.0
 51
90.0
  0
CIRCLE
  5
2E4
100
AcDbEntity
  8
0
  6
CONTINUOUS
 62
           7
100
AcDbCircle
 10
27761.3990010538
 20
5879.549572987222
 40
5.5
  0
CIRCLE
  5
2E3
100
AcDbEntity
  8
0
  6
CONTINUOUS
 62
           7
100
AcDbCircle
 10
27856.3990010538
 20
5969.549572987222
 40
5.5
  0
CIRCLE
  5
2E2
100
AcDbEntity
  8
0
  6
CONTINUOUS
 62
           7
100
AcDbCircle
 10
27761.3990010538
 20
5969.549572987222
 40
5.5
  0
ARC
  5
2E1
100
AcDbEntity
  8
1
  6
CONTINUOUS
 62
           7
100
AcDbCircle
 10
27856.3990010538
 20
5879.549572987222
 40
5.5
100
AcDbArc
 50
0.0
 51
90.0
  0
ARC
  5
2E0
100
AcDbEntity
  8
1
  6
CONTINUOUS
 62
           7
100
AcDbCircle
 10
27856.3990010538
 20
5879.549572987222
 40
5.5
100
AcDbArc
 50
180.0
 51
-90.0
  0
ARC
  5
2DF
100
AcDbEntity
  8
1
  6
CONTINUOUS
 62
           7
100
AcDbCircle
 10
27856.3990010538
 20
5879.549572987222
 40
5.5
100
AcDbArc
 50
90.0
 51
180.0
  0
ARC
  5
2DE
100
AcDbEntity
  8
1
  6
CONTINUOUS
 62
           7
100
AcDbCircle
 10
27856.3990010538
 20
5879.549572987222
 40
5.5
100
AcDbArc
 50
-90.0
 51
0.0
  0
LINE
  5
2DD
100
AcDbEntity
  8
1
  6
CONTINUOUS
 62
           7
100
AcDbLine
 10
27726.8990010538
 20
5917.049572987222
 11
27726.8990010538
 21
5952.049572987222
  0
LINE
  5
2DC
100
AcDbEntity
  8
1
  6
CONTINUOUS
 62
           7
100
AcDbLine
 10
27744.899001053811
 20
5917.049572987222
 11
27726.8990010538
 21
5917.049572987222
  0
LINE
  5
2DB
100
AcDbEntity
  8
1
  6
CONTINUOUS
 62
           7
100
AcDbLine
 10
27744.899001053811
 20
5952.049572987222
 11
27744.899001053811
 21
5917.049572987222
  0
LINE
  5
2DA
100
AcDbEntity
  8
1
  6
CONTINUOUS
 62
           7
100
AcDbLine
 10
27726.8990010538
 20
5952.049572987222
 11
27744.899001053811
 21
5952.049572987222
  0
LINE
  5
2D9
100
AcDbEntity
  8
1
  6
CONTINUOUS
 62
           7
100
AcDbLine
 10
27748.8990010538
 20
5813.549572987222
 11
27748.8990010538
 21
5763.549572987222
  0
LINE
  5
2D8
100
AcDbEntity
  8
1
  6
CONTINUOUS
 62
           7
100
AcDbLine
 10
27798.1490010538
 20
5442.549572987222
 11
27750.8990010538
 21
5442.549572987222
  0
LINE
  5
2D7
100
AcDbEntity
  8
1
  6
CONTINUOUS
 62
           7
100
AcDbLine
 10
27866.8990010538
 20
5442.549572987222
 11
27798.1490010538
 21
5442.549572987222
  0
LINE
  5
2D6
100
AcDbEntity
  8
0
  6
DOT_CENTER
 62
           3
100
AcDbLine
 10
27856.3990010538
 20
5961.049572987222
 11
27856.3990010538
 21
5978.049572987222
  0
LINE
  5
2D5
100
AcDbEntity
  8
0
  6
DOT_CENTER
 62
           3
100
AcDbLine
 10
27847.8990010538
 20
5969.549572987222
 11
27864.8990010538
 21
5969.549572987222
  0
LINE
  5
2D4
100
AcDbEntity
  8
0
  6
DOT_CENTER
 62
           3
100
AcDbLine
 10
27761.3990010538
 20
5961.049572987222
 11
27761.3990010538
 21
5978.049572987222
  0
LINE
  5
2D3
100
AcDbEntity
  8
0
  6
DOT_CENTER
 62
           3
100
AcDbLine
 10
27752.8990010538
 20
5969.549572987222
 11
27769.8990010538
 21
5969.549572987222
  0
LINE
  5
2D2
100
AcDbEntity
  8
0
  6
DOT_CENTER
 62
           3
100
AcDbLine
 10
27856.3990010538
 20
5871.049572987222
 11
27856.3990010538
 21
5888.049572987222
  0
LINE
  5
2D1
100
AcDbEntity
  8
0
  6
DOT_CENTER
 62
           3
100
AcDbLine
 10
27847.8990010538
 20
5879.549572987222
 11
27861.8990010538
 21
5879.549572987222
  0
LINE
  5
2D0
100
AcDbEntity
  8
0
  6
DOT_CENTER
 62
           3
100
AcDbLine
 10
27761.3990010538
 20
5871.049572987222
 11
27761.3990010538
 21
5888.049572987222
  0
LINE
  5
2CF
100
AcDbEntity
  8
0
  6
DOT_CENTER
 62
           3
100
AcDbLine
 10
27752.8990010538
 20
5879.549572987222
 11
27769.8990010538
 21
5879.549572987222
  0
LINE
  5
2CE
100
AcDbEntity
  8
0
  6
CONTINUOUS
 62
           7
100
AcDbLine
 10
27856.8990010538
 20
5984.549572987222
 11
27856.8990010538
 21
5997.549572987222
  0
LINE
  5
2CD
100
AcDbEntity
  8
0
  6
CONTINUOUS
 62
           7
100
AcDbLine
 10
27853.8990010538
 20
5984.549572987222
 11
27853.8990010538
 21
5997.549572987222
  0
LINE
  5
2CC
100
AcDbEntity
  8
0
  6
CONTINUOUS
 62
           7
100
AcDbLine
 10
27760.8990010538
 20
5984.549572987222
 11
27760.8990010538
 21
5997.549572987222
  0
LINE
  5
2CB
100
AcDbEntity
  8
0
  6
CONTINUOUS
 62
           7
100
AcDbLine
 10
27763.8990010538
 20
5984.549572987222
 11
27763.8990010538
 21
5997.549572987222
  0
LINE
  5
2CA
100
AcDbEntity
  8
0
  6
CONTINUOUS
 62
           7
100
AcDbLine
 10
27763.8990010538
 20
5894.549572987222
 11
27763.8990010538
 21
5954.549572987222
  0
LINE
  5
2C9
100
AcDbEntity
  8
0
  6
CONTINUOUS
 62
           7
100
AcDbLine
 10
27760.8990010538
 20
5894.549572987222
 11
27760.8990010538
 21
5954.549572987222
  0
LINE
  5
2C8
100
AcDbEntity
  8
0
  6
CONTINUOUS
 62
           7
100
AcDbLine
 10
27856.8990010538
 20
5894.549572987222
 11
27856.8990010538
 21
5954.549572987222
  0
LINE
  5
2C7
100
AcDbEntity
  8
0
  6
CONTINUOUS
 62
           7
100
AcDbLine
 10
27853.8990010538
 20
5894.549572987222
 11
27853.8990010538
 21
5954.549572987222
  0
LINE
  5
2C6
100
AcDbEntity
  8
0
  6
CONTINUOUS
 62
           7
100
AcDbLine
 10
27866.8990010538
 20
5874.549572987222
 11
27869.8990010538
 21
5876.549572987222
  0
LINE
  5
2C5
100
AcDbEntity
  8
0
  6
CONTINUOUS
 62
           7
100
AcDbLine
 10
27866.8990010538
 20
5874.549572987222
 11
27866.8990010538
 21
5894.549572987222
  0
LINE
  5
2C4
100
AcDbEntity
  8
0
  6
CONTINUOUS
 62
           7
100
AcDbLine
 10
27853.8990010538
 20
5864.549572987222
 11
27866.8990010538
 21
5864.549572987222
  0
LINE
  5
2C3
100
AcDbEntity
  8
0
  6
CONTINUOUS
 62
           7
100
AcDbLine
 10
27763.8990010538
 20
5864.549572987222
 11
27853.8990010538
 21
5864.549572987222
  0
LINE
  5
2C2
100
AcDbEntity
  8
0
  6
CONTINUOUS
 62
           7
100
AcDbLine
 10
27750.8990010538
 20
5874.549572987222
 11
27750.8990010538
 21
5864.549572987222
  0
LINE
  5
2C1
100
AcDbEntity
  8
0
  6
CONTINUOUS
 62
           7
100
AcDbLine
 10
27866.8990010538
 20
5954.549572987222
 11
27866.8990010538
 21
5984.549572987222
  0
LINE
  5
2C0
100
AcDbEntity
  8
0
  6
CONTINUOUS
 62
           7
100
AcDbLine
 10
27750.8990010538
 20
5954.549572987222
 11
27760.8990010538
 21
5954.549572987222
  0
LINE
  5
2BF
100
AcDbEntity
  8
0
  6
CONTINUOUS
 62
           7
100
AcDbLine
 10
27750.8990010538
 20
5984.549572987222
 11
27750.8990010538
 21
5954.549572987222
  0
LINE
  5
2BE
100
AcDbEntity
  8
0
  6
CONTINUOUS
 62
           7
100
AcDbLine
 10
27750.8990010538
 20
5984.549572987222
 11
27760.8990010538
 21
5984.549572987222
  0
LINE
  5
2BD
100
AcDbEntity
  8
0
  6
DOT_CENTER
 62
           3
100
AcDbLine
 10
27740.8990010538
 20
5713.549572987222
 11
27876.8990010538
 21
5713.549572987222
  0
LINE
  5
2BC
100
AcDbEntity
  8
0
  6
DOT_CENTER
 62
           3
100
AcDbLine
 10
27741.8990010538
 20
5934.549572987222
 11
27875.8990010538
 21
5934.549572987222
  0
LINE
  5
2BB
100
AcDbEntity
  8
0
  6
CONTINUOUS
 62
           7
100
AcDbLine
 10
27881.8990010538
 20
5661.549572987222
 11
27881.8990010538
 21
5758.549572987222
  0
LINE
  5
2BA
100
AcDbEntity
  8
0
  6
CONTINUOUS
 62
           7
100
AcDbLine
 10
27735.899101053801
 20
5758.549572987223
 11
27735.899101053801
 21
5661.549572987222
  0
LINE
  5
2B9
100
AcDbEntity
  8
0
  6
CONTINUOUS
 62
           7
100
AcDbLine
 10
27873.8990010538
 20
5758.549572987222
 11
27881.8990010538
 21
5758.549572987222
  0
LINE
  5
2B8
100
AcDbEntity
  8
0
  6
CONTINUOUS
 62
           7
100
AcDbLine
 10
27735.899101053801
 20
5758.549572987223
 11
27743.8990010538
 21
5758.549572987222
  0
LINE
  5
2B7
100
AcDbEntity
  8
0
  6
CONTINUOUS
 62
           7
100
AcDbLine
 10
27763.8990010538
 20
5821.549572987222
 11
27748.8990010538
 21
5821.549572987222
  0
LINE
  5
2B6
100
AcDbEntity
  8
0
  6
CONTINUOUS
 62
           7
100
AcDbLine
 10
27730.8990010538
 20
5661.549572987222
 11
27735.899101053801
 21
5661.549572987222
  0
LINE
  5
2B5
100
AcDbEntity
  8
0
  6
CONTINUOUS
 62
           7
100
AcDbLine
 10
27735.899101053801
 20
5661.549572987222
 11
27743.8990010538
 21
5661.549572987222
  0
LINE
  5
2B4
100
AcDbEntity
  8
0
  6
CONTINUOUS
 62
           7
100
AcDbLine
 10
27730.8990010538
 20
5661.549572987222
 11
27730.8990010538
 21
5462.549572987222
  0
LINE
  5
2B3
100
AcDbEntity
  8
0
  6
CONTINUOUS
 62
           7
100
AcDbLine
 10
27881.8990010538
 20
5661.549572987222
 11
27886.8990010538
 21
5661.549572987222
  0
LINE
  5
2B2
100
AcDbEntity
  8
0
  6
CONTINUOUS
 62
           7
100
AcDbLine
 10
27886.8990010538
 20
5462.549572987222
 11
27886.8990010538
 21
5661.549572987222
  0
LINE
  5
2B1
100
AcDbEntity
  8
0
  6
CONTINUOUS
 62
           7
100
AcDbLine
 10
27868.8990010538
 20
5821.549572987222
 11
27853.8990010538
 21
5821.549572987222
  0
LINE
  5
2B0
100
AcDbEntity
  8
0
  6
CONTINUOUS
 62
           7
100
AcDbLine
 10
27868.8990010538
 20
5813.549572987222
 11
27868.8990010538
 21
5821.549572987222
  0
LINE
  5
2AF
100
AcDbEntity
  8
0
  6
CONTINUOUS
 62
           7
100
AcDbLine
 10
27748.8990010538
 20
5813.549572987222
 11
27868.8990010538
 21
5813.549572987222
  0
LINE
  5
2AE
100
AcDbEntity
  8
0
  6
CONTINUOUS
 62
           7
100
AcDbLine
 10
27748.8990010538
 20
5821.549572987222
 11
27748.8990010538
 21
5813.549572987222
  0
LINE
  5
2AD
100
AcDbEntity
  8
0
  6
CONTINUOUS
 62
           7
100
AcDbLine
 10
27853.8990010538
 20
5821.549572987222
 11
27763.8990010538
 21
5821.549572987222
  0
LINE
  5
2AC
100
AcDbEntity
  8
0
  6
CONTINUOUS
 62
           7
100
AcDbLine
 10
27853.8990010538
 20
5997.549572987222
 11
27853.8990010538
 21
6002.549572987222
  0
LINE
  5
2AB
100
AcDbEntity
  8
0
  6
CONTINUOUS
 62
           7
100
AcDbLine
 10
27763.8990010538
 20
5997.549572987222
 11
27763.8990010538
 21
6002.549572987222
  0
LINE
  5
2AA
100
AcDbEntity
  8
0
  6
CONTINUOUS
 62
           7
100
AcDbLine
 10
27853.8990010538
 20
5821.549572987222
 11
27853.8990010538
 21
5864.549572987222
  0
LINE
  5
2A9
100
AcDbEntity
  8
0
  6
CONTINUOUS
 62
           7
100
AcDbLine
 10
27763.8990010538
 20
5821.549572987222
 11
27763.8990010538
 21
5864.549572987222
  0
LINE
  5
2A8
100
AcDbEntity
  8
0
  6
CONTINUOUS
 62
           7
100
AcDbLine
 10
27869.8990010538
 20
5974.549572987222
 11
27869.8990010538
 21
5997.549572987222
  0
LINE
  5
2A7
100
AcDbEntity
  8
0
  6
CONTINUOUS
 62
           7
100
AcDbLine
 10
27853.8990010538
 20
5997.549572987222
 11
27856.8990010538
 21
5997.549572987222
  0
LINE
  5
2A6
100
AcDbEntity
  8
0
  6
CONTINUOUS
 62
           7
100
AcDbLine
 10
27869.8990010538
 20
5876.549572987222
 11
27869.8990010538
 21
5894.549572987222
  0
LINE
  5
2A5
100
AcDbEntity
  8
0
  6
CONTINUOUS
 62
           7
100
AcDbLine
 10
27872.8990010538
 20
5974.549572987222
 11
27872.8990010538
 21
5934.549572987222
  0
LINE
  5
2A4
100
AcDbEntity
  8
0
  6
CONTINUOUS
 62
           7
100
AcDbLine
 10
27869.8990010538
 20
5974.549572987222
 11
27872.8990010538
 21
5974.549572987222
  0
LINE
  5
2A3
100
AcDbEntity
  8
0
  6
CONTINUOUS
 62
           7
100
AcDbLine
 10
27869.8990010538
 20
5894.549572987222
 11
27869.8990010538
 21
5974.549572987222
  0
LINE
  5
2A2
100
AcDbEntity
  8
0
  6
CONTINUOUS
 62
           7
100
AcDbLine
 10
27872.8990010538
 20
5894.549572987222
 11
27869.8990010538
 21
5894.549572987222
  0
LINE
  5
2A1
100
AcDbEntity
  8
0
  6
CONTINUOUS
 62
           7
100
AcDbLine
 10
27872.8990010538
 20
5934.549572987222
 11
27872.8990010538
 21
5894.549572987222
  0
LINE
  5
2A0
100
AcDbEntity
  8
0
  6
CONTINUOUS
 62
           7
100
AcDbLine
 10
27747.8990010538
 20
5974.549572987222
 11
27747.8990010538
 21
5997.549572987222
  0
LINE
  5
29F
100
AcDbEntity
  8
0
  6
CONTINUOUS
 62
           7
100
AcDbLine
 10
27747.8990010538
 20
5997.549572987222
 11
27760.8990010538
 21
5997.549572987222
  0
LINE
  5
29E
100
AcDbEntity
  8
0
  6
CONTINUOUS
 62
           7
100
AcDbLine
 10
27747.8990010538
 20
5876.549572987222
 11
27750.8990010538
 21
5874.549572987222
  0
LINE
  5
29D
100
AcDbEntity
  8
0
  6
CONTINUOUS
 62
           7
100
AcDbLine
 10
27747.8990010538
 20
5876.549572987222
 11
27747.8990010538
 21
5894.549572987222
  0
LINE
  5
29C
100
AcDbEntity
  8
0
  6
CONTINUOUS
 62
           7
100
AcDbLine
 10
27744.8990010538
 20
5974.549572987222
 11
27744.8990010538
 21
5934.549572987222
  0
LINE
  5
29B
100
AcDbEntity
  8
0
  6
CONTINUOUS
 62
           7
100
AcDbLine
 10
27747.8990010538
 20
5974.549572987222
 11
27744.8990010538
 21
5974.549572987222
  0
LINE
  5
29A
100
AcDbEntity
  8
0
  6
CONTINUOUS
 62
           7
100
AcDbLine
 10
27747.8990010538
 20
5894.549572987222
 11
27747.8990010538
 21
5974.549572987222
  0
LINE
  5
299
100
AcDbEntity
  8
0
  6
CONTINUOUS
 62
           7
100
AcDbLine
 10
27744.8990010538
 20
5894.549572987222
 11
27747.8990010538
 21
5894.549572987222
  0
LINE
  5
298
100
AcDbEntity
  8
0
  6
CONTINUOUS
 62
           7
100
AcDbLine
 10
27744.8990010538
 20
5934.549572987222
 11
27744.8990010538
 21
5894.549572987222
  0
LINE
  5
297
100
AcDbEntity
  8
0
  6
CONTINUOUS
 62
           7
100
AcDbLine
 10
27866.8990010538
 20
5864.549572987222
 11
27866.8990010538
 21
5874.549572987222
  0
LINE
  5
296
100
AcDbEntity
  8
0
  6
CONTINUOUS
 62
           7
100
AcDbLine
 10
27750.8990010538
 20
5864.549572987222
 11
27763.8990010538
 21
5864.549572987222
  0
LINE
  5
295
100
AcDbEntity
  8
0
  6
CONTINUOUS
 62
           7
100
AcDbLine
 10
27750.8990010538
 20
5894.549572987222
 11
27750.8990010538
 21
5874.549572987222
  0
LINE
  5
294
100
AcDbEntity
  8
0
  6
CONTINUOUS
 62
           7
100
AcDbLine
 10
27750.8990010538
 20
5894.549572987222
 11
27760.8990010538
 21
5894.549572987222
  0
LINE
  5
293
100
AcDbEntity
  8
0
  6
CONTINUOUS
 62
           7
100
AcDbLine
 10
27760.8990010538
 20
5997.549572987222
 11
27763.8990010538
 21
5997.549572987222
  0
LINE
  5
292
100
AcDbEntity
  8
0
  6
CONTINUOUS
 62
           7
100
AcDbLine
 10
27760.8990010538
 20
5984.549572987222
 11
27763.8990010538
 21
5984.549572987222
  0
LINE
  5
291
100
AcDbEntity
  8
0
  6
CONTINUOUS
 62
           7
100
AcDbLine
 10
27856.8990010538
 20
5997.549572987222
 11
27869.8990010538
 21
5997.549572987222
  0
LINE
  5
290
100
AcDbEntity
  8
0
  6
CONTINUOUS
 62
           7
100
AcDbLine
 10
27853.8990010538
 20
5954.549572987222
 11
27856.8990010538
 21
5954.549572987222
  0
LINE
  5
28F
100
AcDbEntity
  8
0
  6
CONTINUOUS
 62
           7
100
AcDbLine
 10
27873.8990010538
 20
5661.549572987222
 11
27881.8990010538
 21
5661.549572987222
  0
LINE
  5
28E
100
AcDbEntity
  8
0
  6
CONTINUOUS
 62
           7
100
AcDbLine
 10
27763.8990010538
 20
5984.549572987222
 11
27853.8990010538
 21
5984.549572987222
  0
LINE
  5
28D
100
AcDbEntity
  8
0
  6
CONTINUOUS
 62
           7
100
AcDbLine
 10
27856.8990010538
 20
5954.549572987222
 11
27866.8990010538
 21
5954.549572987222
  0
LINE
  5
28C
100
AcDbEntity
  8
0
  6
CONTINUOUS
 62
           7
100
AcDbLine
 10
27853.8990010538
 20
5984.549572987222
 11
27856.8990010538
 21
5984.549572987222
  0
LINE
  5
28B
100
AcDbEntity
  8
0
  6
CONTINUOUS
 62
           7
100
AcDbLine
 10
27856.8990010538
 20
5984.549572987222
 11
27866.8990010538
 21
5984.549572987222
  0
LINE
  5
28A
100
AcDbEntity
  8
0
  6
CONTINUOUS
 62
           7
100
AcDbLine
 10
27856.8990010538
 20
5894.549572987222
 11
27866.8990010538
 21
5894.549572987222
  0
LINE
  5
289
100
AcDbEntity
  8
0
  6
CONTINUOUS
 62
           7
100
AcDbLine
 10
27853.8990010538
 20
5894.549572987222
 11
27856.8990010538
 21
5894.549572987222
  0
LINE
  5
288
100
AcDbEntity
  8
0
  6
CONTINUOUS
 62
           7
100
AcDbLine
 10
27760.8990010538
 20
5894.549572987222
 11
27763.8990010538
 21
5894.549572987222
  0
LINE
  5
287
100
AcDbEntity
  8
0
  6
CONTINUOUS
 62
           7
100
AcDbLine
 10
27760.8990010538
 20
5954.549572987222
 11
27763.8990010538
 21
5954.549572987222
  0
LINE
  5
286
100
AcDbEntity
  8
0
  6
CONTINUOUS
 62
           7
100
AcDbLine
 10
27763.8990010538
 20
5894.549572987222
 11
27853.8990010538
 21
5894.549572987222
  0
LINE
  5
285
100
AcDbEntity
  8
0
  6
CONTINUOUS
 62
           7
100
AcDbLine
 10
27763.8990010538
 20
5954.549572987222
 11
27853.8990010538
 21
5954.549572987222
  0
LINE
  5
284
100
AcDbEntity
  8
0
  6
DOT_CENTER
 62
           3
100
AcDbLine
 10
27861.8990010538
 20
5879.549572987222
 11
27864.8990010538
 21
5879.549572987222
  0
LINE
  5
283
100
AcDbEntity
  8
1
  6
CONTINUOUS
 62
           7
100
AcDbLine
 10
27763.8990010538
 20
6002.549572987222
 11
27853.8990010538
 21
6002.549572987222
  0
LINE
  5
282
100
AcDbEntity
  8
0
  6
DOT_CENTER
 62
           3
100
AcDbLine
 10
27808.8990010538
 20
5393.549572987222
 11
27808.8990010538
 21
6013.549572987222
  0
LINE
  5
281
100
AcDbEntity
  8
1
  6
CONTINUOUS
 62
           7
100
AcDbLine
 10
27868.8990010538
 20
5813.549572987222
 11
27868.8990010538
 21
5763.549572987222
  0
LINE
  5
280
100
AcDbEntity
  8
0
  6
CONTINUOUS
 62
           7
100
AcDbLine
 10
27868.8990010538
 20
5763.549572987222
 11
27748.8990010538
 21
5763.549572987222
  0
LINE
  5
27F
100
AcDbEntity
  8
1
  6
CONTINUOUS
 62
           7
100
AcDbLine
 10
27748.8990010538
 20
5656.549572987222
 11
27868.8990010538
 21
5656.549572987222
  0
LINE
  5
27E
100
AcDbEntity
  8
0
  6
CONTINUOUS
 62
           7
100
AcDbLine
 10
27743.8990010538
 20
5661.549572987222
 11
27743.8990010538
 21
5758.549572987222
  0
LINE
  5
27D
100
AcDbEntity
  8
0
  6
CONTINUOUS
 62
           7
100
AcDbLine
 10
27873.8990010538
 20
5661.549572987222
 11
27873.8990010538
 21
5758.549572987222
  0
ENDBLK
  5
2EB
100
AcDbEntity
  8
0
100
AcDbBlockEnd
  0
BLOCK
  5
3D
100
AcDbEntity
  8
0
100
AcDbBlockBegin
  2
ANTRIEB_SA
 70
           0
 10
16776.19413407821
 20
19227.437150838039
 30
0.0
  3
ANTRIEB_SA
  1

  0
INSERT
  5
3E
100
AcDbEntity
  8
0
100
AcDbBlockReference
  2
GETRIEBEMOTOR_SA
 10
10271.532771618489
 20
3554.39725031252
  0
INSERT
  5
3F
100
AcDbEntity
  8
0
100
AcDbBlockReference
  2
_SEITENTEIL_UNTEN_VA__2
 10
4944.011680487134
 20
1740.893124144855
  0
INSERT
  5
40
100
AcDbEntity
  8
0
100
AcDbBlockReference
  2
GETRIEBEMOTOR_VA
 10
8459.487744224958
 20
6229.622937789765
  0
ENDBLK
  5
2EC
100
AcDbEntity
  8
0
100
AcDbBlockEnd
  0
BLOCK
  5
42
100
AcDbEntity
  8
0
100
AcDbBlockBegin
  2
_SCHALTKASTEN_VA
 70
           0
 10
10428.540802781101
 20
5781.122806826084
 30
0.0
  3
_SCHALTKASTEN_VA
  1

  0
DIMENSION
  5
348
100
AcDbEntity
  8
0
100
AcDbDimension
  2
*D50
 10
26826.8990010538
 20
3742.6410308297
 11
27000.806265488809
 21
3842.6410308297
 31
0.0
 70
           1
  1
<>
  3
ME10_DIM_16
100
AcDbAlignedDimension
 13
26751.8990010538
 23
3518.549572987216
 14
26826.8990010538
 24
3518.549572987216
  0
DIMENSION
  5
33B
100
AcDbEntity
  8
0
100
AcDbDimension
  2
*D49
 10
26971.58882739511
 20
1929.549572987216
 11
26871.58882739511
 21
2745.755304537968
 31
0.0
 53
90.0
  1
<>
  3
ME10_DIM_15
100
AcDbAlignedDimension
 13
26826.8990010538
 23
3339.549572987216
 14
26875.44023781026
 24
1929.549572987216
 50
90.0
100
AcDbRotatedDimension
  0
DIMENSION
  5
330
100
AcDbEntity
  8
0
100
AcDbDimension
  2
*D48
 10
22455.279522246132
 20
5262.099521322778
 11
22345.25066577231
 21
5362.099521322778
 31
0.0
 70
           1
  1
<>
  3
ME10_DIM_14
100
AcDbAlignedDimension
 13
22235.279522246121
 23
5056.549572987221
 14
22455.279522246132
 24
5056.549572987221
  0
LINE
  5
325
100
AcDbEntity
  8
1
  6
CONTINUOUS
 62
           7
100
AcDbLine
 10
26826.8990010538
 20
3518.549572987216
 11
26751.8990010538
 21
3518.549572987216
  0
LINE
  5
324
100
AcDbEntity
  8
1
  6
CONTINUOUS
 62
           7
100
AcDbLine
 10
26751.8990010538
 20
3518.549572987216
 11
26751.8990010538
 21
3341.14963415994
  0
LINE
  5
323
100
AcDbEntity
  8
1
  6
CONTINUOUS
 62
           7
100
AcDbLine
 10
26751.8990010538
 20
3339.549572987216
 11
26826.8990010538
 21
3339.549572987216
  0
LINE
  5
322
100
AcDbEntity
  8
1
  6
CONTINUOUS
 62
           7
100
AcDbLine
 10
26826.8990010538
 20
3339.549572987216
 11
26826.8990010538
 21
3518.549572987216
  0
LINE
  5
321
100
AcDbEntity
  8
1
  6
CONTINUOUS
 62
           7
100
AcDbLine
 10
26816.8990010538
 20
3508.549572987216
 11
26761.8990010538
 21
3508.549572987216
  0
LINE
  5
320
100
AcDbEntity
  8
1
  6
CONTINUOUS
 62
           7
100
AcDbLine
 10
26761.8990010538
 20
3508.549572987216
 11
26761.8990010538
 21
3468.549572987216
  0
LINE
  5
31F
100
AcDbEntity
  8
1
  6
CONTINUOUS
 62
           7
100
AcDbLine
 10
26761.8990010538
 20
3468.549572987216
 11
26816.8990010538
 21
3468.549572987216
  0
LINE
  5
31E
100
AcDbEntity
  8
1
  6
CONTINUOUS
 62
           7
100
AcDbLine
 10
26816.8990010538
 20
3468.549572987216
 11
26816.8990010538
 21
3508.549572987216
  0
LINE
  5
31D
100
AcDbEntity
  8
1
  6
CONTINUOUS
 62
           7
100
AcDbLine
 10
26781.899001053811
 20
3453.549572987217
 11
26796.8990010538
 21
3453.549572987217
  0
LINE
  5
31C
100
AcDbEntity
  8
1
  6
CONTINUOUS
 62
           7
100
AcDbLine
 10
26796.8990010538
 20
3453.549572987217
 11
26796.8990010538
 21
3438.549572987216
  0
LINE
  5
31B
100
AcDbEntity
  8
1
  6
CONTINUOUS
 62
           7
100
AcDbLine
 10
26796.8990010538
 20
3438.549572987216
 11
26781.899001053811
 21
3438.549572987216
  0
LINE
  5
31A
100
AcDbEntity
  8
1
  6
CONTINUOUS
 62
           7
100
AcDbLine
 10
26781.899001053811
 20
3438.549572987216
 11
26781.899001053811
 21
3453.549572987217
  0
LINE
  5
319
100
AcDbEntity
  8
1
  6
CONTINUOUS
 62
           7
100
AcDbLine
 10
26781.899001053811
 20
3422.549572987216
 11
26796.8990010538
 21
3422.549572987216
  0
LINE
  5
318
100
AcDbEntity
  8
1
  6
CONTINUOUS
 62
           7
100
AcDbLine
 10
26796.8990010538
 20
3422.549572987216
 11
26796.8990010538
 21
3407.549572987216
  0
LINE
  5
317
100
AcDbEntity
  8
1
  6
CONTINUOUS
 62
           7
100
AcDbLine
 10
26796.8990010538
 20
3407.549572987216
 11
26781.899001053811
 21
3407.549572987216
  0
LINE
  5
316
100
AcDbEntity
  8
1
  6
CONTINUOUS
 62
           7
100
AcDbLine
 10
26781.899001053811
 20
3407.549572987216
 11
26781.899001053811
 21
3422.549572987216
  0
LINE
  5
315
100
AcDbEntity
  8
1
  6
CONTINUOUS
 62
           7
100
AcDbLine
 10
26781.899001053811
 20
3391.549572987216
 11
26796.8990010538
 21
3391.549572987216
  0
LINE
  5
314
100
AcDbEntity
  8
1
  6
CONTINUOUS
 62
           7
100
AcDbLine
 10
26796.8990010538
 20
3391.549572987216
 11
26796.8990010538
 21
3374.549572987216
  0
LINE
  5
313
100
AcDbEntity
  8
1
  6
CONTINUOUS
 62
           7
100
AcDbLine
 10
26796.8990010538
 20
3374.549572987216
 11
26781.899001053811
 21
3374.549572987216
  0
LINE
  5
312
100
AcDbEntity
  8
1
  6
CONTINUOUS
 62
           7
100
AcDbLine
 10
26781.899001053811
 20
3374.549572987216
 11
26781.899001053811
 21
3391.549572987216
  0
LINE
  5
311
100
AcDbEntity
  8
1
  6
CONTINUOUS
 62
           7
100
AcDbLine
 10
22275.279522246132
 20
3518.549572987216
 11
22284.833878129812
 21
3518.549572987216
  0
LINE
  5
310
100
AcDbEntity
  8
1
  6
CONTINUOUS
 62
           7
100
AcDbLine
 10
22310.279522246132
 20
3518.549572987216
 11
22310.279522246132
 21
3339.549572987216
  0
LINE
  5
30F
100
AcDbEntity
  8
1
  6
CONTINUOUS
 62
           7
100
AcDbLine
 10
22310.279522246132
 20
3339.549572987216
 11
22284.833878129812
 21
3339.549572987216
  0
LINE
  5
30E
100
AcDbEntity
  8
1
  6
CONTINUOUS
 62
           7
100
AcDbLine
 10
22275.279522246132
 20
3339.549572987216
 11
22275.279522246132
 21
3494.868647974219
  0
LINE
  5
30D
100
AcDbEntity
  8
1
  6
CONTINUOUS
 62
           7
100
AcDbLine
 10
22455.279522246132
 20
5421.549572987222
 11
22235.279522246121
 21
5421.549572987222
  0
LINE
  5
30C
100
AcDbEntity
  8
1
  6
CONTINUOUS
 62
           7
100
AcDbLine
 10
22235.279522246121
 20
5421.549572987222
 11
22235.279522246121
 21
5411.549572987222
  0
LINE
  5
30B
100
AcDbEntity
  8
1
  6
CONTINUOUS
 62
           7
100
AcDbLine
 10
22235.279522246121
 20
5046.549572987221
 11
22455.279522246132
 21
5046.549572987221
  0
LINE
  5
30A
100
AcDbEntity
  8
1
  6
CONTINUOUS
 62
           7
100
AcDbLine
 10
22455.279522246132
 20
5046.549572987221
 11
22455.279522246132
 21
5056.549572987221
  0
LINE
  5
309
100
AcDbEntity
  8
1
  6
CONTINUOUS
 62
           7
100
AcDbLine
 10
22235.279522246121
 20
5046.549572987221
 11
22455.279522246132
 21
5046.549572987221
  0
LINE
  5
308
100
AcDbEntity
  8
1
  6
CONTINUOUS
 62
           7
100
AcDbLine
 10
22235.279522246121
 20
5056.549572987221
 11
22255.279522246132
 21
5056.549572987221
  0
LINE
  5
307
100
AcDbEntity
  8
1
  6
CONTINUOUS
 62
           7
100
AcDbLine
 10
22235.279522246121
 20
5056.549572987221
 11
22235.279522246121
 21
5046.549572987221
  0
LINE
  5
306
100
AcDbEntity
  8
1
  6
CONTINUOUS
 62
           7
100
AcDbLine
 10
22455.279522246132
 20
5056.549572987221
 11
22455.279522246132
 21
5411.549572987222
  0
LINE
  5
305
100
AcDbEntity
  8
1
  6
CONTINUOUS
 62
           7
100
AcDbLine
 10
22235.279522246121
 20
5411.549572987222
 11
22255.279522246132
 21
5411.549572987222
  0
LINE
  5
304
100
AcDbEntity
  8
1
  6
CONTINUOUS
 62
           7
100
AcDbLine
 10
22235.279522246121
 20
5411.549572987222
 11
22235.279522246121
 21
5288.313959994302
  0
LINE
  5
303
100
AcDbEntity
  8
1
  6
CONTINUOUS
 62
           7
100
AcDbLine
 10
22455.279522246132
 20
5411.549572987222
 11
22455.279522246132
 21
5421.549572987222
  0
LINE
  5
302
100
AcDbEntity
  8
1
  6
CONTINUOUS
 62
           7
100
AcDbLine
 10
22255.279522246132
 20
5411.549572987222
 11
22255.279522246132
 21
5056.549572987221
  0
LINE
  5
301
100
AcDbEntity
  8
1
  6
CONTINUOUS
 62
           7
100
AcDbLine
 10
22255.279522246132
 20
5056.549572987221
 11
22435.279522246121
 21
5056.549572987221
  0
LINE
  5
300
100
AcDbEntity
  8
1
  6
CONTINUOUS
 62
           7
100
AcDbLine
 10
22255.279522246132
 20
5411.549572987222
 11
22435.279522246121
 21
5411.549572987222
  0
LINE
  5
2FF
100
AcDbEntity
  8
1
  6
CONTINUOUS
 62
           7
100
AcDbLine
 10
22435.279522246121
 20
5411.549572987222
 11
22435.279522246121
 21
5056.549572987221
  0
LINE
  5
2FE
100
AcDbEntity
  8
1
  6
CONTINUOUS
 62
           7
100
AcDbLine
 10
22435.279522246121
 20
5056.549572987221
 11
22455.279522246132
 21
5056.549572987221
  0
LINE
  5
2FD
100
AcDbEntity
  8
1
  6
CONTINUOUS
 62
           7
100
AcDbLine
 10
22435.279522246121
 20
5411.549572987222
 11
22455.279522246132
 21
5411.549572987222
  0
LINE
  5
2FC
100
AcDbEntity
  8
1
  6
CONTINUOUS
 62
           7
100
AcDbLine
 10
26875.44023781026
 20
1929.549572987216
 11
26833.058761539811
 21
1929.549572987216
  0
LINE
  5
2FB
100
AcDbEntity
  8
1
  6
CONTINUOUS
 62
           7
100
AcDbLine
 10
26751.8990010538
 20
3518.549572987216
 11
26751.8990010538
 21
3576.506034217
  0
LINE
  5
2FA
100
AcDbEntity
  8
1
  6
CONTINUOUS
 62
           7
100
AcDbLine
 10
26751.8990010538
 20
3518.549572987216
 11
26751.8990010538
 21
3341.14963415994
  0
LINE
  5
2F9
100
AcDbEntity
  8
1
  6
CONTINUOUS
 62
           7
100
AcDbLine
 10
26751.8990010538
 20
3341.14963415994
 11
26751.8990010538
 21
3339.549572987216
  0
LINE
  5
2F8
100
AcDbEntity
  8
1
  6
CONTINUOUS
 62
           7
100
AcDbLine
 10
22275.279522246132
 20
3494.868647974219
 11
22275.279522246132
 21
3518.549572987216
  0
LINE
  5
2F7
100
AcDbEntity
  8
1
  6
CONTINUOUS
 62
           7
100
AcDbLine
 10
22284.833878129812
 20
3518.549572987216
 11
22284.833878129812
 21
3339.549572987216
  0
LINE
  5
2F6
100
AcDbEntity
  8
1
  6
CONTINUOUS
 62
           7
100
AcDbLine
 10
22284.833878129812
 20
3518.549572987216
 11
22310.279522246132
 21
3518.549572987216
  0
LINE
  5
2F5
100
AcDbEntity
  8
1
  6
CONTINUOUS
 62
           7
100
AcDbLine
 10
22284.833878129812
 20
3339.549572987216
 11
22275.279522246132
 21
3339.549572987216
  0
LINE
  5
2F4
100
AcDbEntity
  8
1
  6
CONTINUOUS
 62
           7
100
AcDbLine
 10
26786.8990010538
 20
815.429392648117
 11
26896.8990010538
 21
815.429392648117
  0
LINE
  5
2F3
100
AcDbEntity
  8
1
  6
CONTINUOUS
 62
           7
100
AcDbLine
 10
26896.8990010538
 20
815.429392648117
 11
26896.8990010538
 21
595.429392648117
  0
LINE
  5
2F2
100
AcDbEntity
  8
1
  6
CONTINUOUS
 62
           7
100
AcDbLine
 10
26896.8990010538
 20
595.429392648117
 11
26786.8990010538
 21
595.429392648117
  0
LINE
  5
2F1
100
AcDbEntity
  8
1
  6
CONTINUOUS
 62
           7
100
AcDbLine
 10
26786.8990010538
 20
595.429392648117
 11
26786.8990010538
 21
815.429392648117
  0
LINE
  5
2F0
100
AcDbEntity
  8
1
  6
CONTINUOUS
 62
           7
100
AcDbLine
 10
26786.8990010538
 20
5421.549572987222
 11
26896.8990010538
 21
5421.549572987222
  0
LINE
  5
2EF
100
AcDbEntity
  8
1
  6
CONTINUOUS
 62
           7
100
AcDbLine
 10
26786.8990010538
 20
5421.549572987222
 11
26786.8990010538
 21
5329.549572987222
  0
LINE
  5
2EE
100
AcDbEntity
  8
1
  6
CONTINUOUS
 62
           7
100
AcDbLine
 10
26896.8990010538
 20
5421.549572987222
 11
26896.8990010538
 21
5306.549572987222
  0
LINE
  5
2ED
100
AcDbEntity
  8
1
  6
CONTINUOUS
 62
           7
100
AcDbLine
 10
22235.279522246121
 20
5288.313959994302
 11
22235.279522246121
 21
5056.549572987221
  0
ENDBLK
  5
349
100
AcDbEntity
  8
0
100
AcDbBlockEnd
  0
BLOCK
  5
44
100
AcDbEntity
  8
0
100
AcDbBlockBegin
  2
MAUER_SA
 70
           0
 10
-857.287084134616
 20
1199.999999999999
 30
0.0
  3
MAUER_SA
  1

  0
HATCH
  5
35A
100
AcDbEntity
  8
0
  6
CONTINUOUS
 62
           6
100
AcDbHatch
 10
0.0
 20
0.0
 30
0.0
210
0.0
220
0.0
230
1.0
  2
USER
 70
           0
 71
           1
 91
        1
 92
        1
 93
        4
 72
           1
 10
22846.44023781026
 20
1929.5495729872159
 11
22846.44023781026
 21
1780.5495729872159
 72
           1
 10
22846.44023781026
 20
1780.5495729872159
 11
21875.44023781026
 21
1780.5495729872159
 72
           1
 10
21875.44023781026
 20
1929.5495729872159
 11
21875.44023781026
 21
1780.5495729872159
 72
           1
 10
22846.44023781026
 20
1929.5495729872159
 11
21875.44023781026
 21
1929.5495729872159
 97
        4
330
34B
330
34A
330
34C
330
34D
 75
           1
 76
           0
 52
45.0
 41
50.0
 77
           0
 78
           1
 53
45.0
 43
0.0
 44
0.0
 45
-35.355339059327378
 46
35.355339059327378
 79
           0
 98
        1
 10
0.0
 20
0.0
  0
HATCH
  5
359
100
AcDbEntity
  8
0
  6
CONTINUOUS
 62
           6
100
AcDbHatch
 10
0.0
 20
0.0
 30
0.0
210
0.0
220
0.0
230
1.0
  2
USER
 70
           0
 71
           1
 91
        1
 92
        1
 93
        4
 72
           1
 10
22460.279522246132
 20
5766.54957298722
 11
22460.279522246132
 21
4886.54957298722
 72
           1
 10
22460.279522246132
 20
4886.54957298722
 11
22610.279522246132
 21
4886.54957298722
 72
           1
 10
22610.279522246132
 20
4886.54957298722
 11
22610.279522246132
 21
5766.54957298722
 72
           1
 10
22610.279522246132
 20
5766.54957298722
 11
22460.279522246132
 21
5766.54957298722
 97
        4
330
352
330
353
330
350
330
351
 75
           1
 76
           0
 52
45.0
 41
50.0
 77
           0
 78
           1
 53
45.0
 43
0.0
 44
0.0
 45
-35.355339059327378
 46
35.355339059327378
 79
           0
 98
        1
 10
0.0
 20
0.0
  0
HATCH
  5
358
100
AcDbEntity
  8
0
  6
CONTINUOUS
 62
           6
100
AcDbHatch
 10
0.0
 20
0.0
 30
0.0
210
0.0
220
0.0
230
1.0
  2
USER
 70
           0
 71
           1
 91
        1
 92
        1
 93
        4
 72
           1
 10
26875.44023781026
 20
1929.5495729872159
 11
26875.44023781026
 21
1780.5495729872159
 72
           1
 10
26875.44023781026
 20
1780.5495729872159
 11
24144.44023781026
 21
1780.5495729872159
 72
           1
 10
24144.44023781026
 20
1929.5495729872159
 11
24144.44023781026
 21
1780.5495729872159
 72
           1
 10
26875.44023781026
 20
1929.5495729872159
 11
24144.44023781026
 21
1929.5495729872159
 97
        4
330
355
330
354
330
356
330
357
 75
           1
 76
           0
 52
45.0
 41
50.0
 77
           0
 78
           1
 53
45.0
 43
0.0
 44
0.0
 45
-35.355339059327378
 46
35.355339059327378
 79
           0
 98
        1
 10
0.0
 20
0.0
  0
LINE
  5
357
100
AcDbEntity
  8
1
  6
CONTINUOUS
 62
           7
100
AcDbLine
 10
26875.44023781026
 20
1929.549572987216
 11
24144.44023781026
 21
1929.549572987216
  0
LINE
  5
356
100
AcDbEntity
  8
1
  6
CONTINUOUS
 62
         250
100
AcDbLine
 10
24144.44023781026
 20
1929.549572987216
 11
24144.44023781026
 21
1780.549572987216
  0
LINE
  5
355
100
AcDbEntity
  8
1
  6
CONTINUOUS
 62
         250
100
AcDbLine
 10
26875.44023781026
 20
1929.549572987216
 11
26875.44023781026
 21
1780.549572987216
  0
LINE
  5
354
100
AcDbEntity
  8
1
  6
CONTINUOUS
 62
         250
100
AcDbLine
 10
26875.44023781026
 20
1780.549572987216
 11
24144.44023781026
 21
1780.549572987216
  0
LINE
  5
353
100
AcDbEntity
  8
1
  6
CONTINUOUS
 62
           7
100
AcDbLine
 10
22460.279522246132
 20
4886.54957298722
 11
22610.279522246132
 21
4886.54957298722
  0
LINE
  5
352
100
AcDbEntity
  8
1
  6
CONTINUOUS
 62
           7
100
AcDbLine
 10
22460.279522246132
 20
5766.54957298722
 11
22460.279522246132
 21
4886.54957298722
  0
LINE
  5
351
100
AcDbEntity
  8
1
  6
CONTINUOUS
 62
         250
100
AcDbLine
 10
22610.279522246132
 20
5766.54957298722
 11
22460.279522246132
 21
5766.54957298722
  0
LINE
  5
350
100
AcDbEntity
  8
1
  6
CONTINUOUS
 62
           7
100
AcDbLine
 10
22610.279522246132
 20
4886.54957298722
 11
22610.279522246132
 21
5766.54957298722
  0
LINE
  5
34F
100
AcDbEntity
  8
1
  6
DASHED
 62
           3
100
AcDbLine
 10
22610.279522246132
 20
4886.54957298722
 11
22610.279522246132
 21
1929.549572987216
  0
LINE
  5
34E
100
AcDbEntity
  8
1
  6
CONTINUOUS
 62
           7
100
AcDbLine
 10
22460.279522246132
 20
4886.54957298722
 11
22460.279522246132
 21
1929.549572987217
  0
LINE
  5
34D
100
AcDbEntity
  8
1
  6
CONTINUOUS
 62
           7
100
AcDbLine
 10
22846.44023781026
 20
1929.549572987216
 11
21875.44023781026
 21
1929.549572987216
  0
LINE
  5
34C
100
AcDbEntity
  8
1
  6
CONTINUOUS
 62
         250
100
AcDbLine
 10
21875.44023781026
 20
1929.549572987216
 11
21875.44023781026
 21
1780.549572987216
  0
LINE
  5
34B
100
AcDbEntity
  8
1
  6
CONTINUOUS
 62
         250
100
AcDbLine
 10
22846.44023781026
 20
1929.549572987216
 11
22846.44023781026
 21
1780.549572987216
  0
LINE
  5
34A
100
AcDbEntity
  8
1
  6
CONTINUOUS
 62
         250
100
AcDbLine
 10
22846.44023781026
 20
1780.549572987216
 11
21875.44023781026
 21
1780.549572987216
  0
ENDBLK
  5
35B
100
AcDbEntity
  8
0
100
AcDbBlockEnd
  0
BLOCK
  5
46
100
AcDbEntity
  8
0
100
AcDbBlockBegin
  2
STURZABDICHTUNG_SA
 70
           0
 10
-1398.952073997285
 20
1207.000000000002
 30
0.0
  3
STURZABDICHTUNG_SA
  1

  0
INSERT
  5
47
100
AcDbEntity
  8
0
100
AcDbBlockReference
  2
MAUER_SA
 10
-857.287084134616
 20
1199.999999999999
  0
ENDBLK
  5
35C
100
AcDbEntity
  8
0
100
AcDbBlockEnd
  0
BLOCK
  5
49
100
AcDbEntity
  8
0
100
AcDbBlockBegin
  2
VERBINDUNGSPROFIL_DS
 70
           0
 10
10097.729251104291
 20
5463.978888788721
 30
0.0
  3
VERBINDUNGSPROFIL_DS
  1

  0
LINE
  5
361
100
AcDbEntity
  8
1
  6
CONTINUOUS
 62
           7
100
AcDbLine
 10
26431.8990010538
 20
820.429392648117
 11
26431.8990010538
 21
760.429392648117
  0
LINE
  5
360
100
AcDbEntity
  8
1
  6
CONTINUOUS
 62
           7
100
AcDbLine
 10
24521.899001053811
 20
760.429392648117
 11
24521.899001053811
 21
820.429392648117
  0
LINE
  5
35F
100
AcDbEntity
  8
1
  6
CONTINUOUS
 62
           7
100
AcDbLine
 10
26431.8990010538
 20
760.429392648117
 11
24521.899001053811
 21
760.429392648117
  0
LINE
  5
35E
100
AcDbEntity
  8
1
  6
CONTINUOUS
 62
           7
100
AcDbLine
 10
26431.8990010538
 20
817.429392648117
 11
24521.899001053811
 21
817.429392648117
  0
LINE
  5
35D
100
AcDbEntity
  8
1
  6
CONTINUOUS
 62
           7
100
AcDbLine
 10
26431.8990010538
 20
820.429392648117
 11
24521.899001053811
 21
820.429392648117
  0
ENDBLK
  5
362
100
AcDbEntity
  8
0
100
AcDbBlockEnd
  0
BLOCK
  5
4B
100
AcDbEntity
  8
0
100
AcDbBlockBegin
  2
WINKEL__DREHMOMENTST_TZE14
 70
           0
 10
4099.356628369573
 20
-4496.89066605633
 30
0.0
  3
WINKEL__DREHMOMENTST_TZE14
  1

  0
ARC
  5
370
100
AcDbEntity
  8
0
  6
CONTINUOUS
 62
           7
100
AcDbCircle
 10
26782.8990010538
 20
471.429296114677
 40
26.0
100
AcDbArc
 50
179.999999999988
 51
-90.0
  0
ARC
  5
36F
100
AcDbEntity
  8
0
  6
CONTINUOUS
 62
           7
100
AcDbCircle
 10
26782.8990010538
 20
471.429296114677
 40
16.0
100
AcDbArc
 50
179.99999999998
 51
-90.0
  0
LINE
  5
36E
100
AcDbEntity
  8
0
  6
DOT_CENTER
 62
           3
100
AcDbLine
 10
26891.899001053811
 20
458.429296114682
 11
26891.899001053811
 21
442.429296114682
  0
LINE
  5
36D
100
AcDbEntity
  8
0
  6
DOT_CENTER
 62
           3
100
AcDbLine
 10
26827.899001053811
 20
458.429296114682
 11
26827.899001053811
 21
442.429296114677
  0
LINE
  5
36C
100
AcDbEntity
  8
0
  6
DOT_CENTER
 62
           3
100
AcDbLine
 10
26753.8990010538
 20
620.029296114679
 11
26769.8990010538
 21
620.029296114675
  0
LINE
  5
36B
100
AcDbEntity
  8
0
  6
DOT_CENTER
 62
           3
100
AcDbLine
 10
26753.8990010538
 20
559.029296114679
 11
26769.8990010538
 21
559.029296114679
  0
LINE
  5
36A
100
AcDbEntity
  8
0
  6
DOT_CENTER
 62
           3
100
AcDbLine
 10
26753.8990010538
 20
497.029296114679
 11
26769.8990010538
 21
497.029296114679
  0
LINE
  5
369
100
AcDbEntity
  8
0
  6
CONTINUOUS
 62
           7
100
AcDbLine
 10
26766.8990010538
 20
471.429296114682
 11
26766.8990010538
 21
670.429296114677
  0
LINE
  5
368
100
AcDbEntity
  8
0
  6
CONTINUOUS
 62
           7
100
AcDbLine
 10
26782.8990010538
 20
455.429296114682
 11
26907.899001053811
 21
455.429296114682
  0
LINE
  5
367
100
AcDbEntity
  8
0
  6
CONTINUOUS
 62
           7
100
AcDbLine
 10
26756.8990010538
 20
471.429296114682
 11
26756.8990010538
 21
670.429296114684
  0
LINE
  5
366
100
AcDbEntity
  8
0
  6
CONTINUOUS
 62
           7
100
AcDbLine
 10
26766.8990010538
 20
670.429296114677
 11
26756.8990010538
 21
670.429296114684
  0
LINE
  5
365
100
AcDbEntity
  8
0
  6
CONTINUOUS
 62
           7
100
AcDbLine
 10
26907.8990010538
 20
445.429296114677
 11
26907.899001053811
 21
455.429296114682
  0
LINE
  5
364
100
AcDbEntity
  8
0
  6
CONTINUOUS
 62
           7
100
AcDbLine
 10
26782.8990010538
 20
445.429296114677
 11
26907.8990010538
 21
445.429296114677
  0
LINE
  5
363
100
AcDbEntity
  8
0
  6
DOT_CENTER
 62
           3
100
AcDbLine
 10
26859.899001053811
 20
458.429296114677
 11
26859.8990010538
 21
442.429296114682
  0
ENDBLK
  5
371
100
AcDbEntity
  8
0
100
AcDbBlockEnd
  0
BLOCK
  5
4D
100
AcDbEntity
  8
0
100
AcDbBlockBegin
  2
_DREHMOMENTENST_TZE_DS
 70
           0
 10
4075.556628369581
 20
-4136.890666056326
 30
0.0
  3
_DREHMOMENTENST_TZE_DS
  1

  0
INSERT
  5
4E
100
AcDbEntity
  8
0
100
AcDbBlockReference
  2
WINKEL__DREHMOMENTST_TZE14
 10
4099.356628369573
 20
-4386.89066605633
  0
ENDBLK
  5
372
100
AcDbEntity
  8
0
100
AcDbBlockEnd
  0
BLOCK
  5
50
100
AcDbEntity
  8
0
100
AcDbBlockBegin
  2
_MOTORPLATTE_MIT_DREHMOM16
 70
           0
 10
4075.556628369581
 20
-4407.890666056326
 30
0.0
  3
_MOTORPLATTE_MIT_DREHMOM16
  1

  0
INSERT
  5
51
100
AcDbEntity
  8
0
100
AcDbBlockReference
  2
_DREHMOMENTENST_TZE_DS
 10
4075.556628369581
 20
-4136.890666056326
  0
ENDBLK
  5
373
100
AcDbEntity
  8
0
100
AcDbBlockEnd
  0
BLOCK
  5
53
100
AcDbEntity
  8
0
100
AcDbBlockBegin
  2
E_MOTOR_DS
 70
           0
 10
4514.356628369576
 20
-3897.890667325853
 30
0.0
  3
E_MOTOR_DS
  1

  0
DIMENSION
  5
38E
100
AcDbEntity
  8
0
100
AcDbDimension
  2
*D51
 10
27475.65012274071
 20
641.429388408627
 11
27375.65012274071
 21
759.361908990877
 31
0.0
 53
90.0
  1
<>
  3
ME10_DIM_17
100
AcDbAlignedDimension
 13
27184.8990010538
 23
886.429294845144
 14
27241.89899749032
 24
641.429388408627
 50
90.0
100
AcDbRotatedDimension
  0
ARC
  5
383
100
AcDbEntity
  8
1
  6
CONTINUOUS
 62
           7
100
AcDbCircle
 10
27176.899002183221
 20
789.429387613149
 40
82.999896165545
100
AcDbArc
 50
-40.620618742752
 51
-139.3793795502
  0
ARC
  5
382
100
AcDbEntity
  8
1
  6
CONTINUOUS
 62
           7
100
AcDbCircle
 10
27176.89899617726
 20
789.429391378582
 40
87.999990159582
100
AcDbArc
 50
90.0
 51
-122.763871649798
  0
ARC
  5
381
100
AcDbEntity
  8
1
  6
CONTINUOUS
 62
           7
100
AcDbCircle
 10
27176.89899617726
 20
789.429391378582
 40
87.999990159578
100
AcDbArc
 50
-57.236135423763
 51
0.0
  0
ARC
  5
380
100
AcDbEntity
  8
1
  6
CONTINUOUS
 62
           7
100
AcDbCircle
 10
27176.89899617726
 20
789.429391378582
 40
87.99999015958
100
AcDbArc
 50
0.0
 51
90.0
  0
LINE
  5
37F
100
AcDbEntity
  8
1
  6
CONTINUOUS
 62
           7
100
AcDbLine
 10
27165.254160594999
 20
886.429294845144
 11
27184.8990010538
 21
886.429294845144
  0
LINE
  5
37E
100
AcDbEntity
  8
0
  6
CONTINUOUS
 62
           7
100
AcDbLine
 10
27239.898999958721
 20
648.429388530907
 11
27113.899006017669
 21
648.429394341551
  0
LINE
  5
37D
100
AcDbEntity
  8
1
  6
CONTINUOUS
 62
           7
100
AcDbLine
 10
27239.898999958721
 20
735.392520163432
 11
27239.898999958721
 21
648.429388530907
  0
LINE
  5
37C
100
AcDbEntity
  8
1
  6
CONTINUOUS
 62
           7
100
AcDbLine
 10
27241.89899749032
 20
648.429388438677
 11
27241.89899749032
 21
641.429388408627
  0
LINE
  5
37B
100
AcDbEntity
  8
0
  6
CONTINUOUS
 62
           7
100
AcDbLine
 10
27241.89899749032
 20
648.429388438677
 11
27239.898999958721
 21
648.429388530907
  0
LINE
  5
37A
100
AcDbEntity
  8
1
  6
CONTINUOUS
 62
           7
100
AcDbLine
 10
27113.899006017669
 20
648.429394341551
 11
27113.899006017669
 21
735.392518286431
  0
LINE
  5
379
100
AcDbEntity
  8
0
  6
CONTINUOUS
 62
           7
100
AcDbLine
 10
27129.27533080849
 20
715.429494318319
 11
27224.522652410229
 21
715.429488438849
  0
LINE
  5
378
100
AcDbEntity
  8
0
  6
CONTINUOUS
 62
           7
100
AcDbLine
 10
27113.899006017669
 20
648.429394341551
 11
27111.899006017669
 21
648.429394465004
  0
LINE
  5
377
100
AcDbEntity
  8
0
  6
CONTINUOUS
 62
           7
100
AcDbLine
 10
27111.899005585579
 20
641.429394465004
 11
27241.89899749032
 21
641.429388408627
  0
LINE
  5
376
100
AcDbEntity
  8
0
  6
CONTINUOUS
 62
           7
100
AcDbLine
 10
27111.899006017669
 20
648.429394465004
 11
27111.899005585579
 21
641.429394465004
  0
LINE
  5
375
100
AcDbEntity
  8
1
  6
DOT_CENTER
 62
           3
100
AcDbLine
 10
27267.898986336841
 20
789.429391378582
 11
27085.89900601768
 21
789.429391378582
  0
LINE
  5
374
100
AcDbEntity
  8
1
  6
DOT_CENTER
 62
           3
100
AcDbLine
 10
27176.89899617726
 20
877.429381538164
 11
27176.89899617726
 21
698.429401218998
  0
ENDBLK
  5
38F
100
AcDbEntity
  8
0
100
AcDbBlockEnd
  0
BLOCK
  5
55
100
AcDbEntity
  8
0
100
AcDbBlockBegin
  2
GETRIEBE_DS
 70
           0
 10
4514.356628369576
 20
-3897.890668595384
 30
0.0
  3
GETRIEBE_DS
  1

  0
LWPOLYLINE
  5
3B9
100
AcDbEntity
  8
0
  6
DOT_CENTER
 62
           3
 60
           1
100
AcDbPolyline
 90
       29
 70
           1
 10
27115.898998902951
 20
749.429396114678
 10
27118.89889890296
 20
749.429396114678
 10
27118.89889890296
 20
729.429396114678
 10
27126.398998902951
 20
729.429396114678
 10
27131.898983624989
 20
729.429396114678
 10
27131.898983624989
 20
727.429396114678
 10
27221.89898631824
 20
727.429396114678
 10
27221.89898631824
 20
729.429396114678
 10
27227.398998902951
 20
729.429396114678
 10
27234.898998902951
 20
729.429396114678
 10
27234.898998902951
 20
749.429396114678
 10
27237.898998902951
 20
749.429396114678
 10
27237.898998902951
 20
829.429396114678
 10
27234.898998902951
 20
829.429396114678
 10
27234.898998902951
 20
849.429396114678
 10
27227.398998902951
 20
849.429396114678
 10
27221.89898631824
 20
849.429396114678
 10
27221.89898631824
 20
874.429296114677
 10
27234.898998902951
 20
874.429296114677
 10
27234.898998902951
 20
889.429296114677
 10
27118.898998902951
 20
889.429296114677
 10
27118.898998902951
 20
874.429296114677
 10
27131.898983624989
 20
874.429296114677
 10
27131.898983624989
 20
849.429396114678
 10
27126.398998902951
 20
849.429396114678
 10
27118.89889890296
 20
849.429396114678
 10
27118.89889890296
 20
829.429396114678
 10
27115.898998902951
 20
829.429396114678
 10
27115.898998902951
 20
749.429396114678
  0
LINE
  5
3B8
100
AcDbEntity
  8
0
  6
DOT_CENTER
 62
           3
100
AcDbLine
 10
27129.398998902951
 20
871.429296114677
 11
27129.398998902951
 21
892.429296114677
  0
LINE
  5
3B7
100
AcDbEntity
  8
0
  6
DOT_CENTER
 62
           3
100
AcDbLine
 10
27224.398998902951
 20
871.429296114677
 11
27224.398998902951
 21
892.429296114677
  0
LINE
  5
3B6
100
AcDbEntity
  8
0
  6
DOT_CENTER
 62
           3
100
AcDbLine
 10
27240.898998902951
 20
789.429390997489
 11
27112.898998902951
 21
789.429396231864
  0
LINE
  5
3B5
100
AcDbEntity
  8
0
  6
DOT_CENTER
 62
           3
100
AcDbLine
 10
27176.89898871777
 20
892.429296114677
 11
27176.898999088149
 21
724.429396114678
  0
LINE
  5
3B4
100
AcDbEntity
  8
0
  6
CONTINUOUS
 62
           7
100
AcDbLine
 10
27234.898998902951
 20
849.429396114678
 11
27234.898998902951
 21
829.429396114678
  0
LINE
  5
3B3
100
AcDbEntity
  8
0
  6
CONTINUOUS
 62
           7
100
AcDbLine
 10
27234.898998902951
 20
829.429396114678
 11
27234.898998902951
 21
749.429396114678
  0
LINE
  5
3B2
100
AcDbEntity
  8
0
  6
CONTINUOUS
 62
           7
100
AcDbLine
 10
27234.898998902951
 20
829.429396114678
 11
27237.898998902951
 21
829.429396114678
  0
LINE
  5
3B1
100
AcDbEntity
  8
0
  6
CONTINUOUS
 62
           7
100
AcDbLine
 10
27237.898998902951
 20
829.429396114678
 11
27237.898998902951
 21
749.429396114678
  0
LINE
  5
3B0
100
AcDbEntity
  8
0
  6
CONTINUOUS
 62
           7
100
AcDbLine
 10
27237.898998902951
 20
749.429396114678
 11
27234.898998902951
 21
749.429396114678
  0
LINE
  5
3AF
100
AcDbEntity
  8
0
  6
CONTINUOUS
 62
           7
100
AcDbLine
 10
27118.89889890296
 20
849.429396114678
 11
27118.89889890296
 21
829.429396114678
  0
LINE
  5
3AE
100
AcDbEntity
  8
0
  6
CONTINUOUS
 62
           7
100
AcDbLine
 10
27118.89889890296
 20
829.429396114678
 11
27118.89889890296
 21
749.429396114678
  0
LINE
  5
3AD
100
AcDbEntity
  8
0
  6
CONTINUOUS
 62
           7
100
AcDbLine
 10
27118.89889890296
 20
829.429396114678
 11
27115.898998902951
 21
829.429396114678
  0
LINE
  5
3AC
100
AcDbEntity
  8
0
  6
CONTINUOUS
 62
           7
100
AcDbLine
 10
27115.898998902951
 20
829.429396114678
 11
27115.898998902951
 21
749.429396114678
  0
LINE
  5
3AB
100
AcDbEntity
  8
0
  6
CONTINUOUS
 62
           7
100
AcDbLine
 10
27115.898998902951
 20
749.429396114678
 11
27118.89889890296
 21
749.429396114678
  0
LINE
  5
3AA
100
AcDbEntity
  8
0
  6
CONTINUOUS
 62
           7
100
AcDbLine
 10
27227.398998902951
 20
849.429396114678
 11
27234.898998902951
 21
849.429396114678
  0
LINE
  5
3A9
100
AcDbEntity
  8
0
  6
CONTINUOUS
 62
           7
100
AcDbLine
 10
27234.898998902951
 20
749.429396114678
 11
27234.898998902951
 21
729.429396114678
  0
LINE
  5
3A8
100
AcDbEntity
  8
0
  6
CONTINUOUS
 62
           7
100
AcDbLine
 10
27234.898998902951
 20
729.429396114678
 11
27227.398998902951
 21
729.429396114678
  0
LINE
  5
3A7
100
AcDbEntity
  8
0
  6
CONTINUOUS
 62
           7
100
AcDbLine
 10
27126.398998902951
 20
849.429396114678
 11
27118.89889890296
 21
849.429396114678
  0
LINE
  5
3A6
100
AcDbEntity
  8
0
  6
CONTINUOUS
 62
           7
100
AcDbLine
 10
27118.89889890296
 20
749.429396114678
 11
27118.89889890296
 21
729.429396114678
  0
LINE
  5
3A5
100
AcDbEntity
  8
0
  6
CONTINUOUS
 62
           7
100
AcDbLine
 10
27118.89889890296
 20
729.429396114678
 11
27126.398998902951
 21
729.429396114678
  0
LINE
  5
3A4
100
AcDbEntity
  8
0
  6
CONTINUOUS
 62
           7
100
AcDbLine
 10
27221.89898631824
 20
874.429296114677
 11
27221.89898631824
 21
849.429396114678
  0
LINE
  5
3A3
100
AcDbEntity
  8
0
  6
CONTINUOUS
 62
           7
100
AcDbLine
 10
27221.89898631824
 20
849.429396114678
 11
27221.89898631824
 21
729.429396114678
  0
LINE
  5
3A2
100
AcDbEntity
  8
0
  6
CONTINUOUS
 62
           7
100
AcDbLine
 10
27221.89898631824
 20
849.429396114678
 11
27227.398998902951
 21
849.429396114678
  0
LINE
  5
3A1
100
AcDbEntity
  8
0
  6
CONTINUOUS
 62
           7
100
AcDbLine
 10
27227.398998902951
 20
849.429396114678
 11
27227.398998902951
 21
729.429396114678
  0
LINE
  5
3A0
100
AcDbEntity
  8
0
  6
CONTINUOUS
 62
           7
100
AcDbLine
 10
27227.398998902951
 20
729.429396114678
 11
27221.89898631824
 21
729.429396114678
  0
LINE
  5
39F
100
AcDbEntity
  8
0
  6
CONTINUOUS
 62
           7
100
AcDbLine
 10
27131.898983624989
 20
727.429396114678
 11
27131.898983624989
 21
729.429396114678
  0
LINE
  5
39E
100
AcDbEntity
  8
0
  6
CONTINUOUS
 62
           7
100
AcDbLine
 10
27131.898983624989
 20
729.429396114678
 11
27131.898983624989
 21
849.429396114678
  0
LINE
  5
39D
100
AcDbEntity
  8
0
  6
CONTINUOUS
 62
           7
100
AcDbLine
 10
27131.898983624989
 20
849.429396114678
 11
27126.398998902951
 21
849.429396114678
  0
LINE
  5
39C
100
AcDbEntity
  8
0
  6
CONTINUOUS
 62
           7
100
AcDbLine
 10
27126.398998902951
 20
849.429396114678
 11
27126.398998902951
 21
729.429396114678
  0
LINE
  5
39B
100
AcDbEntity
  8
0
  6
CONTINUOUS
 62
           7
100
AcDbLine
 10
27126.398998902951
 20
729.429396114678
 11
27131.898983624989
 21
729.429396114678
  0
LINE
  5
39A
100
AcDbEntity
  8
0
  6
CONTINUOUS
 62
           7
100
AcDbLine
 10
27234.898998902951
 20
874.429296114677
 11
27221.89898631824
 21
874.429296114677
  0
LINE
  5
399
100
AcDbEntity
  8
0
  6
CONTINUOUS
 62
           7
100
AcDbLine
 10
27221.89898631824
 20
886.429296114677
 11
27221.89898631824
 21
874.429296114677
  0
LINE
  5
398
100
AcDbEntity
  8
0
  6
CONTINUOUS
 62
           7
100
AcDbLine
 10
27131.898983624989
 20
849.429396114678
 11
27131.898983624989
 21
874.429296114677
  0
LINE
  5
397
100
AcDbEntity
  8
0
  6
CONTINUOUS
 62
           7
100
AcDbLine
 10
27118.898998902951
 20
889.429296114677
 11
27234.898998902951
 21
889.429296114677
  0
LINE
  5
396
100
AcDbEntity
  8
0
  6
CONTINUOUS
 62
           7
100
AcDbLine
 10
27234.898998902951
 20
889.429296114677
 11
27234.898998902951
 21
874.429296114677
  0
LINE
  5
395
100
AcDbEntity
  8
0
  6
CONTINUOUS
 62
           7
100
AcDbLine
 10
27131.898983624989
 20
874.429296114677
 11
27118.898998902951
 21
874.429296114677
  0
LINE
  5
394
100
AcDbEntity
  8
0
  6
CONTINUOUS
 62
           7
100
AcDbLine
 10
27118.898998902951
 20
874.429296114677
 11
27118.898998902951
 21
889.429296114677
  0
LINE
  5
393
100
AcDbEntity
  8
0
  6
CONTINUOUS
 62
           7
100
AcDbLine
 10
27131.898983624989
 20
886.429296114677
 11
27221.89898631824
 21
886.429296114677
  0
LINE
  5
392
100
AcDbEntity
  8
0
  6
CONTINUOUS
 62
           7
100
AcDbLine
 10
27221.89898631824
 20
729.429396114678
 11
27221.89898631824
 21
727.429396114678
  0
LINE
  5
391
100
AcDbEntity
  8
0
  6
CONTINUOUS
 62
           7
100
AcDbLine
 10
27221.89898631824
 20
727.429396114678
 11
27131.898983624989
 21
727.429396114678
  0
LINE
  5
390
100
AcDbEntity
  8
0
  6
CONTINUOUS
 62
           7
100
AcDbLine
 10
27131.898983624989
 20
874.429296114677
 11
27131.898983624989
 21
886.429296114677
  0
ENDBLK
  5
3BA
100
AcDbEntity
  8
0
100
AcDbBlockEnd
  0
BLOCK
  5
57
100
AcDbEntity
  8
0
100
AcDbBlockBegin
  2
_MOTOR_DS
 70
           0
 10
4078.556628369577
 20
-4406.890666056323
 30
0.0
  3
_MOTOR_DS
  1

  0
INSERT
  5
58
100
AcDbEntity
  8
0
100
AcDbBlockReference
  2
E_MOTOR_DS
 10
4189.356628369576
 20
-4231.890666056323
  0
INSERT
  5
59
100
AcDbEntity
  8
0
100
AcDbBlockReference
  2
GETRIEBE_DS
 10
4189.356628369576
 20
-4231.890668595384
  0
ENDBLK
  5
3BB
100
AcDbEntity
  8
0
100
AcDbBlockEnd
  0
BLOCK
  5
5B
100
AcDbEntity
  8
0
100
AcDbBlockBegin
  2
_ANTRIEB_DS
 70
           0
 10
543.459974590814
 20
-3138.223710638835
 30
0.0
  3
_ANTRIEB_DS
  1

  0
INSERT
  5
5C
100
AcDbEntity
  8
0
100
AcDbBlockReference
  2
_MOTORPLATTE_MIT_DREHMOM16
 10
4075.556628369581
 20
-4407.890666056326
  0
INSERT
  5
5D
100
AcDbEntity
  8
0
100
AcDbBlockReference
  2
_MOTOR_DS
 10
4078.556628369577
 20
-4406.890666056323
  0
ENDBLK
  5
3BC
100
AcDbEntity
  8
0
100
AcDbBlockEnd
  0
BLOCK
  5
5F
100
AcDbEntity
  8
0
100
AcDbBlockBegin
  2
SEITENPROFIL_DS
 70
           0
 10
8128.528608788558
 20
-1321.124398798776
 30
0.0
  3
SEITENPROFIL_DS
  1

  0
DIMENSION
  5
48D
100
AcDbEntity
  8
0
100
AcDbDimension
  2
*D54
 10
24151.899001053811
 20
170.130431509686
 11
23973.543663999411
 21
270.130431509686
 31
0.0
  1
<>
  3
ME10_DIM_20
100
AcDbAlignedDimension
 13
24201.899001053811
 23
345.429392648117
 14
24151.899001053811
 24
345.429392648117
100
AcDbRotatedDimension
  0
DIMENSION
  5
480
100
AcDbEntity
  8
0
100
AcDbDimension
  2
*D53
 10
24526.899001053811
 20
-184.572621729187
 11
24380.97284677381
 21
-84.572621729187
 31
0.0
  1
<>
  3
ME10_DIM_19
100
AcDbAlignedDimension
 13
24201.899001053811
 23
345.429392648117
 14
24526.899001053811
 24
690.429392648117
100
AcDbRotatedDimension
  0
DIMENSION
  5
475
100
AcDbEntity
  8
0
100
AcDbDimension
  2
*D52
 10
26751.899001053811
 20
-184.633255482926
 11
26585.01412935981
 21
-84.633255482926
 31
0.0
  1
<>
  3
ME10_DIM_18
100
AcDbAlignedDimension
 13
26426.8990010538
 23
706.429392648117
 14
26751.899001053811
 24
345.429392648117
100
AcDbRotatedDimension
  0
ARC
  5
46A
100
AcDbEntity
  8
1
  6
CONTINUOUS
 62
           7
100
AcDbCircle
 10
26437.8990010538
 20
669.849564038803
 40
6.0
100
AcDbArc
 50
180.0
 51
-107.242205206089
  0
ARC
  5
469
100
AcDbEntity
  8
1
  6
CONTINUOUS
 62
           7
100
AcDbCircle
 10
26437.8990010538
 20
669.849564038803
 40
3.0
100
AcDbArc
 50
180.0
 51
-107.242205206089
  0
ARC
  5
468
100
AcDbEntity
  8
1
  6
CONTINUOUS
 62
           7
100
AcDbCircle
 10
24515.899001053811
 20
669.849564038803
 40
5.999999999998
100
AcDbArc
 50
-72.757794793845
 51
0.0
  0
ARC
  5
467
100
AcDbEntity
  8
1
  6
CONTINUOUS
 62
           7
100
AcDbCircle
 10
24515.899001053811
 20
669.849564038803
 40
2.999999999998
100
AcDbArc
 50
-72.757794793911
 51
0.0
  0
ARC
  5
466
100
AcDbEntity
  8
1
  6
CONTINUOUS
 62
           7
100
AcDbCircle
 10
22308.19969363682
 20
942.820429377658
 40
6.0
100
AcDbArc
 50
90.0
 51
162.757794793811
  0
ARC
  5
465
100
AcDbEntity
  8
1
  6
CONTINUOUS
 62
           7
100
AcDbCircle
 10
22308.19969363682
 20
942.820429377658
 40
3.0
100
AcDbArc
 50
90.0
 51
162.757794793901
  0
CIRCLE
  5
464
100
AcDbEntity
  8
1
  6
CONTINUOUS
 62
           7
100
AcDbCircle
 10
26636.8990010538
 20
750.429392648117
 40
19.0
  0
CIRCLE
  5
463
100
AcDbEntity
  8
1
  6
CONTINUOUS
 62
           7
100
AcDbCircle
 10
26636.8990010538
 20
680.429392648117
 40
19.0
  0
CIRCLE
  5
462
100
AcDbEntity
  8
1
  6
CONTINUOUS
 62
           7
100
AcDbCircle
 10
26701.899001053811
 20
680.429392648117
 40
19.000000000011
  0
CIRCLE
  5
461
100
AcDbEntity
  8
1
  6
CONTINUOUS
 62
           7
100
AcDbCircle
 10
26701.899001053811
 20
750.429392648117
 40
19.000000000011
  0
CIRCLE
  5
460
100
AcDbEntity
  8
1
  6
CONTINUOUS
 62
           7
100
AcDbCircle
 10
26701.899001053811
 20
680.429392648117
 40
25.000000000011
  0
CIRCLE
  5
45F
100
AcDbEntity
  8
1
  6
CONTINUOUS
 62
           7
100
AcDbCircle
 10
26636.8990010538
 20
680.429392648117
 40
25.0
  0
CIRCLE
  5
45E
100
AcDbEntity
  8
1
  6
CONTINUOUS
 62
           7
100
AcDbCircle
 10
26701.899001053811
 20
750.429392648117
 40
25.000000000011
  0
CIRCLE
  5
45D
100
AcDbEntity
  8
1
  6
CONTINUOUS
 62
           7
100
AcDbCircle
 10
26636.8990010538
 20
750.429392648117
 40
25.0
  0
CIRCLE
  5
45C
100
AcDbEntity
  8
1
  6
CONTINUOUS
 62
           7
100
AcDbCircle
 10
24316.899001053811
 20
750.429392648117
 40
19.0
  0
CIRCLE
  5
45B
100
AcDbEntity
  8
1
  6
CONTINUOUS
 62
           7
100
AcDbCircle
 10
24316.899001053811
 20
680.429392648117
 40
19.0
  0
CIRCLE
  5
45A
100
AcDbEntity
  8
1
  6
CONTINUOUS
 62
           7
100
AcDbCircle
 10
24251.899001053811
 20
680.429392648117
 40
19.0
  0
CIRCLE
  5
459
100
AcDbEntity
  8
1
  6
CONTINUOUS
 62
           7
100
AcDbCircle
 10
24251.899001053811
 20
750.429392648117
 40
19.0
  0
CIRCLE
  5
458
100
AcDbEntity
  8
1
  6
CONTINUOUS
 62
           7
100
AcDbCircle
 10
24251.899001053811
 20
680.429392648117
 40
25.0
  0
CIRCLE
  5
457
100
AcDbEntity
  8
1
  6
CONTINUOUS
 62
           7
100
AcDbCircle
 10
24316.899001053811
 20
680.429392648117
 40
25.0
  0
CIRCLE
  5
456
100
AcDbEntity
  8
1
  6
CONTINUOUS
 62
           7
100
AcDbCircle
 10
24251.899001053811
 20
750.429392648117
 40
25.0
  0
CIRCLE
  5
455
100
AcDbEntity
  8
1
  6
CONTINUOUS
 62
           7
100
AcDbCircle
 10
24316.899001053811
 20
750.429392648117
 40
25.0
  0
CIRCLE
  5
454
100
AcDbEntity
  8
1
  6
CONTINUOUS
 62
           7
100
AcDbCircle
 10
22388.779522246139
 20
743.820429377658
 40
19.0
  0
CIRCLE
  5
453
100
AcDbEntity
  8
1
  6
CONTINUOUS
 62
           7
100
AcDbCircle
 10
22318.779522246132
 20
743.820429377658
 40
19.0
  0
CIRCLE
  5
452
100
AcDbEntity
  8
1
  6
CONTINUOUS
 62
           7
100
AcDbCircle
 10
22318.779522246132
 20
678.820429377649
 40
19.000000000009
  0
CIRCLE
  5
451
100
AcDbEntity
  8
1
  6
CONTINUOUS
 62
           7
100
AcDbCircle
 10
22388.779522246139
 20
678.820429377649
 40
19.000000000009
  0
CIRCLE
  5
450
100
AcDbEntity
  8
1
  6
CONTINUOUS
 62
           7
100
AcDbCircle
 10
22318.779522246132
 20
678.820429377649
 40
25.000000000009
  0
CIRCLE
  5
44F
100
AcDbEntity
  8
1
  6
CONTINUOUS
 62
           7
100
AcDbCircle
 10
22318.779522246132
 20
743.820429377658
 40
25.0
  0
CIRCLE
  5
44E
100
AcDbEntity
  8
1
  6
CONTINUOUS
 62
           7
100
AcDbCircle
 10
22388.779522246139
 20
678.820429377649
 40
25.000000000009
  0
CIRCLE
  5
44D
100
AcDbEntity
  8
1
  6
CONTINUOUS
 62
           7
100
AcDbCircle
 10
22388.779522246139
 20
743.820429377658
 40
25.0
  0
LINE
  5
44C
100
AcDbEntity
  8
1
  6
DOT_CENTER
 62
           3
100
AcDbLine
 10
24151.899001053811
 20
455.429392648117
 11
24151.899001053811
 21
345.429392648117
  0
LINE
  5
44B
100
AcDbEntity
  8
1
  6
DOT_CENTER
 62
           3
100
AcDbLine
 10
24151.899001053811
 20
345.429392648117
 11
24201.899001053811
 21
345.429392648117
  0
LINE
  5
44A
100
AcDbEntity
  8
1
  6
DOT_CENTER
 62
           3
100
AcDbLine
 10
24151.899001053811
 20
540.248510305059
 11
24151.899001053811
 21
455.429392648117
  0
LINE
  5
449
100
AcDbEntity
  8
1
  6
CONTINUOUS
 62
           7
100
AcDbLine
 10
24201.899001053811
 20
540.248510305059
 11
24201.899001053811
 21
820.429392648117
  0
LINE
  5
448
100
AcDbEntity
  8
1
  6
DOT_CENTER
 62
           3
100
AcDbLine
 10
24201.899001053811
 20
540.248510305059
 11
24151.899001053811
 21
540.248510305059
  0
LINE
  5
447
100
AcDbEntity
  8
1
  6
CONTINUOUS
 62
           7
100
AcDbLine
 10
26581.8990010538
 20
346.929392648117
 11
26751.899001053811
 21
346.929392648117
  0
LINE
  5
446
100
AcDbEntity
  8
1
  6
CONTINUOUS
 62
           7
100
AcDbLine
 10
24201.899001053811
 20
346.929392648117
 11
24371.899001053811
 21
346.929392648117
  0
LINE
  5
445
100
AcDbEntity
  8
1
  6
CONTINUOUS
 62
           7
100
AcDbLine
 10
26581.8990010538
 20
618.875527927979
 11
26484.8990010538
 21
648.980360447002
  0
LINE
  5
444
100
AcDbEntity
  8
1
  6
CONTINUOUS
 62
           7
100
AcDbLine
 10
26581.8990010538
 20
622.016690917726
 11
26484.8990010538
 21
652.121523436746
  0
LINE
  5
443
100
AcDbEntity
  8
1
  6
CONTINUOUS
 62
           7
100
AcDbLine
 10
26481.8990010538
 20
653.052600731151
 11
26437.00976611365
 21
666.984383203113
  0
LINE
  5
442
100
AcDbEntity
  8
1
  6
CONTINUOUS
 62
           7
100
AcDbLine
 10
26481.8990010538
 20
649.911437741404
 11
26436.120531173499
 21
664.119202367423
  0
LINE
  5
441
100
AcDbEntity
  8
1
  6
CONTINUOUS
 62
           7
100
AcDbLine
 10
26434.8990010538
 20
669.849564038803
 11
26434.8990010538
 21
690.429392648117
  0
LINE
  5
440
100
AcDbEntity
  8
1
  6
CONTINUOUS
 62
           7
100
AcDbLine
 10
26431.8990010538
 20
669.849564038803
 11
26431.8990010538
 21
690.429392648117
  0
LINE
  5
43F
100
AcDbEntity
  8
1
  6
CONTINUOUS
 62
           7
100
AcDbLine
 10
26584.8990010538
 20
345.429392648117
 11
26584.8990010538
 21
401.429392648117
  0
LINE
  5
43E
100
AcDbEntity
  8
1
  6
CONTINUOUS
 62
           7
100
AcDbLine
 10
26581.8990010538
 20
345.429392648117
 11
26581.8990010538
 21
401.429392648117
  0
LINE
  5
43D
100
AcDbEntity
  8
1
  6
CONTINUOUS
 62
           7
100
AcDbLine
 10
26581.8990010538
 20
345.429392648117
 11
26751.899001053811
 21
345.429392648117
  0
LINE
  5
43C
100
AcDbEntity
  8
1
  6
CONTINUOUS
 62
           7
100
AcDbLine
 10
26489.8990010538
 20
218.429392648117
 11
26489.8990010538
 21
203.429392648117
  0
LINE
  5
43B
100
AcDbEntity
  8
1
  6
CONTINUOUS
 62
           7
100
AcDbLine
 10
26476.8990010538
 20
218.429392648117
 11
26489.8990010538
 21
218.429392648117
  0
LINE
  5
43A
100
AcDbEntity
  8
1
  6
CONTINUOUS
 62
           7
100
AcDbLine
 10
26476.8990010538
 20
203.429392648117
 11
26476.8990010538
 21
218.429392648117
  0
LINE
  5
439
100
AcDbEntity
  8
1
  6
CONTINUOUS
 62
           7
100
AcDbLine
 10
26489.8990010538
 20
203.429392648117
 11
26476.8990010538
 21
203.429392648117
  0
LINE
  5
438
100
AcDbEntity
  8
1
  6
CONTINUOUS
 62
           7
100
AcDbLine
 10
26484.8990010538
 20
218.429392648117
 11
26484.8990010538
 21
401.429392648117
  0
LINE
  5
437
100
AcDbEntity
  8
1
  6
CONTINUOUS
 62
           7
100
AcDbLine
 10
26481.8990010538
 20
218.429392648117
 11
26481.8990010538
 21
401.429392648117
  0
LINE
  5
436
100
AcDbEntity
  8
1
  6
CONTINUOUS
 62
           7
100
AcDbLine
 10
26584.8990010538
 20
509.429392648117
 11
26584.8990010538
 21
817.429392648117
  0
LINE
  5
435
100
AcDbEntity
  8
1
  6
CONTINUOUS
 62
           7
100
AcDbLine
 10
26581.8990010538
 20
509.429392648117
 11
26581.8990010538
 21
817.429392648117
  0
LINE
  5
434
100
AcDbEntity
  8
1
  6
CONTINUOUS
 62
           7
100
AcDbLine
 10
26489.8990010538
 20
707.429392648117
 11
26489.8990010538
 21
692.429392648117
  0
LINE
  5
433
100
AcDbEntity
  8
1
  6
CONTINUOUS
 62
           7
100
AcDbLine
 10
26489.8990010538
 20
692.429392648117
 11
26476.8990010538
 21
692.429392648117
  0
LINE
  5
432
100
AcDbEntity
  8
1
  6
CONTINUOUS
 62
           7
100
AcDbLine
 10
26476.8990010538
 20
692.429392648117
 11
26476.8990010538
 21
707.429392648117
  0
LINE
  5
431
100
AcDbEntity
  8
1
  6
CONTINUOUS
 62
           7
100
AcDbLine
 10
26476.8990010538
 20
707.429392648117
 11
26489.8990010538
 21
707.429392648117
  0
LINE
  5
430
100
AcDbEntity
  8
1
  6
CONTINUOUS
 62
           7
100
AcDbLine
 10
26442.8990010538
 20
706.429392648117
 11
26442.8990010538
 21
690.429392648117
  0
LINE
  5
42F
100
AcDbEntity
  8
1
  6
CONTINUOUS
 62
           7
100
AcDbLine
 10
26442.8990010538
 20
690.429392648117
 11
26426.8990010538
 21
690.429392648117
  0
LINE
  5
42E
100
AcDbEntity
  8
1
  6
CONTINUOUS
 62
           7
100
AcDbLine
 10
26426.8990010538
 20
690.429392648117
 11
26426.8990010538
 21
706.429392648117
  0
LINE
  5
42D
100
AcDbEntity
  8
1
  6
CONTINUOUS
 62
           7
100
AcDbLine
 10
26426.8990010538
 20
706.429392648117
 11
26442.8990010538
 21
706.429392648117
  0
LINE
  5
42C
100
AcDbEntity
  8
1
  6
CONTINUOUS
 62
           7
100
AcDbLine
 10
26442.8990010538
 20
743.429392648117
 11
26442.8990010538
 21
727.429392648117
  0
LINE
  5
42B
100
AcDbEntity
  8
1
  6
CONTINUOUS
 62
           7
100
AcDbLine
 10
26442.8990010538
 20
727.429392648117
 11
26426.8990010538
 21
727.429392648117
  0
LINE
  5
42A
100
AcDbEntity
  8
1
  6
CONTINUOUS
 62
           7
100
AcDbLine
 10
26426.8990010538
 20
727.429392648117
 11
26426.8990010538
 21
743.429392648117
  0
LINE
  5
429
100
AcDbEntity
  8
1
  6
CONTINUOUS
 62
           7
100
AcDbLine
 10
26426.8990010538
 20
743.429392648117
 11
26442.8990010538
 21
743.429392648117
  0
LINE
  5
428
100
AcDbEntity
  8
1
  6
CONTINUOUS
 62
           7
100
AcDbLine
 10
26484.8990010538
 20
509.429392648117
 11
26484.8990010538
 21
692.429392648117
  0
LINE
  5
427
100
AcDbEntity
  8
1
  6
CONTINUOUS
 62
           7
100
AcDbLine
 10
26481.8990010538
 20
509.429392648117
 11
26481.8990010538
 21
692.429392648117
  0
LINE
  5
426
100
AcDbEntity
  8
1
  6
CONTINUOUS
 62
           7
100
AcDbLine
 10
26733.8990010538
 20
475.429392648117
 11
26733.8990010538
 21
435.429392648117
  0
LINE
  5
425
100
AcDbEntity
  8
1
  6
CONTINUOUS
 62
           7
100
AcDbLine
 10
26733.8990010538
 20
435.429392648117
 11
26754.43562801493
 21
435.429392648117
  0
LINE
  5
424
100
AcDbEntity
  8
1
  6
CONTINUOUS
 62
           7
100
AcDbLine
 10
26754.43562801493
 20
435.429392648117
 11
26754.43562801493
 21
475.429392648117
  0
LINE
  5
423
100
AcDbEntity
  8
1
  6
CONTINUOUS
 62
           7
100
AcDbLine
 10
26754.43562801493
 20
475.429392648117
 11
26733.8990010538
 21
475.429392648117
  0
LINE
  5
422
100
AcDbEntity
  8
1
  6
CONTINUOUS
 62
           7
100
AcDbLine
 10
26733.899001053811
 20
509.429392648117
 11
26733.8990010538
 21
401.429392648117
  0
LINE
  5
421
100
AcDbEntity
  8
1
  6
CONTINUOUS
 62
           7
100
AcDbLine
 10
26733.8990010538
 20
401.429392648117
 11
25476.8990010538
 21
401.429392648117
  0
LINE
  5
420
100
AcDbEntity
  8
1
  6
CONTINUOUS
 62
           7
100
AcDbLine
 10
25476.8990010538
 20
509.429392648117
 11
26733.899001053811
 21
509.429392648117
  0
LINE
  5
41F
100
AcDbEntity
  8
1
  6
CONTINUOUS
 62
           7
100
AcDbLine
 10
26531.8990010538
 20
727.429392648117
 11
26531.899001053811
 21
707.429392648117
  0
LINE
  5
41E
100
AcDbEntity
  8
1
  6
CONTINUOUS
 62
           7
100
AcDbLine
 10
26531.899001053811
 20
707.429392648117
 11
25476.8990010538
 21
707.429392648117
  0
LINE
  5
41D
100
AcDbEntity
  8
1
  6
CONTINUOUS
 62
           7
100
AcDbLine
 10
25476.8990010538
 20
727.429392648117
 11
26531.8990010538
 21
727.429392648117
  0
LINE
  5
41C
100
AcDbEntity
  8
1
  6
CONTINUOUS
 62
           7
100
AcDbLine
 10
26434.8990010538
 20
817.429392648117
 11
26748.899001053811
 21
817.429392648117
  0
LINE
  5
41B
100
AcDbEntity
  8
1
  6
CONTINUOUS
 62
           7
100
AcDbLine
 10
26434.8990010538
 20
743.429392648117
 11
26434.8990010538
 21
817.429392648117
  0
LINE
  5
41A
100
AcDbEntity
  8
1
  6
CONTINUOUS
 62
           7
100
AcDbLine
 10
26431.8990010538
 20
743.429392648117
 11
26431.8990010538
 21
820.429392648117
  0
LINE
  5
419
100
AcDbEntity
  8
1
  6
DOT_CENTER
 62
           3
100
AcDbLine
 10
25410.044642611159
 20
455.429392648117
 11
26889.72833568219
 21
455.429392648117
  0
LINE
  5
418
100
AcDbEntity
  8
1
  6
CONTINUOUS
 62
           7
100
AcDbLine
 10
26431.8990010538
 20
820.429392648117
 11
26751.899001053811
 21
820.429392648117
  0
LINE
  5
417
100
AcDbEntity
  8
1
  6
CONTINUOUS
 62
           7
100
AcDbLine
 10
26748.899001053811
 20
345.429392648117
 11
26748.899001053811
 21
817.429392648117
  0
LINE
  5
416
100
AcDbEntity
  8
1
  6
CONTINUOUS
 62
           7
100
AcDbLine
 10
26751.899001053811
 20
820.429392648117
 11
26751.899001053811
 21
345.429392648117
  0
LINE
  5
415
100
AcDbEntity
  8
1
  6
CONTINUOUS
 62
           7
100
AcDbLine
 10
24468.899001053811
 20
648.980360447002
 11
24371.899001053811
 21
618.875527927979
  0
LINE
  5
414
100
AcDbEntity
  8
1
  6
CONTINUOUS
 62
           7
100
AcDbLine
 10
24468.899001053811
 20
652.121523436746
 11
24371.899001053811
 21
622.016690917726
  0
LINE
  5
413
100
AcDbEntity
  8
1
  6
CONTINUOUS
 62
           7
100
AcDbLine
 10
24516.788235993961
 20
666.984383203113
 11
24471.899001053811
 21
653.052600731151
  0
LINE
  5
412
100
AcDbEntity
  8
1
  6
CONTINUOUS
 62
           7
100
AcDbLine
 10
24517.677470934119
 20
664.119202367423
 11
24471.899001053811
 21
649.911437741404
  0
LINE
  5
411
100
AcDbEntity
  8
1
  6
CONTINUOUS
 62
           7
100
AcDbLine
 10
24518.899001053811
 20
690.429392648117
 11
24518.899001053811
 21
669.849564038803
  0
LINE
  5
410
100
AcDbEntity
  8
1
  6
CONTINUOUS
 62
           7
100
AcDbLine
 10
24521.899001053811
 20
690.429392648117
 11
24521.899001053811
 21
669.849564038803
  0
LINE
  5
40F
100
AcDbEntity
  8
1
  6
CONTINUOUS
 62
           7
100
AcDbLine
 10
24368.899001053811
 20
401.429392648117
 11
24368.899001053811
 21
345.429392648117
  0
LINE
  5
40E
100
AcDbEntity
  8
1
  6
CONTINUOUS
 62
           7
100
AcDbLine
 10
24371.899001053811
 20
401.429392648117
 11
24371.899001053811
 21
345.429392648117
  0
LINE
  5
40D
100
AcDbEntity
  8
1
  6
CONTINUOUS
 62
           7
100
AcDbLine
 10
24201.899001053811
 20
345.429392648117
 11
24371.899001053811
 21
345.429392648117
  0
LINE
  5
40C
100
AcDbEntity
  8
1
  6
CONTINUOUS
 62
           7
100
AcDbLine
 10
24463.899001053811
 20
203.429392648117
 11
24463.899001053811
 21
218.429392648117
  0
LINE
  5
40B
100
AcDbEntity
  8
1
  6
CONTINUOUS
 62
           7
100
AcDbLine
 10
24463.899001053811
 20
218.429392648117
 11
24476.899001053811
 21
218.429392648117
  0
LINE
  5
40A
100
AcDbEntity
  8
1
  6
CONTINUOUS
 62
           7
100
AcDbLine
 10
24476.899001053811
 20
218.429392648117
 11
24476.899001053811
 21
203.429392648117
  0
LINE
  5
409
100
AcDbEntity
  8
1
  6
CONTINUOUS
 62
           7
100
AcDbLine
 10
24476.899001053811
 20
203.429392648117
 11
24463.899001053811
 21
203.429392648117
  0
LINE
  5
408
100
AcDbEntity
  8
1
  6
CONTINUOUS
 62
           7
100
AcDbLine
 10
24468.899001053811
 20
401.429392648117
 11
24468.899001053811
 21
218.429392648117
  0
LINE
  5
407
100
AcDbEntity
  8
1
  6
CONTINUOUS
 62
           7
100
AcDbLine
 10
24471.899001053811
 20
401.429392648117
 11
24471.899001053811
 21
218.429392648117
  0
LINE
  5
406
100
AcDbEntity
  8
1
  6
CONTINUOUS
 62
           7
100
AcDbLine
 10
24368.899001053811
 20
817.429392648117
 11
24368.899001053811
 21
509.429392648117
  0
LINE
  5
405
100
AcDbEntity
  8
1
  6
CONTINUOUS
 62
           7
100
AcDbLine
 10
24371.899001053811
 20
817.429392648117
 11
24371.899001053811
 21
509.429392648117
  0
LINE
  5
404
100
AcDbEntity
  8
1
  6
CONTINUOUS
 62
           7
100
AcDbLine
 10
24463.899001053811
 20
692.429392648117
 11
24463.899001053811
 21
707.429392648117
  0
LINE
  5
403
100
AcDbEntity
  8
1
  6
CONTINUOUS
 62
           7
100
AcDbLine
 10
24476.899001053811
 20
692.429392648117
 11
24463.899001053811
 21
692.429392648117
  0
LINE
  5
402
100
AcDbEntity
  8
1
  6
CONTINUOUS
 62
           7
100
AcDbLine
 10
24476.899001053811
 20
707.429392648117
 11
24476.899001053811
 21
692.429392648117
  0
LINE
  5
401
100
AcDbEntity
  8
1
  6
CONTINUOUS
 62
           7
100
AcDbLine
 10
24463.899001053811
 20
707.429392648117
 11
24476.899001053811
 21
707.429392648117
  0
LINE
  5
400
100
AcDbEntity
  8
1
  6
CONTINUOUS
 62
           7
100
AcDbLine
 10
24510.899001053811
 20
690.429392648117
 11
24510.899001053811
 21
706.429392648117
  0
LINE
  5
3FF
100
AcDbEntity
  8
1
  6
CONTINUOUS
 62
           7
100
AcDbLine
 10
24526.899001053811
 20
690.429392648117
 11
24510.899001053811
 21
690.429392648117
  0
LINE
  5
3FE
100
AcDbEntity
  8
1
  6
CONTINUOUS
 62
           7
100
AcDbLine
 10
24526.899001053811
 20
706.429392648117
 11
24526.899001053811
 21
690.429392648117
  0
LINE
  5
3FD
100
AcDbEntity
  8
1
  6
CONTINUOUS
 62
           7
100
AcDbLine
 10
24510.899001053811
 20
706.429392648117
 11
24526.899001053811
 21
706.429392648117
  0
LINE
  5
3FC
100
AcDbEntity
  8
1
  6
CONTINUOUS
 62
           7
100
AcDbLine
 10
24510.899001053811
 20
727.429392648117
 11
24510.899001053811
 21
743.429392648117
  0
LINE
  5
3FB
100
AcDbEntity
  8
1
  6
CONTINUOUS
 62
           7
100
AcDbLine
 10
24526.899001053811
 20
727.429392648117
 11
24510.899001053811
 21
727.429392648117
  0
LINE
  5
3FA
100
AcDbEntity
  8
1
  6
CONTINUOUS
 62
           7
100
AcDbLine
 10
24526.899001053811
 20
743.429392648117
 11
24526.899001053811
 21
727.429392648117
  0
LINE
  5
3F9
100
AcDbEntity
  8
1
  6
CONTINUOUS
 62
           7
100
AcDbLine
 10
24510.899001053811
 20
743.429392648117
 11
24526.899001053811
 21
743.429392648117
  0
LINE
  5
3F8
100
AcDbEntity
  8
1
  6
CONTINUOUS
 62
           7
100
AcDbLine
 10
24468.899001053811
 20
692.429392648117
 11
24468.899001053811
 21
509.429392648117
  0
LINE
  5
3F7
100
AcDbEntity
  8
1
  6
CONTINUOUS
 62
           7
100
AcDbLine
 10
24471.899001053811
 20
692.429392648117
 11
24471.899001053811
 21
509.429392648117
  0
LINE
  5
3F6
100
AcDbEntity
  8
1
  6
CONTINUOUS
 62
           7
100
AcDbLine
 10
24219.899001053811
 20
435.429392648117
 11
24219.899001053811
 21
475.429392648117
  0
LINE
  5
3F5
100
AcDbEntity
  8
1
  6
CONTINUOUS
 62
           7
100
AcDbLine
 10
24199.362374092681
 20
435.429392648117
 11
24219.899001053811
 21
435.429392648117
  0
LINE
  5
3F4
100
AcDbEntity
  8
1
  6
CONTINUOUS
 62
           7
100
AcDbLine
 10
24199.362374092681
 20
475.429392648117
 11
24199.362374092681
 21
435.429392648117
  0
LINE
  5
3F3
100
AcDbEntity
  8
1
  6
CONTINUOUS
 62
           7
100
AcDbLine
 10
24219.899001053811
 20
475.429392648117
 11
24199.362374092681
 21
475.429392648117
  0
LINE
  5
3F2
100
AcDbEntity
  8
1
  6
DOT_CENTER
 62
           3
100
AcDbLine
 10
25476.8990010538
 20
936.23443876284
 11
25476.8990010538
 21
269.508090988
  0
LINE
  5
3F1
100
AcDbEntity
  8
1
  6
CONTINUOUS
 62
           7
100
AcDbLine
 10
24219.899001053811
 20
401.429392648117
 11
24219.899001053811
 21
509.429392648117
  0
LINE
  5
3F0
100
AcDbEntity
  8
1
  6
CONTINUOUS
 62
           7
100
AcDbLine
 10
25476.8990010538
 20
401.429392648117
 11
24219.899001053811
 21
401.429392648117
  0
LINE
  5
3EF
100
AcDbEntity
  8
1
  6
CONTINUOUS
 62
           7
100
AcDbLine
 10
24219.899001053811
 20
509.429392648117
 11
25476.8990010538
 21
509.429392648117
  0
LINE
  5
3EE
100
AcDbEntity
  8
1
  6
CONTINUOUS
 62
           7
100
AcDbLine
 10
24421.899001053811
 20
707.429392648117
 11
24421.899001053811
 21
727.429392648117
  0
LINE
  5
3ED
100
AcDbEntity
  8
1
  6
CONTINUOUS
 62
           7
100
AcDbLine
 10
25476.8990010538
 20
707.429392648117
 11
24421.899001053811
 21
707.429392648117
  0
LINE
  5
3EC
100
AcDbEntity
  8
1
  6
CONTINUOUS
 62
           7
100
AcDbLine
 10
24421.899001053811
 20
727.429392648117
 11
25476.8990010538
 21
727.429392648117
  0
LINE
  5
3EB
100
AcDbEntity
  8
1
  6
CONTINUOUS
 62
           7
100
AcDbLine
 10
24204.899001053811
 20
817.429392648117
 11
24518.899001053811
 21
817.429392648117
  0
LINE
  5
3EA
100
AcDbEntity
  8
1
  6
CONTINUOUS
 62
           7
100
AcDbLine
 10
24518.899001053811
 20
817.429392648117
 11
24518.899001053811
 21
743.429392648117
  0
LINE
  5
3E9
100
AcDbEntity
  8
1
  6
CONTINUOUS
 62
           7
100
AcDbLine
 10
24521.899001053811
 20
820.429392648117
 11
24521.899001053811
 21
743.429392648117
  0
LINE
  5
3E8
100
AcDbEntity
  8
1
  6
DOT_CENTER
 62
           3
100
AcDbLine
 10
24173.899001053811
 20
455.429392648117
 11
25410.044642611159
 21
455.429392648117
  0
LINE
  5
3E7
100
AcDbEntity
  8
1
  6
CONTINUOUS
 62
           7
100
AcDbLine
 10
24201.899001053811
 20
820.429392648117
 11
24521.899001053811
 21
820.429392648117
  0
LINE
  5
3E6
100
AcDbEntity
  8
1
  6
CONTINUOUS
 62
           7
100
AcDbLine
 10
24204.899001053811
 20
817.429392648117
 11
24204.899001053811
 21
345.429392648117
  0
LINE
  5
3E5
100
AcDbEntity
  8
1
  6
CONTINUOUS
 62
           7
100
AcDbLine
 10
24201.899001053811
 20
345.429392648117
 11
24201.899001053811
 21
540.248510305059
  0
LINE
  5
3E4
100
AcDbEntity
  8
1
  6
CONTINUOUS
 62
           7
100
AcDbLine
 10
22257.225657525989
 20
798.820429377658
 11
22287.33049004502
 21
895.820429377658
  0
LINE
  5
3E3
100
AcDbEntity
  8
1
  6
CONTINUOUS
 62
           7
100
AcDbLine
 10
22260.366820515741
 20
798.820429377658
 11
22290.471653034761
 21
895.820429377658
  0
LINE
  5
3E2
100
AcDbEntity
  8
1
  6
CONTINUOUS
 62
           7
100
AcDbLine
 10
22291.40273032917
 20
898.820429377658
 11
22305.334512801131
 21
943.709664317808
  0
LINE
  5
3E1
100
AcDbEntity
  8
1
  6
CONTINUOUS
 62
           7
100
AcDbLine
 10
22288.261567339421
 20
898.820429377658
 11
22302.46933196544
 21
944.59889925797
  0
LINE
  5
3E0
100
AcDbEntity
  8
1
  6
CONTINUOUS
 62
           7
100
AcDbLine
 10
22308.19969363682
 20
945.820429377658
 11
22328.779522246132
 21
945.820429377658
  0
LINE
  5
3DF
100
AcDbEntity
  8
1
  6
CONTINUOUS
 62
           7
100
AcDbLine
 10
22308.19969363682
 20
948.820429377658
 11
22328.779522246132
 21
948.820429377658
  0
LINE
  5
3DE
100
AcDbEntity
  8
1
  6
CONTINUOUS
 62
           7
100
AcDbLine
 10
22345.779522246132
 20
903.820429377658
 11
22345.779522246132
 21
890.820429377658
  0
LINE
  5
3DD
100
AcDbEntity
  8
1
  6
CONTINUOUS
 62
           7
100
AcDbLine
 10
22344.779522246132
 20
937.820429377658
 11
22328.779522246132
 21
937.820429377658
  0
LINE
  5
3DC
100
AcDbEntity
  8
1
  6
CONTINUOUS
 62
           7
100
AcDbLine
 10
22328.779522246132
 20
937.820429377658
 11
22328.779522246132
 21
953.820429377658
  0
LINE
  5
3DB
100
AcDbEntity
  8
1
  6
CONTINUOUS
 62
           7
100
AcDbLine
 10
22328.779522246132
 20
953.820429377658
 11
22344.779522246132
 21
953.820429377658
  0
LINE
  5
3DA
100
AcDbEntity
  8
1
  6
CONTINUOUS
 62
           7
100
AcDbLine
 10
22344.779522246132
 20
953.820429377658
 11
22344.779522246132
 21
937.820429377658
  0
LINE
  5
3D9
100
AcDbEntity
  8
1
  6
CONTINUOUS
 62
           7
100
AcDbLine
 10
22381.779522246132
 20
937.820429377658
 11
22365.779522246132
 21
937.820429377658
  0
LINE
  5
3D8
100
AcDbEntity
  8
1
  6
CONTINUOUS
 62
           7
100
AcDbLine
 10
22365.779522246132
 20
937.820429377658
 11
22365.779522246132
 21
953.820429377658
  0
LINE
  5
3D7
100
AcDbEntity
  8
1
  6
CONTINUOUS
 62
           7
100
AcDbLine
 10
22365.779522246132
 20
953.820429377658
 11
22381.779522246132
 21
953.820429377658
  0
LINE
  5
3D6
100
AcDbEntity
  8
1
  6
CONTINUOUS
 62
           7
100
AcDbLine
 10
22381.779522246132
 20
953.820429377658
 11
22381.779522246132
 21
937.820429377658
  0
LINE
  5
3D5
100
AcDbEntity
  8
1
  6
CONTINUOUS
 62
           7
100
AcDbLine
 10
22365.779522246132
 20
848.820429377658
 11
22345.779522246132
 21
848.820429377649
  0
LINE
  5
3D4
100
AcDbEntity
  8
1
  6
CONTINUOUS
 62
           7
100
AcDbLine
 10
22455.779522246132
 20
945.820429377658
 11
22455.779522246132
 21
631.820429377649
  0
LINE
  5
3D3
100
AcDbEntity
  8
1
  6
CONTINUOUS
 62
           7
100
AcDbLine
 10
22381.779522246132
 20
945.820429377658
 11
22455.779522246132
 21
945.820429377658
  0
LINE
  5
3D2
100
AcDbEntity
  8
1
  6
CONTINUOUS
 62
           7
100
AcDbLine
 10
22381.779522246132
 20
948.820429377658
 11
22458.779522246132
 21
948.820429377658
  0
LINE
  5
3D1
100
AcDbEntity
  8
1
  6
CONTINUOUS
 62
           7
100
AcDbLine
 10
22458.779522246132
 20
948.820429377658
 11
22458.779522246132
 21
628.820429377649
  0
LINE
  5
3D0
100
AcDbEntity
  8
1
  6
CONTINUOUS
 62
           7
100
AcDbLine
 10
22458.779522246132
 20
628.820429377649
 11
22252.779522246132
 21
628.820429377649
  0
LINE
  5
3CF
100
AcDbEntity
  8
1
  6
CONTINUOUS
 62
           7
100
AcDbLine
 10
22365.779522246132
 20
1066.466791822
 11
22365.779522246132
 21
848.820429377658
  0
LINE
  5
3CE
100
AcDbEntity
  8
1
  6
CONTINUOUS
 62
           7
100
AcDbLine
 10
22345.779522246132
 20
848.820429377649
 11
22345.779522246132
 21
1059.030894386101
  0
LINE
  5
3CD
100
AcDbEntity
  8
1
  6
CONTINUOUS
 62
           7
100
AcDbLine
 10
22365.779522246132
 20
848.820429377658
 11
22345.779522246132
 21
848.820429377649
  0
LINE
  5
3CC
100
AcDbEntity
  8
1
  6
CONTINUOUS
 62
           7
100
AcDbLine
 10
22240.279522246132
 20
798.820429377658
 11
22240.279522246132
 21
795.820429377658
  0
LINE
  5
3CB
100
AcDbEntity
  8
1
  6
CONTINUOUS
 62
           7
100
AcDbLine
 10
22240.279522246132
 20
795.820429377658
 11
22455.779522246132
 21
795.820429377658
  0
LINE
  5
3CA
100
AcDbEntity
  8
1
  6
CONTINUOUS
 62
           7
100
AcDbLine
 10
22240.279522246132
 20
798.820429377658
 11
22252.779522246132
 21
798.820429377658
  0
LINE
  5
3C9
100
AcDbEntity
  8
1
  6
CONTINUOUS
 62
           7
100
AcDbLine
 10
22240.279522246132
 20
631.820429377649
 11
22240.279522246132
 21
628.820429377649
  0
LINE
  5
3C8
100
AcDbEntity
  8
1
  6
CONTINUOUS
 62
           7
100
AcDbLine
 10
22240.279522246132
 20
631.820429377649
 11
22455.779522246132
 21
631.820429377649
  0
LINE
  5
3C7
100
AcDbEntity
  8
1
  6
CONTINUOUS
 62
           7
100
AcDbLine
 10
22252.779522246132
 20
798.820429377658
 11
22252.779522246132
 21
800.320429377658
  0
LINE
  5
3C6
100
AcDbEntity
  8
1
  6
CONTINUOUS
 62
           7
100
AcDbLine
 10
22252.779522246132
 20
798.820429377658
 11
22455.779522246132
 21
798.820429377658
  0
LINE
  5
3C5
100
AcDbEntity
  8
1
  6
CONTINUOUS
 62
           7
100
AcDbLine
 10
22252.779522246132
 20
800.320429377658
 11
22238.779522246132
 21
800.320429377658
  0
LINE
  5
3C4
100
AcDbEntity
  8
1
  6
CONTINUOUS
 62
           7
100
AcDbLine
 10
22240.279522246132
 20
795.820429377658
 11
22240.279522246132
 21
631.820429377649
  0
LINE
  5
3C3
100
AcDbEntity
  8
1
  6
CONTINUOUS
 62
           7
100
AcDbLine
 10
22238.779522246132
 20
800.320429377658
 11
22238.779522246132
 21
627.320429377649
  0
LINE
  5
3C2
100
AcDbEntity
  8
1
  6
CONTINUOUS
 62
           7
100
AcDbLine
 10
22252.779522246132
 20
628.820429377649
 11
22252.779522246132
 21
627.320429377649
  0
LINE
  5
3C1
100
AcDbEntity
  8
1
  6
CONTINUOUS
 62
           7
100
AcDbLine
 10
22252.779522246132
 20
628.820429377649
 11
22240.279522246132
 21
628.820429377649
  0
LINE
  5
3C0
100
AcDbEntity
  8
1
  6
CONTINUOUS
 62
           7
100
AcDbLine
 10
22252.779522246132
 20
627.320429377649
 11
22238.779522246132
 21
627.320429377649
  0
LINE
  5
3BF
100
AcDbEntity
  8
1
  6
CONTINUOUS
 62
           3
100
AcDbLine
 10
22395.392060788421
 20
1077.476581792851
 11
22365.779522246132
 21
1066.466791822
  0
LINE
  5
3BE
100
AcDbEntity
  8
1
  6
CONTINUOUS
 62
           3
100
AcDbLine
 10
22365.779522246132
 20
1066.466791822
 11
22345.779522246132
 21
1059.030894386101
  0
LINE
  5
3BD
100
AcDbEntity
  8
1
  6
CONTINUOUS
 62
           3
100
AcDbLine
 10
22345.779522246132
 20
1059.030894386101
 11
22317.392060788421
 21
1048.476581792849
  0
ENDBLK
  5
48E
100
AcDbEntity
  8
0
100
AcDbBlockEnd
  0
BLOCK
  5
61
100
AcDbEntity
  8
0
100
AcDbBlockBegin
  2
_SEITENTEILE_DS
 70
           0
 10
9516.618349201362
 20
-797.513018161186
 30
0.0
  3
_SEITENTEILE_DS
  1

  0
INSERT
  5
62
100
AcDbEntity
  8
0
100
AcDbBlockReference
  2
SEITENPROFIL_DS
 10
8128.528608788558
 20
-1321.124398798776
  0
ENDBLK
  5
48F
100
AcDbEntity
  8
0
100
AcDbBlockEnd
  0
BLOCK
  5
64
100
AcDbEntity
  8
0
100
AcDbBlockBegin
  2
MAUER
 70
           0
 10
1622.323087333471
 20
828.269357450718
 30
0.0
  3
MAUER
  1

  0
HATCH
  5
4B0
100
AcDbEntity
  8
0
  6
CONTINUOUS
 62
           6
100
AcDbHatch
 10
0.0
 20
0.0
 30
0.0
210
0.0
220
0.0
230
1.0
  2
USER
 70
           0
 71
           1
 91
        1
 92
        1
 93
        4
 72
           1
 10
26935.4108646163
 20
970.42939264811503
 11
26426.8990010538
 21
970.42939264811685
 72
           1
 10
26935.4108646163
 20
820.42939264811685
 11
26935.4108646163
 21
970.42939264811503
 72
           1
 10
26426.8990010538
 20
820.42939264811685
 11
26935.4108646163
 21
820.42939264811685
 72
           1
 10
26426.8990010538
 20
970.42939264811685
 11
26426.8990010538
 21
820.42939264811685
 97
        4
330
492
330
493
330
490
330
491
 75
           1
 76
           0
 52
45.0
 41
50.0
 77
           0
 78
           1
 53
45.0
 43
0.0
 44
0.0
 45
-35.355339059327378
 46
35.355339059327378
 79
           0
 98
        1
 10
0.0
 20
0.0
  0
HATCH
  5
4AF
100
AcDbEntity
  8
0
  6
CONTINUOUS
 62
           6
100
AcDbHatch
 10
0.0
 20
0.0
 30
0.0
210
0.0
220
0.0
230
1.0
  2
USER
 70
           0
 71
           1
 91
        1
 92
        1
 93
        4
 72
           1
 10
24526.899001053811
 20
970.42939264811503
 11
23981.899001053811
 21
970.42939264811685
 72
           1
 10
23981.899001053811
 20
970.42939264811685
 11
23981.899001053811
 21
820.42939264811685
 72
           1
 10
23981.899001053811
 20
820.42939264811685
 11
24526.899001053811
 21
820.42939264811685
 72
           1
 10
24526.899001053811
 20
820.42939264811685
 11
24526.899001053811
 21
970.42939264811503
 97
        4
330
496
330
497
330
494
330
495
 75
           1
 76
           0
 52
45.0
 41
50.0
 77
           0
 78
           1
 53
45.0
 43
0.0
 44
0.0
 45
-35.355339059327378
 46
35.355339059327378
 79
           0
 98
        1
 10
0.0
 20
0.0
  0
DIMENSION
  5
4AE
100
AcDbEntity
  8
0
100
AcDbDimension
  2
*D56
 10
26426.899001053804
 20
1073.350393333776
 11
25316.644364036831
 21
1206.683726667109
 31
0.0
  1
<>
  3
ME10_DIM_22
100
AcDbAlignedDimension
 13
24526.899001053811
 23
970.429392648115
 14
26426.8990010538
 24
970.429392648117
100
AcDbRotatedDimension
  0
DIMENSION
  5
4A3
100
AcDbEntity
  8
0
100
AcDbDimension
  2
*D55
 10
27150.382069933308
 20
820.429392648117
 11
27050.382069933308
 21
706.383186203939
 31
0.0
 53
90.0
  1
<>
  3
ME10_DIM_21
100
AcDbAlignedDimension
 13
26874.649976516859
 23
568.429296114677
 14
26935.4108646163
 24
820.429392648117
 50
90.0
100
AcDbRotatedDimension
  0
LINE
  5
498
100
AcDbEntity
  8
1
  6
CONTINUOUS
 62
           7
100
AcDbLine
 10
26859.899001053811
 20
568.429296114677
 11
26874.649976516859
 21
568.429296114677
  0
LINE
  5
497
100
AcDbEntity
  8
1
  6
CONTINUOUS
 62
         250
100
AcDbLine
 10
23981.899001053811
 20
970.429392648117
 11
23981.899001053811
 21
820.429392648117
  0
LINE
  5
496
100
AcDbEntity
  8
1
  6
CONTINUOUS
 62
           7
100
AcDbLine
 10
24526.899001053811
 20
970.429392648115
 11
23981.899001053811
 21
970.429392648117
  0
LINE
  5
495
100
AcDbEntity
  8
1
  6
CONTINUOUS
 62
           7
100
AcDbLine
 10
24526.899001053811
 20
820.429392648117
 11
24526.899001053811
 21
970.429392648115
  0
LINE
  5
494
100
AcDbEntity
  8
1
  6
CONTINUOUS
 62
           7
100
AcDbLine
 10
23981.899001053811
 20
820.429392648117
 11
24526.899001053811
 21
820.429392648117
  0
LINE
  5
493
100
AcDbEntity
  8
1
  6
CONTINUOUS
 62
         250
100
AcDbLine
 10
26935.4108646163
 20
820.429392648117
 11
26935.4108646163
 21
970.429392648115
  0
LINE
  5
492
100
AcDbEntity
  8
1
  6
CONTINUOUS
 62
           7
100
AcDbLine
 10
26935.4108646163
 20
970.429392648115
 11
26426.8990010538
 21
970.429392648117
  0
LINE
  5
491
100
AcDbEntity
  8
1
  6
CONTINUOUS
 62
           7
100
AcDbLine
 10
26426.8990010538
 20
970.429392648117
 11
26426.8990010538
 21
820.429392648117
  0
LINE
  5
490
100
AcDbEntity
  8
1
  6
CONTINUOUS
 62
           7
100
AcDbLine
 10
26426.8990010538
 20
820.429392648117
 11
26935.4108646163
 21
820.429392648117
  0
ENDBLK
  5
4B1
100
AcDbEntity
  8
0
100
AcDbBlockEnd
  0
BLOCK
  5
66
100
AcDbEntity
  8
0
100
AcDbBlockBegin
  2
DRAUFSICHT_PRINZIPZG
 70
           0
 10
16970.0
 20
20430.940657297469
 30
0.0
  3
DRAUFSICHT_PRINZIPZG
  1

  0
INSERT
  5
67
100
AcDbEntity
  8
0
100
AcDbBlockReference
  2
VERBINDUNGSPROFIL_DS
 10
10097.729251104291
 20
5463.978888788721
  0
INSERT
  5
68
100
AcDbEntity
  8
0
100
AcDbBlockReference
  2
_ANTRIEB_DS
 10
543.459974590814
 20
-3138.223710638835
  0
INSERT
  5
69
100
AcDbEntity
  8
0
100
AcDbBlockReference
  2
_SEITENTEILE_DS
 10
9516.618349201362
 20
-797.513018161186
  0
INSERT
  5
6A
100
AcDbEntity
  8
0
100
AcDbBlockReference
  2
MAUER
 10
1622.323087333471
 20
828.269357450718
  0
ENDBLK
  5
4B2
100
AcDbEntity
  8
0
100
AcDbBlockEnd
  0
BLOCK
  5
6C
100
AcDbEntity
  8
0
100
AcDbBlockBegin
  2
_RAHMEN
 70
           0
 10
-4378.196350622077
 20
-2534.429039470544
 30
0.0
  3
_RAHMEN
  1

  0
LINE
  5
4B7
100
AcDbEntity
  8
1
  6
CONTINUOUS
 62
         250
100
AcDbLine
 10
-3456.836292683059
 20
-2256.084238414622
 11
-3456.836292683059
 21
-2541.084238414622
  0
LINE
  5
4B6
100
AcDbEntity
  8
1
  6
CONTINUOUS
 62
         250
100
AcDbLine
 10
-3641.836292683059
 20
-2541.084238414622
 11
-3456.836292683059
 21
-2541.084238414622
  0
LINE
  5
4B5
100
AcDbEntity
  8
1
  6
CONTINUOUS
 62
         250
100
AcDbLine
 10
-3641.836292683059
 20
-2256.084238414622
 11
-3641.836292683059
 21
-2541.084238414622
  0
LINE
  5
4B4
100
AcDbEntity
  8
1
  6
CONTINUOUS
 62
         250
100
AcDbLine
 10
-3645.039380590463
 20
-2400.062614045811
 11
-3652.039380590463
 21
-2400.062614045811
  0
LINE
  5
4B3
100
AcDbEntity
  8
1
  6
CONTINUOUS
 62
         250
100
AcDbLine
 10
-3456.836292683059
 20
-2256.084238414622
 11
-3641.836292683059
 21
-2256.084238414622
  0
ENDBLK
  5
4B8
100
AcDbEntity
  8
0
100
AcDbBlockEnd
  0
BLOCK
  5
6E
100
AcDbEntity
  8
0
100
AcDbBlockBegin
  2
_ZEICHNUNGSNUMMER
 70
           0
 10
-4207.208625843153
 20
-2531.638536677262
 30
0.0
  3
_ZEICHNUNGSNUMMER
  1

  0
MTEXT
  5
4B9
100
AcDbEntity
  8
0
 62
           3
100
AcDbMText
 10
-3491.051655811539
 20
-2537.54373562134
 30
0.0
 40
2.5
 41
0.0
 71
           7
 72
           1
  1
Zg.-Nr. 8300R0008/12\PStand: 2010-10-06
  7
CONVERTER_2
  0
ENDBLK
  5
4BA
100
AcDbEntity
  8
0
100
AcDbBlockEnd
  0
BLOCK
  5
70
100
AcDbEntity
  8
0
100
AcDbBlockBegin
  2
__BERSCHRIFT
 70
           0
 10
-4365.471175383441
 20
-2293.637303215475
 30
0.0
  3
__BERSCHRIFT
  1

  0
TEXT
  5
4BE
100
AcDbEntity
  8
0
 62
           1
100
AcDbText
 10
-3639.314205351931
 20
-2292.542502159641
 40
3.8
  1
General Drawing, RapidRoll 3000, -L, -GL
 41
0.608
  7
CONVERTER_4
100
AcDbText
  0
MTEXT
  5
4BC
100
AcDbEntity
  8
0
 62
           7
100
AcDbMText
 10
-3639.10079753059
 20
-2282.139429533872
 30
0.0
 40
5.0
 41
0.0
 71
           7
 72
           1
  1
Prinzipzeichnung\PRapidRoll 3000, -L, -GL
  7
CONVERTER_3
  0
ENDBLK
  5
4BF
100
AcDbEntity
  8
0
100
AcDbBlockEnd
  0
BLOCK
  5
72
100
AcDbEntity
  8
0
100
AcDbBlockBegin
  2
VORLAGE__3
 70
           0
 10
-2436.797453591143
 20
-912.13511450995
 30
0.0
  3
VORLAGE__3
  1

  0
INSERT
  5
73
100
AcDbEntity
  8
0
100
AcDbBlockReference
  2
_RAHMEN
 10
-4378.196350622077
 20
-2534.429039470544
  0
INSERT
  5
74
100
AcDbEntity
  8
0
100
AcDbBlockReference
  2
_ZEICHNUNGSNUMMER
 10
-4207.208625843153
 20
-2531.638536677262
  0
INSERT
  5
75
100
AcDbEntity
  8
0
100
AcDbBlockReference
  2
__BERSCHRIFT
 10
-4365.471175383441
 20
-2293.637303215475
  0
ENDBLK
  5
4C0
100
AcDbEntity
  8
0
100
AcDbBlockEnd
  0
BLOCK
  5
77
100
AcDbEntity
  8
0
100
AcDbBlockBegin
  2
_LOGO
 70
           0
 10
1619.142938593877
 20
-2841.727337345499
 30
0.0
  3
_LOGO
  1

  0
HATCH
  5
5C2
100
AcDbEntity
  8
0
  6
CONTINUOUS
 62
           6
100
AcDbHatch
 10
0.0
 20
0.0
 30
0.0
210
0.0
220
0.0
230
1.0
  2
USER
 70
           0
 71
           1
 91
        1
 92
        1
 93
       10
 72
           1
 10
2622.9680206214521
 20
-2844.899078156147
 11
2626.6771115305642
 21
-2844.899078156147
 72
           1
 10
2622.9680206214521
 20
-2844.899078156147
 11
2622.9680206214521
 21
-2852.7536236106762
 72
           1
 10
2622.9680206214521
 20
-2852.7536236106762
 11
2625.3680206214708
 21
-2852.7536236106762
 72
           1
 10
2625.3680206214708
 20
-2852.7536236106762
 11
2625.3680206214708
 21
-2847.9536236106992
 72
           1
 10
2625.3680206214708
 20
-2847.9536236106992
 11
2627.1134751668992
 21
-2852.7536236106762
 72
           1
 10
2627.1134751668992
 20
-2852.7536236106762
 11
2630.8225660760108
 21
-2852.7536236106762
 72
           1
 10
2630.8225660760108
 20
-2852.7536236106762
 11
2630.8225660760108
 21
-2844.899078156147
 72
           1
 10
2628.4225660759921
 20
-2844.899078156147
 11
2630.8225660760108
 21
-2844.899078156147
 72
           1
 10
2628.4225660759921
 20
-2844.899078156147
 11
2628.4225660759921
 21
-2849.6990781561558
 72
           1
 10
2628.4225660759921
 20
-2849.6990781561558
 11
2626.6771115305642
 21
-2844.899078156147
 97
       10
330
542
330
548
330
577
330
545
330
544
330
541
330
547
330
540
330
546
330
543
 75
           1
 76
           0
 52
45.0
 41
0.109090909091
 77
           0
 78
           1
 53
45.0
 43
-1527.713539482904
 44
-1255.429565355026
 45
-0.077138921583987
 46
0.077138921583987
 79
           0
 98
        1
 10
0.0
 20
0.0
  0
HATCH
  5
5C1
100
AcDbEntity
  8
0
  6
CONTINUOUS
 62
           6
100
AcDbHatch
 10
0.0
 20
0.0
 30
0.0
210
0.0
220
0.0
230
1.0
  2
USER
 70
           0
 71
           1
 91
        2
 92
        1
 93
        8
 72
           1
 10
2615.986202439623
 20
-2844.899078156147
 11
2619.695293348735
 21
-2844.899078156147
 72
           1
 10
2615.986202439623
 20
-2844.899078156147
 11
2613.3680206214372
 21
-2852.7536236106762
 72
           1
 10
2616.20438425782
 20
-2852.7536236106762
 11
2613.3680206214372
 21
-2852.7536236106762
 72
           1
 10
2616.20438425782
 20
-2852.7536236106762
 11
2616.5377175911708
 21
-2851.5536236106818
 72
           1
 10
2616.5377175911708
 20
-2851.5536236106818
 11
2619.1437781971599
 21
-2851.5536236106818
 72
           1
 10
2619.1437781971599
 20
-2851.5536236106818
 11
2619.477111530508
 21
-2852.7536236106762
 72
           1
 10
2619.477111530508
 20
-2852.7536236106762
 11
2622.3134751668622
 21
-2852.7536236106762
 72
           1
 10
2619.695293348735
 20
-2844.899078156147
 11
2622.3134751668622
 21
-2852.7536236106762
 97
        8
330
551
330
550
330
553
330
54C
330
54E
330
549
330
552
330
54F
 92
       16
 93
        3
 72
           1
 10
2617.0225660759988
 20
-2849.8081690652248
 11
2618.6589297123578
 21
-2849.8081690652248
 72
           1
 10
2617.8407478941499
 20
-2846.862714519772
 11
2618.6589297123578
 21
-2849.8081690652248
 72
           1
 10
2617.0225660759988
 20
-2849.8081690652248
 11
2617.8407478941499
 21
-2846.862714519772
 97
        3
330
54D
330
54B
330
54A
 75
           1
 76
           0
 52
45.0
 41
0.109090909091
 77
           0
 78
           1
 53
45.0
 43
-1527.713539482904
 44
-1255.429565355026
 45
-0.077138921583987
 46
0.077138921583987
 79
           0
 98
        1
 10
0.0
 20
0.0
  0
HATCH
  5
5C0
100
AcDbEntity
  8
0
  6
CONTINUOUS
 62
           6
100
AcDbHatch
 10
0.0
 20
0.0
 30
0.0
210
0.0
220
0.0
230
1.0
  2
USER
 70
           0
 71
           1
 91
        1
 92
        1
 93
        6
 72
           1
 10
2598.9680206214139
 20
-2844.899078156147
 11
2602.0225660760229
 21
-2844.899078156147
 72
           1
 10
2598.9680206214139
 20
-2852.7536236106762
 11
2598.9680206214139
 21
-2844.899078156147
 72
           1
 10
2604.8589297123758
 20
-2852.7536236106762
 11
2598.9680206214139
 21
-2852.7536236106762
 72
           1
 10
2604.8589297123758
 20
-2850.7899872470512
 11
2604.8589297123758
 21
-2852.7536236106762
 72
           1
 10
2602.0225660760229
 20
-2850.7899872470512
 11
2604.8589297123758
 21
-2850.7899872470512
 72
           1
 10
2602.0225660760229
 20
-2844.899078156147
 11
2602.0225660760229
 21
-2850.7899872470512
 97
        6
330
562
330
55D
330
55E
330
55F
330
560
330
561
 75
           1
 76
           0
 52
45.0
 41
0.109090909091
 77
           0
 78
           1
 53
45.0
 43
-1527.713539482904
 44
-1255.429565355026
 45
-0.077138921583987
 46
0.077138921583987
 79
           0
 98
        1
 10
0.0
 20
0.0
  0
HATCH
  5
5BF
100
AcDbEntity
  8
0
  6
CONTINUOUS
 62
           6
100
AcDbHatch
 10
0.0
 20
0.0
 30
0.0
210
0.0
220
0.0
230
1.0
  2
USER
 70
           0
 71
           1
 91
        2
 92
        1
 93
        8
 72
           1
 10
2595.5431968256248
 20
-2844.899078156147
 11
2600.2842506119259
 21
-2859.4905413428692
 72
           1
 10
2588.9977422801599
 20
-2844.899078156147
 11
2595.5431968256248
 21
-2844.899078156147
 72
           1
 10
2584.8860312150669
 20
-2857.5536236106832
 11
2588.9977422801599
 21
-2844.899078156147
 72
           1
 10
2584.8860312150669
 20
-2857.5536236106832
 11
2589.6860312150752
 21
-2857.5536236106832
 72
           1
 10
2589.6860312150752
 20
-2857.5536236106832
 11
2590.149509891367
 21
-2855.5899872470291
 72
           1
 10
2590.149509891367
 20
-2855.5899872470291
 11
2594.0985764225452
 21
-2855.5899872470291
 72
           1
 10
2594.0985764225452
 20
-2855.5899872470291
 11
2597.0667081765419
 21
-2866.7172599743358
 72
           1
 10
2597.0667081765419
 20
-2866.7172599743358
 11
2600.2842506119259
 21
-2859.4905413428692
 97
        8
330
563
330
565
330
564
330
566
330
567
330
56C
330
56D
330
569
 92
       16
 93
        3
 72
           1
 10
2590.8189790902838
 20
-2852.7536236106762
 11
2592.003424596362
 21
-2847.7354417925012
 72
           1
 10
2592.003424596362
 20
-2847.7354417925012
 11
2593.3419938186021
 21
-2852.7536236106762
 72
           1
 10
2590.8189790902838
 20
-2852.7536236106762
 11
2593.3419938186021
 21
-2852.7536236106762
 97
        3
330
56B
330
568
330
56A
 75
           1
 76
           0
 52
45.0
 41
0.109090909091
 77
           0
 78
           1
 53
45.0
 43
-1527.713539482904
 44
-1255.429565355026
 45
-0.077138921583987
 46
0.077138921583987
 79
           0
 98
        1
 10
0.0
 20
0.0
  0
HATCH
  5
5BE
100
AcDbEntity
  8
0
  6
CONTINUOUS
 62
           6
100
AcDbHatch
 10
0.0
 20
0.0
 30
0.0
210
0.0
220
0.0
230
1.0
  2
USER
 70
           0
 71
           1
 91
        1
 92
        1
 93
        9
 72
           1
 10
2635.6225660759892
 20
-2848.1718054288658
 11
2634.7498388032909
 21
-2844.899078156147
 72
           1
 10
2631.4771115305139
 20
-2844.899078156147
 11
2634.7498388032909
 21
-2844.899078156147
 72
           1
 10
2631.4771115305139
 20
-2844.899078156147
 11
2634.0952933488179
 21
-2850.1354417924908
 72
           1
 10
2634.0952933488179
 20
-2850.1354417924908
 11
2634.0952933488179
 21
-2852.7536236106762
 72
           1
 10
2634.0952933488179
 20
-2852.7536236106762
 11
2637.1498388032501
 21
-2852.7536236106762
 72
           1
 10
2637.1498388032501
 20
-2852.7536236106762
 11
2637.1498388032501
 21
-2850.1354417924908
 72
           1
 10
2637.1498388032501
 20
-2850.1354417924908
 11
2639.768020621435
 21
-2844.899078156147
 72
           1
 10
2636.495293348718
 20
-2844.899078156147
 11
2639.768020621435
 21
-2844.899078156147
 72
           1
 10
2635.6225660759892
 20
-2848.1718054288658
 11
2636.495293348718
 21
-2844.899078156147
 97
        9
330
574
330
56E
330
575
330
571
330
572
330
570
330
576
330
56F
330
573
 75
           1
 76
           0
 52
45.0
 41
0.109090909091
 77
           0
 78
           1
 53
45.0
 43
-1527.713539482904
 44
-1255.429565355026
 45
-0.077138921583987
 46
0.077138921583987
 79
           0
 98
        1
 10
0.0
 20
0.0
  0
ARC
  5
5BD
100
AcDbEntity
  8
1
  6
CONTINUOUS
 62
           3
100
AcDbCircle
 10
2634.137777902538
 20
-2857.073623610698
 40
0.218181818306
100
AcDbArc
 50
154.999999989757
 51
-90.0
  0
ARC
  5
5BC
100
AcDbEntity
  8
1
  6
CONTINUOUS
 62
           3
100
AcDbCircle
 10
2634.069282531793
 20
-2857.117259974349
 40
0.436363636411
100
AcDbArc
 50
154.999999990425
 51
-90.0
  0
ARC
  5
5BB
100
AcDbEntity
  8
1
  6
CONTINUOUS
 62
           3
100
AcDbCircle
 10
2635.068913661781
 20
-2856.419078156136
 40
0.87272727273
100
AcDbArc
 50
-90.0
 51
-24.999999999223
  0
ARC
  5
5BA
100
AcDbEntity
  8
1
  6
CONTINUOUS
 62
           3
100
AcDbCircle
 10
2634.957715943506
 20
-2856.244532701591
 40
1.309090909092
100
AcDbArc
 50
-90.0
 51
-24.999999997966
  0
ARC
  5
5B9
100
AcDbEntity
  8
1
  6
CONTINUOUS
 62
           3
100
AcDbCircle
 10
2635.964082412906
 20
-2856.048169065249
 40
0.218181818067
100
AcDbArc
 50
-25.00000000495
 51
90.0
  0
ARC
  5
5B8
100
AcDbEntity
  8
1
  6
CONTINUOUS
 62
           3
100
AcDbCircle
 10
2636.032577783561
 20
-2856.004532701599
 40
0.436363636309
100
AcDbArc
 50
-24.999999998709
 51
90.0
  0
ARC
  5
5B7
100
AcDbEntity
  8
1
  6
CONTINUOUS
 62
           3
100
AcDbCircle
 10
2634.94152273872
 20
-2855.349987247036
 40
0.218181818184
100
AcDbArc
 50
154.999999983793
 51
-90.0
  0
ARC
  5
5B6
100
AcDbEntity
  8
1
  6
CONTINUOUS
 62
           3
100
AcDbCircle
 10
2634.873027368093
 20
-2855.393623610689
 40
0.43636363632
100
AcDbArc
 50
154.999999988961
 51
-90.0
  0
ARC
  5
5B5
100
AcDbEntity
  8
1
  6
CONTINUOUS
 62
           3
100
AcDbCircle
 10
2635.73495163709
 20
-2855.197259974317
 40
0.87272727273
100
AcDbArc
 50
90.0
 51
155.00000000009
  0
ARC
  5
5B4
100
AcDbEntity
  8
1
  6
CONTINUOUS
 62
           3
100
AcDbCircle
 10
2635.846149355366
 20
-2855.371805428862
 40
1.309090909093
100
AcDbArc
 50
90.0
 51
154.999999999889
  0
ARC
  5
5B3
100
AcDbEntity
  8
1
  6
CONTINUOUS
 62
           3
100
AcDbCircle
 10
2636.734582767078
 20
-2854.499078156164
 40
0.436363636376
100
AcDbArc
 50
-24.99999999043
 51
90.0
  0
ARC
  5
5B2
100
AcDbEntity
  8
1
  6
CONTINUOUS
 62
           3
100
AcDbCircle
 10
2636.666087396451
 20
-2854.542714519755
 40
0.218181818161
100
AcDbArc
 50
-25.000000002151
 51
90.0
  0
ARC
  5
5B1
100
AcDbEntity
  8
1
  6
CONTINUOUS
 62
           3
100
AcDbCircle
 10
2621.70676902355
 20
-2857.117259974349
 40
0.436363636439
100
AcDbArc
 50
154.999999992141
 51
-90.0
  0
ARC
  5
5B0
100
AcDbEntity
  8
1
  6
CONTINUOUS
 62
           3
100
AcDbCircle
 10
2621.775264394175
 20
-2857.073623610698
 40
0.218181818251
100
AcDbArc
 50
154.999999982994
 51
-90.0
  0
ARC
  5
5AF
100
AcDbEntity
  8
1
  6
CONTINUOUS
 62
           3
100
AcDbCircle
 10
2622.706400153537
 20
-2856.419078156136
 40
0.87272727273
100
AcDbArc
 50
-90.0
 51
-25.000000000044
  0
ARC
  5
5AE
100
AcDbEntity
  8
1
  6
CONTINUOUS
 62
           3
100
AcDbCircle
 10
2622.595202435262
 20
-2856.244532701591
 40
1.309090909092
100
AcDbArc
 50
-90.0
 51
-25.000000000144
  0
ARC
  5
5AD
100
AcDbEntity
  8
1
  6
CONTINUOUS
 62
           3
100
AcDbCircle
 10
2623.601568904603
 20
-2856.048169065249
 40
0.21818181812
100
AcDbArc
 50
-24.99999999844
 51
90.0
  0
ARC
  5
5AC
100
AcDbEntity
  8
1
  6
CONTINUOUS
 62
           3
100
AcDbCircle
 10
2623.670064275229
 20
-2856.004532701599
 40
0.436363636281
100
AcDbArc
 50
-25.000000000375
 51
90.0
  0
ARC
  5
5AB
100
AcDbEntity
  8
1
  6
CONTINUOUS
 62
           3
100
AcDbCircle
 10
2622.510513859819
 20
-2855.393623610689
 40
0.436363636399
100
AcDbArc
 50
154.999999993806
 51
-90.0
  0
ARC
  5
5AA
100
AcDbEntity
  8
1
  6
CONTINUOUS
 62
           3
100
AcDbCircle
 10
2622.579009230475
 20
-2855.349987247036
 40
0.218181818264
100
AcDbArc
 50
154.999999993584
 51
-90.0
  0
ARC
  5
5A9
100
AcDbEntity
  8
1
  6
CONTINUOUS
 62
           3
100
AcDbCircle
 10
2623.372438128787
 20
-2855.197259974317
 40
0.87272727273
100
AcDbArc
 50
90.0
 51
154.999999998424
  0
ARC
  5
5A8
100
AcDbEntity
  8
1
  6
CONTINUOUS
 62
           3
100
AcDbCircle
 10
2623.483635847062
 20
-2855.371805428862
 40
1.309090909093
100
AcDbArc
 50
90.0
 51
155.000000000949
  0
ARC
  5
5A7
100
AcDbEntity
  8
1
  6
CONTINUOUS
 62
           3
100
AcDbCircle
 10
2624.372069258835
 20
-2854.499078156164
 40
0.436363636268
100
AcDbArc
 50
-24.999999997016
 51
90.0
  0
ARC
  5
5A6
100
AcDbEntity
  8
1
  6
CONTINUOUS
 62
           3
100
AcDbCircle
 10
2624.303573888178
 20
-2854.542714519755
 40
0.218181818081
100
AcDbArc
 50
-25.000000011992
 51
90.0
  0
ARC
  5
5A5
100
AcDbEntity
  8
1
  6
CONTINUOUS
 62
           3
100
AcDbCircle
 10
2617.03367288083
 20
-2856.419078156136
 40
0.87272727273
100
AcDbArc
 50
-90.0
 51
-25.000000001696
  0
ARC
  5
5A4
100
AcDbEntity
  8
1
  6
CONTINUOUS
 62
           3
100
AcDbCircle
 10
2617.699710855962
 20
-2855.197259974317
 40
0.87272727273
100
AcDbArc
 50
90.0
 51
154.999999995976
  0
ARC
  5
5A3
100
AcDbEntity
  8
1
  6
CONTINUOUS
 62
           3
100
AcDbCircle
 10
2617.997337002522
 20
-2856.004532701599
 40
0.436363636281
100
AcDbArc
 50
-25.000000000375
 51
90.0
  0
ARC
  5
5A2
100
AcDbEntity
  8
1
  6
CONTINUOUS
 62
           3
100
AcDbCircle
 10
2616.837786586995
 20
-2855.393623610689
 40
0.43636363632
100
AcDbArc
 50
154.999999988961
 51
-90.0
  0
ARC
  5
5A1
100
AcDbEntity
  8
1
  6
CONTINUOUS
 62
           3
100
AcDbCircle
 10
2616.102537121468
 20
-2857.073623610698
 40
0.218181818252
100
AcDbArc
 50
154.999999983095
 51
-90.0
  0
ARC
  5
5A0
100
AcDbEntity
  8
1
  6
CONTINUOUS
 62
           3
100
AcDbCircle
 10
2617.928841631896
 20
-2856.048169065249
 40
0.218181818094
100
AcDbArc
 50
-25.000000001619
 51
90.0
  0
ARC
  5
59F
100
AcDbEntity
  8
1
  6
CONTINUOUS
 62
           3
100
AcDbCircle
 10
2616.90628195768
 20
-2855.349987247036
 40
0.218181818185
100
AcDbArc
 50
154.999999983945
 51
-90.0
  0
ARC
  5
59E
100
AcDbEntity
  8
1
  6
CONTINUOUS
 62
           3
100
AcDbCircle
 10
2618.630846615412
 20
-2854.542714519755
 40
0.218181818134
100
AcDbArc
 50
-25.000000005431
 51
90.0
  0
ARC
  5
59D
100
AcDbEntity
  8
1
  6
CONTINUOUS
 62
           3
100
AcDbCircle
 10
2613.582479479171
 20
-2855.061976570679
 40
0.872727272807
100
AcDbArc
 50
-77.663850596865
 51
-24.833311984008
  0
ARC
  5
59C
100
AcDbEntity
  8
1
  6
CONTINUOUS
 62
           3
100
AcDbCircle
 10
2613.506009599969
 20
-2856.262811273529
 40
0.436363636312
100
AcDbArc
 50
-23.740953472892
 51
52.948182772256
  0
ARC
  5
59B
100
AcDbEntity
  8
1
  6
CONTINUOUS
 62
           3
100
AcDbCircle
 10
2613.917363393612
 20
-2854.760896337981
 40
0.436363636295
100
AcDbArc
 50
-24.999999995376
 51
90.0
  0
ARC
  5
59A
100
AcDbEntity
  8
1
  6
CONTINUOUS
 62
           3
100
AcDbCircle
 10
2613.642665791339
 20
-2855.349987247036
 40
0.436363636395
100
AcDbArc
 50
-90.0
 51
-25.000000000479
  0
ARC
  5
599
100
AcDbEntity
  8
1
  6
CONTINUOUS
 62
           3
100
AcDbCircle
 10
2613.456095410502
 20
-2856.266350883416
 40
0.218181818228
100
AcDbArc
 50
-24.999999985534
 51
90.0
  0
ARC
  5
598
100
AcDbEntity
  8
1
  6
CONTINUOUS
 62
           3
100
AcDbCircle
 10
2608.329567400185
 20
-2857.117259974349
 40
0.436363636411
100
AcDbArc
 50
154.99999999045
 51
-90.0
  0
ARC
  5
597
100
AcDbEntity
  8
1
  6
CONTINUOUS
 62
           3
100
AcDbCircle
 10
2608.398062770841
 20
-2857.073623610698
 40
0.218181818278
100
AcDbArc
 50
154.999999986325
 51
-90.0
  0
ARC
  5
596
100
AcDbEntity
  8
1
  6
CONTINUOUS
 62
           3
100
AcDbCircle
 10
2609.43093838281
 20
-2856.200896337969
 40
1.090909090897
100
AcDbArc
 50
-90.0
 51
-24.999999998455
  0
ARC
  5
595
100
AcDbEntity
  8
1
  6
CONTINUOUS
 62
           3
100
AcDbCircle
 10
2609.458737812452
 20
-2856.244532701591
 40
1.309090909092
100
AcDbArc
 50
-90.0
 51
-25.000000000111
  0
ARC
  5
594
100
AcDbEntity
  8
1
  6
CONTINUOUS
 62
           3
100
AcDbCircle
 10
2611.16710926534
 20
-2854.542714519755
 40
0.218181818213
100
AcDbArc
 50
-24.999999995792
 51
90.0
  0
ARC
  5
593
100
AcDbEntity
  8
1
  6
CONTINUOUS
 62
           3
100
AcDbCircle
 10
2611.235604635907
 20
-2854.499078156164
 40
0.436363636323
100
AcDbArc
 50
-24.999999993685
 51
90.0
  0
ARC
  5
592
100
AcDbEntity
  8
1
  6
CONTINUOUS
 62
           3
100
AcDbCircle
 10
2610.134233653253
 20
-2855.415441792514
 40
1.090909090927
100
AcDbArc
 50
90.0
 51
155.000000000194
  0
ARC
  5
591
100
AcDbEntity
  8
1
  6
CONTINUOUS
 62
           3
100
AcDbCircle
 10
2610.106434223699
 20
-2855.371805428862
 40
1.309090909093
100
AcDbArc
 50
90.0
 51
155.000000000966
  0
ARC
  5
590
100
AcDbEntity
  8
1
  6
CONTINUOUS
 62
           3
100
AcDbCircle
 10
2608.037528258809
 20
-2854.542714519755
 40
0.218181818187
100
AcDbArc
 50
-24.999999999022
 51
90.0
  0
ARC
  5
58F
100
AcDbEntity
  8
1
  6
CONTINUOUS
 62
           3
100
AcDbCircle
 10
2605.268481764369
 20
-2857.073623610698
 40
0.218181818304
100
AcDbArc
 50
154.999999989555
 51
-90.0
  0
ARC
  5
58E
100
AcDbEntity
  8
1
  6
CONTINUOUS
 62
           3
100
AcDbCircle
 10
2606.301357376338
 20
-2856.200896337969
 40
1.090909090897
100
AcDbArc
 50
-90.0
 51
-25.00000000108
  0
ARC
  5
58D
100
AcDbEntity
  8
1
  6
CONTINUOUS
 62
           3
100
AcDbCircle
 10
2607.00465264684
 20
-2855.415441792514
 40
1.090909090927
100
AcDbArc
 50
90.0
 51
155.000000000214
  0
ARC
  5
58C
100
AcDbEntity
  8
1
  6
CONTINUOUS
 62
           3
100
AcDbCircle
 10
2603.171776369837
 20
-2856.200896337969
 40
1.090909090897
100
AcDbArc
 50
-90.0
 51
-24.999999999132
  0
ARC
  5
58B
100
AcDbEntity
  8
1
  6
CONTINUOUS
 62
           3
100
AcDbCircle
 10
2604.736708825653
 20
-2854.651805428853
 40
0.327272727341
100
AcDbArc
 50
-24.999999997282
 51
90.0
  0
ARC
  5
58A
100
AcDbEntity
  8
1
  6
CONTINUOUS
 62
           3
100
AcDbCircle
 10
2603.199575799479
 20
-2856.244532701591
 40
1.309090909092
100
AcDbArc
 50
-90.0
 51
-25.000000001221
  0
ARC
  5
589
100
AcDbEntity
  8
1
  6
CONTINUOUS
 62
           3
100
AcDbCircle
 10
2604.805204196339
 20
-2854.608169065233
 40
0.545454545341
100
AcDbArc
 50
-24.999999999923
 51
90.0
  0
ARC
  5
588
100
AcDbEntity
  8
1
  6
CONTINUOUS
 62
           3
100
AcDbCircle
 10
2605.199986393713
 20
-2857.117259974349
 40
0.436363636518
100
AcDbArc
 50
154.999999996986
 51
-90.0
  0
ARC
  5
587
100
AcDbEntity
  8
1
  6
CONTINUOUS
 62
           3
100
AcDbCircle
 10
2608.106023629465
 20
-2854.499078156164
 40
0.436363636349
100
AcDbArc
 50
-24.999999992095
 51
90.0
  0
ARC
  5
586
100
AcDbEntity
  8
1
  6
CONTINUOUS
 62
           3
100
AcDbCircle
 10
2606.976853217197
 20
-2855.371805428862
 40
1.309090909093
100
AcDbArc
 50
90.0
 51
154.999999999838
  0
ARC
  5
585
100
AcDbEntity
  8
1
  6
CONTINUOUS
 62
           3
100
AcDbCircle
 10
2606.329156805892
 20
-2856.244532701591
 40
1.309090909092
100
AcDbArc
 50
-90.0
 51
-24.999999998504
  0
ARC
  5
584
100
AcDbEntity
  8
1
  6
CONTINUOUS
 62
           3
100
AcDbCircle
 10
2613.982416172468
 20
-2854.717259974331
 40
0.654545454483
100
AcDbArc
 50
-24.800962694385
 51
90.0
  0
ARC
  5
583
100
AcDbEntity
  8
1
  6
CONTINUOUS
 62
           3
100
AcDbCircle
 10
2617.810908574238
 20
-2855.371805428862
 40
1.309090909093
100
AcDbArc
 50
90.0
 51
154.999999998779
  0
ARC
  5
582
100
AcDbEntity
  8
1
  6
CONTINUOUS
 62
           3
100
AcDbCircle
 10
2616.922475162525
 20
-2856.244532701591
 40
1.309090909092
100
AcDbArc
 50
-90.0
 51
-24.999999999042
  0
ARC
  5
581
100
AcDbEntity
  8
1
  6
CONTINUOUS
 62
           3
100
AcDbCircle
 10
2616.034041750841
 20
-2857.117259974349
 40
0.436363636438
100
AcDbArc
 50
154.999999992091
 51
-90.0
  0
ARC
  5
580
100
AcDbEntity
  8
1
  6
CONTINUOUS
 62
           3
100
AcDbCircle
 10
2618.699341986068
 20
-2854.499078156164
 40
0.436363636296
100
AcDbArc
 50
-24.99999999535
 51
90.0
  0
SPLINE
  5
57F
100
AcDbEntity
  8
1
  6
CONTINUOUS
 62
           3
100
AcDbSpline
210
0.0
220
0.0
230
1.0
 70
           0
 71
           3
 72
          14
 73
          11
 74
          19
 42
0.00000000001
 43
0.00000000001
 44
0.00000000001
 40
0.7862844167204821
 40
0.7862844167204821
 40
0.7862844167204821
 40
1.1369024219637311
 40
1.4952029155152664
 40
1.866187660402284
 40
2.2522493034694935
 40
2.6538148624060502
 40
3.0694813491324826
 40
3.496332117203238
 40
3.875623654801239
 40
4.1483228259793217
 40
4.1483228259793217
 40
4.1483228259793217
 10
2612.7038176506348
 20
-2846.6911812752251
 30
0.0
 10
2612.6843236895388
 20
-2846.5180590006062
 30
0.0
 10
2612.5693291221419
 20
-2846.184522756937
 30
0.0
 10
2612.3822170721319
 20
-2845.872532645305
 30
0.0
 10
2612.1292182553361
 20
-2845.5914534403059
 30
0.0
 10
2611.8183322332311
 20
-2845.3494872365031
 30
0.0
 10
2611.459078240438
 20
-2845.1536185278792
 30
0.0
 10
2611.0622860110898
 20
-2845.0095027446901
 30
0.0
 10
2610.6398437064308
 20
-2844.9213190994201
 30
0.0
 10
2610.3135659955319
 20
-2844.899078156147
 30
0.0
 10
2610.2043842578182
 20
-2844.899078156147
 30
0.0
 11
2612.7038176506348
 21
-2846.6911812752251
 31
0.0
 11
2612.6749786321575
 21
-2846.5200993517215
 31
0.0
 11
2612.6274494989184
 21
-2846.3530981304493
 31
0.0
 11
2612.5608770084373
 21
-2846.1883461308021
 31
0.0
 11
2612.4774002905483
 21
-2846.0312408788886
 31
0.0
 11
2612.3750178469068
 21
-2845.8777745294437
 31
0.0
 11
2612.2582369528163
 21
-2845.7347919482763
 31
0.0
 11
2612.1233771249285
 21
-2845.59763765973
 31
0.0
 11
2611.9768350362256
 21
-2845.4728518100305
 31
0.0
 11
2611.8138260282431
 21
-2845.35626724331
 31
0.0
 11
2611.6418046102854
 21
-2845.253242690203
 31
0.0
 11
2611.4558192233767
 21
-2845.1607492347975
 31
0.0
 11
2611.2633158023464
 21
-2845.0825171932311
 31
0.0
 11
2611.0566228661805
 21
-2845.0160830900682
 31
0.0
 11
2610.8386036401962
 21
-2844.9628096776596
 31
0.0
 11
2610.6420811828866
 21
-2844.9284571113931
 31
0.0
 11
2610.4500336784886
 21
-2844.9083805690725
 31
0.0
 11
2610.3203874818428
 21
-2844.9014037593788
 31
0.0
 11
2610.2043842578182
 21
-2844.899078156147
 31
0.0
  0
SPLINE
  5
57E
100
AcDbEntity
  8
1
  6
CONTINUOUS
 62
           3
100
AcDbSpline
210
0.0
220
0.0
230
1.0
 70
           0
 71
           3
 72
          15
 73
          12
 74
          21
 42
0.00000000001
 43
0.00000000001
 44
0.00000000001
 40
48.420231092011093
 40
48.420231092011093
 40
48.420231092011093
 40
48.692930263191144
 40
49.072221800785201
 40
49.499072568859916
 40
49.914739055603391
 40
50.316304614520178
 40
50.702366257560442
 40
51.073351002497567
 40
51.43165149604333
 40
51.781469965114603
 40
52.127504056082564
 40
52.127504056082564
 40
52.127504056082564
 10
2610.2043842578182
 20
-2848.826350883397
 30
0.0
 10
2610.3135659955319
 20
-2848.826350883397
 30
0.0
 10
2610.6398437064308
 20
-2848.8041099400662
 30
0.0
 10
2611.0622860110898
 20
-2848.7159262948539
 30
0.0
 10
2611.459078240438
 20
-2848.5718105116071
 30
0.0
 10
2611.8183322332311
 20
-2848.3759418029531
 30
0.0
 10
2612.1292182553361
 20
-2848.1339755992381
 30
0.0
 10
2612.3822170721319
 20
-2847.852896394239
 30
0.0
 10
2612.5693291221419
 20
-2847.5409062824901
 30
0.0
 10
2612.6843236895388
 20
-2847.2073700389392
 30
0.0
 10
2612.7231326831461
 20
-2846.862714519772
 30
0.0
 10
2612.7038176506348
 20
-2846.6911812752251
 30
0.0
 11
2610.2043842578182
 21
-2848.826350883397
 31
0.0
 11
2610.3203874818432
 21
-2848.8240252801597
 31
0.0
 11
2610.4500336784899
 21
-2848.8170484704469
 31
0.0
 11
2610.6420811828866
 21
-2848.7969719281082
 31
0.0
 11
2610.8386036401944
 21
-2848.7626193618544
 31
0.0
 11
2611.0566228661792
 21
-2848.7093459494617
 31
0.0
 11
2611.2633158023427
 21
-2848.6429118462847
 31
0.0
 11
2611.4558192233781
 21
-2848.564679804691
 31
0.0
 11
2611.6418046102931
 21
-2848.4721863492632
 31
0.0
 11
2611.8138260282453
 21
-2848.3691617961595
 31
0.0
 11
2611.9768350362274
 21
-2848.2525772294694
 31
0.0
 11
2612.1233771249258
 21
-2848.1277913798067
 31
0.0
 11
2612.2582369528036
 21
-2847.9906370912818
 31
0.0
 11
2612.3750178469058
 21
-2847.8476545100862
 31
0.0
 11
2612.4774002905551
 21
-2847.6941881605844
 31
0.0
 11
2612.5608934143493
 21
-2847.5370353240942
 31
0.0
 11
2612.6275151225577
 21
-2847.3721405708102
 31
0.0
 11
2612.6749990547214
 21
-2847.2052464318745
 31
0.0
 11
2612.7038337172507
 21
-2847.0341050788088
 31
0.0
 11
2612.7134791835442
 21
-2846.8626788483944
 31
0.0
 11
2612.7038176506348
 21
-2846.6911812752251
 31
0.0
  0
SPLINE
  5
57D
100
AcDbEntity
  8
1
  6
CONTINUOUS
 62
           3
100
AcDbSpline
210
0.0
220
0.0
230
1.0
 70
           0
 71
           3
 72
          14
 73
          11
 74
          19
 42
0.00000000001
 43
0.00000000001
 44
0.00000000001
 40
0.7862844167204821
 40
0.7862844167204821
 40
0.7862844167204821
 40
1.1369024219239321
 40
1.495202915481634
 40
1.8661876604229244
 40
2.2522493034412112
 40
2.6538148623721476
 40
3.0694813491248034
 40
3.4963321172003554
 40
3.8756236547982637
 40
4.1483228259763463
 40
4.1483228259763463
 40
4.1483228259763463
 10
2612.7038176506348
 20
-2850.6184540025051
 30
0.0
 10
2612.6843236895388
 20
-2850.4453317278558
 30
0.0
 10
2612.5693291221419
 20
-2850.1117954843348
 30
0.0
 10
2612.3822170721319
 20
-2849.799805372525
 30
0.0
 10
2612.1292182553361
 20
-2849.5187261675851
 30
0.0
 10
2611.8183322332311
 20
-2849.2767599638701
 30
0.0
 10
2611.459078240438
 20
-2849.080891255157
 30
0.0
 10
2611.0622860110898
 20
-2848.9367754719392
 30
0.0
 10
2610.6398437064308
 20
-2848.8485918266701
 30
0.0
 10
2610.3135659955319
 20
-2848.826350883397
 30
0.0
 10
2610.2043842578182
 20
-2848.826350883397
 30
0.0
 11
2612.7038176506348
 21
-2850.6184540025051
 31
0.0
 11
2612.6749786321589
 21
-2850.4473720789997
 31
0.0
 11
2612.6274494989225
 21
-2850.2803708577831
 31
0.0
 11
2612.5608770084405
 21
-2850.1156188581654
 31
0.0
 11
2612.4774002905542
 21
-2849.9585136062087
 31
0.0
 11
2612.375017846904
 21
-2849.8050472566915
 31
0.0
 11
2612.2582369527995
 21
-2849.6620646755064
 31
0.0
 11
2612.1233771249267
 21
-2849.5249103870092
 31
0.0
 11
2611.9768350362342
 21
-2849.4001245373597
 31
0.0
 11
2611.8138260282467
 21
-2849.2835399706569
 31
0.0
 11
2611.6418046102922
 21
-2849.1805154175299
 31
0.0
 11
2611.4558192233771
 21
-2849.088021962084
 31
0.0
 11
2611.2633158023409
 21
-2849.0097899204929
 31
0.0
 11
2611.0566228661792
 21
-2848.94335581732
 31
0.0
 11
2610.8386036401953
 21
-2848.8900824049088
 31
0.0
 11
2610.6420811828871
 21
-2848.8557298386436
 31
0.0
 11
2610.4500336784886
 21
-2848.8356532963226
 31
0.0
 11
2610.3203874818428
 21
-2848.8286764866284
 31
0.0
 11
2610.2043842578182
 21
-2848.826350883397
 31
0.0
  0
SPLINE
  5
57C
100
AcDbEntity
  8
1
  6
CONTINUOUS
 62
           3
100
AcDbSpline
210
0.0
220
0.0
230
1.0
 70
           0
 71
           3
 72
          15
 73
          12
 74
          21
 42
0.00000000001
 43
0.00000000001
 44
0.00000000001
 40
48.420231092011143
 40
48.420231092011143
 40
48.420231092011143
 40
48.692930263191236
 40
49.072221800785208
 40
49.499072568864747
 40
49.914739055606006
 40
50.316304614524825
 40
50.702366257563483
 40
51.073351002489417
 40
51.431651496035002
 40
51.781469965106716
 40
52.127504056074002
 40
52.127504056074002
 40
52.127504056074002
 10
2610.2043842578182
 20
-2852.7536236106762
 30
0.0
 10
2610.3135659955319
 20
-2852.7536236106762
 30
0.0
 10
2610.6398437064308
 20
-2852.731382667344
 30
0.0
 10
2611.0622860110898
 20
-2852.6431990221331
 30
0.0
 10
2611.459078240438
 20
-2852.4990832388571
 30
0.0
 10
2611.8183322332311
 20
-2852.3032145302332
 30
0.0
 10
2612.1292182553361
 20
-2852.0612483264881
 30
0.0
 10
2612.3822170721319
 20
-2851.7801691215182
 30
0.0
 10
2612.5693291221419
 20
-2851.4681790097702
 30
0.0
 10
2612.6843236895388
 20
-2851.1346427662188
 30
0.0
 10
2612.7231326831461
 20
-2850.7899872470512
 30
0.0
 10
2612.7038176506348
 20
-2850.6184540025051
 30
0.0
 11
2610.2043842578182
 21
-2852.7536236106762
 31
0.0
 11
2610.3203874818428
 21
-2852.7512980074389
 31
0.0
 11
2610.4500336784904
 21
-2852.7443211977256
 31
0.0
 11
2610.6420811828866
 21
-2852.7242446553864
 31
0.0
 11
2610.8386036401935
 21
-2852.6898920891331
 31
0.0
 11
2611.0566228661792
 21
-2852.6366186767368
 31
0.0
 11
2611.2633158023446
 21
-2852.5701845735484
 31
0.0
 11
2611.4558192233785
 21
-2852.4919525319483
 31
0.0
 11
2611.6418046102922
 21
-2852.3994590765292
 31
0.0
 11
2611.8138260282453
 21
-2852.2964345234318
 31
0.0
 11
2611.9768350362274
 21
-2852.1798499567335
 31
0.0
 11
2612.1233771249263
 21
-2852.0550641070636
 31
0.0
 11
2612.2582369528054
 21
-2851.9179098185446
 31
0.0
 11
2612.3750178469058
 21
-2851.7749272373617
 31
0.0
 11
2612.4774002905542
 21
-2851.6214608878663
 31
0.0
 11
2612.5608934143488
 21
-2851.4643080513742
 31
0.0
 11
2612.6275151225582
 21
-2851.2994132980912
 31
0.0
 11
2612.6749990547219
 21
-2851.1325191591545
 31
0.0
 11
2612.7038337172507
 21
-2850.9613778060875
 31
0.0
 11
2612.7134791835442
 21
-2850.7899515756735
 31
0.0
 11
2612.7038176506348
 21
-2850.6184540025051
 31
0.0
  0
SPLINE
  5
57B
100
AcDbEntity
  8
1
  6
CONTINUOUS
 62
           3
100
AcDbSpline
210
0.0
220
0.0
230
1.0
 70
           0
 71
           3
 72
          14
 73
          11
 74
          19
 42
0.00000000001
 43
0.00000000001
 44
0.00000000001
 40
0.3053995610601455
 40
0.3053995610601455
 40
0.3053995610601455
 40
0.4403516341381946
 40
0.576784699347491
 40
0.7156868441961446
 40
0.8575674551144273
 40
1.0025593157775337
 40
1.1504223459477325
 40
1.3005899144375597
 40
1.4331904030136617
 40
1.5282183624361916
 40
1.5282183624361916
 40
1.5282183624361916
 10
2609.655586978502
 20
-2847.3415396761452
 30
0.0
 10
2609.6488713304188
 20
-2847.2746095007001
 30
0.0
 10
2609.6091087684158
 20
-2847.1452092628838
 30
0.0
 10
2609.5442764703312
 20
-2847.0239594957829
 30
0.0
 10
2609.4564394062918
 20
-2846.9145451823042
 30
0.0
 10
2609.3483389227099
 20
-2846.8202446308842
 30
0.0
 10
2609.2232939146952
 20
-2846.7438544307088
 30
0.0
 10
2609.0851011570821
 20
-2846.6876268745932
 30
0.0
 10
2608.9379292229601
 20
-2846.6532155484961
 30
0.0
 10
2608.824200601839
 20
-2846.644532701604
 30
0.0
 10
2608.786202439655
 20
-2846.644532701604
 30
0.0
 11
2609.655586978502
 21
-2847.3415396761452
 31
0.0
 11
2609.6456070460226
 21
-2847.2752552845604
 31
0.0
 11
2609.6290985447495
 21
-2847.210262460695
 31
0.0
 11
2609.6060748485206
 21
-2847.1464522554729
 31
0.0
 11
2609.5769833125019
 21
-2847.08512803543
 31
0.0
 11
2609.5415900167891
 21
-2847.0257199211192
 31
0.0
 11
2609.5008238139922
 21
-2846.9698326574812
 31
0.0
 11
2609.4541694970353
 21
-2846.9167073231961
 31
0.0
 11
2609.402975361566
 21
-2846.8679062706942
 31
0.0
 11
2609.3465206501551
 21
-2846.8227048826625
 31
0.0
 11
2609.2864293936354
 21
-2846.7824239981869
 31
0.0
 11
2609.2219372626346
 21
-2846.7465227259049
 31
0.0
 11
2609.1547318275134
 21
-2846.7159580440166
 31
0.0
 11
2609.0829694434324
 21
-2846.690141023993
 31
0.0
 11
2609.0069436320546
 21
-2846.6693523027689
 31
0.0
 11
2608.9386202307314
 21
-2846.6559852315181
 31
0.0
 11
2608.8716788449501
 21
-2846.6481575263101
 31
0.0
 11
2608.8265706220709
 21
-2846.6454389077808
 31
0.0
 11
2608.786202439655
 21
-2846.644532701604
 31
0.0
  0
SPLINE
  5
57A
100
AcDbEntity
  8
1
  6
CONTINUOUS
 62
           3
100
AcDbSpline
210
0.0
220
0.0
230
1.0
 70
           0
 71
           3
 72
          14
 73
          11
 74
          19
 42
0.00000000001
 43
0.00000000001
 44
0.00000000001
 40
0.3053995610601455
 40
0.3053995610601455
 40
0.3053995610601455
 40
0.4403516341372363
 40
0.5767846993470347
 40
0.7156868441837161
 40
0.8575674551003945
 40
1.0025593157731854
 40
1.1504223459379326
 40
1.3005899144255029
 40
1.4331904030048661
 40
1.528218362427344
 40
1.528218362427344
 40
1.528218362427344
 10
2609.655586978502
 20
-2850.1779033124981
 30
0.0
 10
2609.6488713304188
 20
-2850.1109731370552
 30
0.0
 10
2609.6091087684158
 20
-2849.9815728992362
 30
0.0
 10
2609.5442764703312
 20
-2849.8603231321372
 30
0.0
 10
2609.4564394062918
 20
-2849.7509088186871
 30
0.0
 10
2609.3483389227099
 20
-2849.656608267238
 30
0.0
 10
2609.2232939146952
 20
-2849.5802180670621
 30
0.0
 10
2609.0851011570821
 20
-2849.5239905109761
 30
0.0
 10
2608.9379292229601
 20
-2849.4895791848498
 30
0.0
 10
2608.824200601839
 20
-2849.4808963379592
 30
0.0
 10
2608.786202439655
 20
-2849.4808963379592
 30
0.0
 11
2609.655586978502
 21
-2850.1779033124981
 31
0.0
 11
2609.6456070460222
 21
-2850.1116189209142
 31
0.0
 11
2609.6290985447495
 21
-2850.0466260970493
 31
0.0
 11
2609.6060748485206
 21
-2849.9828158918253
 31
0.0
 11
2609.5769833125005
 21
-2849.921491671781
 31
0.0
 11
2609.5415900167886
 21
-2849.8620835574761
 31
0.0
 11
2609.5008238139935
 21
-2849.8061962938518
 31
0.0
 11
2609.4541694970362
 21
-2849.7530709595726
 31
0.0
 11
2609.4029753615682
 21
-2849.7042699070644
 31
0.0
 11
2609.3465206501551
 21
-2849.6590685190195
 31
0.0
 11
2609.2864293936318
 21
-2849.6187876345384
 31
0.0
 11
2609.2219372626337
 21
-2849.5828863622619
 31
0.0
 11
2609.1547318275138
 21
-2849.5523216803849
 31
0.0
 11
2609.0829694434337
 21
-2849.5265046603686
 31
0.0
 11
2609.0069436320559
 21
-2849.5057159391363
 31
0.0
 11
2608.9386202307314
 21
-2849.4923488678751
 31
0.0
 11
2608.8716788449497
 21
-2849.4845211626648
 31
0.0
 11
2608.8265706220704
 21
-2849.4818025441355
 31
0.0
 11
2608.786202439655
 21
-2849.4808963379592
 31
0.0
  0
SPLINE
  5
579
100
AcDbEntity
  8
1
  6
CONTINUOUS
 62
           3
100
AcDbSpline
210
0.0
220
0.0
230
1.0
 70
           0
 71
           3
 72
          15
 73
          12
 74
          21
 42
0.00000000001
 43
0.00000000001
 44
0.00000000001
 40
17.668653401818549
 40
17.668653401818549
 40
17.668653401818549
 40
17.76368136124556
 40
17.896281849822834
 40
18.046449418303347
 40
18.194312448475848
 40
18.339304309156368
 40
18.481184920038025
 40
18.62008706487963
 40
18.756520130114588
 40
18.891321054805019
 40
19.025400108629462
 40
19.025400108629462
 40
19.025400108629462
 10
2608.786202439655
 20
-2848.1718054288658
 30
0.0
 10
2608.824200601839
 20
-2848.1718054288658
 30
0.0
 10
2608.9379292229601
 20
-2848.163122581856
 30
0.0
 10
2609.0851011570821
 20
-2848.1287112557879
 30
0.0
 10
2609.2232939146952
 20
-2848.0724836997042
 30
0.0
 10
2609.3483389227099
 20
-2847.996093499497
 30
0.0
 10
2609.4564394062918
 20
-2847.9017929480492
 30
0.0
 10
2609.5442764703312
 20
-2847.7923786346878
 30
0.0
 10
2609.6091087684158
 20
-2847.6711288674992
 30
0.0
 10
2609.6488713304188
 20
-2847.5417286297102
 30
0.0
 10
2609.6622724461781
 20
-2847.4081690652351
 30
0.0
 10
2609.655586978502
 20
-2847.3415396761452
 30
0.0
 11
2608.786202439655
 21
-2848.1718054288658
 31
0.0
 11
2608.8265706220709
 21
-2848.1708992226768
 31
0.0
 11
2608.871678844951
 21
-2848.1681806041106
 31
0.0
 11
2608.9386202307319
 21
-2848.1603528988549
 31
0.0
 11
2609.0069436320573
 21
-2848.1469858275964
 31
0.0
 11
2609.0829694434328
 21
-2848.1261971063882
 31
0.0
 11
2609.1547318275102
 21
-2848.1003800863814
 31
0.0
 11
2609.2219372626332
 21
-2848.0698154045008
 31
0.0
 11
2609.2864293936318
 21
-2848.033914132212
 31
0.0
 11
2609.3465206501569
 21
-2847.9936332477173
 31
0.0
 11
2609.402975361576
 21
-2847.9484318596637
 31
0.0
 11
2609.4541694970367
 21
-2847.8996308071751
 31
0.0
 11
2609.5008238139876
 21
-2847.8465054729377
 31
0.0
 11
2609.5415900167868
 21
-2847.7906182093293
 31
0.0
 11
2609.5769833124978
 21
-2847.7312100950039
 31
0.0
 11
2609.6060776334057
 21
-2847.6698768120059
 31
0.0
 11
2609.6291096842938
 21
-2847.6060394180222
 31
0.0
 11
2609.645610555659
 21
-2847.5410665597628
 31
0.0
 11
2609.655589877505
 21
-2847.4747695616088
 31
0.0
 11
2609.6589304370909
 21
-2847.408161842056
 31
0.0
 11
2609.655586978502
 21
-2847.3415396761452
 31
0.0
  0
SPLINE
  5
578
100
AcDbEntity
  8
1
  6
CONTINUOUS
 62
           3
100
AcDbSpline
210
0.0
220
0.0
230
1.0
 70
           0
 71
           3
 72
          15
 73
          12
 74
          21
 42
0.00000000001
 43
0.00000000001
 44
0.00000000001
 40
17.668653401815931
 40
17.668653401815931
 40
17.668653401815931
 40
17.763681361242924
 40
17.896281849823545
 40
18.046449418307851
 40
18.194312448449722
 40
18.339304309108755
 40
18.481184920034906
 40
18.620087064898406
 40
18.756520130105983
 40
18.891321054811485
 40
19.025400108665337
 40
19.025400108665337
 40
19.025400108665337
 10
2608.786202439655
 20
-2851.0081690652491
 30
0.0
 10
2608.824200601839
 20
-2851.0081690652491
 30
0.0
 10
2608.9379292229601
 20
-2850.9994862182398
 30
0.0
 10
2609.0851011570821
 20
-2850.9650748921422
 30
0.0
 10
2609.2232939146952
 20
-2850.9088473360562
 30
0.0
 10
2609.3483389227099
 20
-2850.8324571359681
 30
0.0
 10
2609.4564394062918
 20
-2850.7381565844912
 30
0.0
 10
2609.5442764703312
 20
-2850.6287422710402
 30
0.0
 10
2609.6091087684158
 20
-2850.5074925038812
 30
0.0
 10
2609.6488713304188
 20
-2850.3780922661222
 30
0.0
 10
2609.6622724461781
 20
-2850.244532701588
 30
0.0
 10
2609.655586978502
 20
-2850.1779033124981
 30
0.0
 11
2608.786202439655
 21
-2851.0081690652491
 31
0.0
 11
2608.8265706220709
 21
-2851.0072628590606
 31
0.0
 11
2608.8716788449506
 21
-2851.0045442404939
 31
0.0
 11
2608.9386202307319
 21
-2850.996716535235
 31
0.0
 11
2609.0069436320573
 21
-2850.9833494639661
 31
0.0
 11
2609.0829694434351
 21
-2850.9625607427456
 31
0.0
 11
2609.1547318275188
 21
-2850.9367437227315
 31
0.0
 11
2609.221937262635
 21
-2850.9061790408673
 31
0.0
 11
2609.28642939363
 21
-2850.8702777686258
 31
0.0
 11
2609.3465206501533
 21
-2850.8299968841729
 31
0.0
 11
2609.4029753615637
 21
-2850.7847954961308
 31
0.0
 11
2609.4541694970344
 21
-2850.7359944436107
 31
0.0
 11
2609.5008238139908
 21
-2850.6828691093297
 31
0.0
 11
2609.5415900167891
 21
-2850.6269818456926
 31
0.0
 11
2609.5769833125041
 21
-2850.5675737313604
 31
0.0
 11
2609.6060776334061
 21
-2850.5062404483879
 31
0.0
 11
2609.6291096842901
 21
-2850.4424030544292
 31
0.0
 11
2609.6456105556581
 21
-2850.3774301961666
 31
0.0
 11
2609.655589877505
 21
-2850.3111331979949
 31
0.0
 11
2609.6589304370909
 21
-2850.244525478417
 31
0.0
 11
2609.655586978502
 21
-2850.1779033124981
 31
0.0
  0
LINE
  5
577
100
AcDbEntity
  8
0
  6
CONTINUOUS
 62
           3
100
AcDbLine
 10
2622.968020621452
 20
-2852.753623610676
 11
2625.368020621471
 21
-2852.753623610676
  0
LINE
  5
576
100
AcDbEntity
  8
0
  6
CONTINUOUS
 62
           3
100
AcDbLine
 10
2637.14983880325
 20
-2850.135441792491
 11
2639.768020621435
 21
-2844.899078156147
  0
LINE
  5
575
100
AcDbEntity
  8
0
  6
CONTINUOUS
 62
           3
100
AcDbLine
 10
2631.477111530514
 20
-2844.899078156147
 11
2634.095293348818
 21
-2850.135441792491
  0
LINE
  5
574
100
AcDbEntity
  8
0
  6
CONTINUOUS
 62
           3
100
AcDbLine
 10
2635.622566075989
 20
-2848.171805428866
 11
2634.749838803291
 21
-2844.899078156147
  0
LINE
  5
573
100
AcDbEntity
  8
0
  6
CONTINUOUS
 62
           3
100
AcDbLine
 10
2635.622566075989
 20
-2848.171805428866
 11
2636.495293348718
 21
-2844.899078156147
  0
LINE
  5
572
100
AcDbEntity
  8
0
  6
CONTINUOUS
 62
           3
100
AcDbLine
 10
2634.095293348818
 20
-2852.753623610676
 11
2637.14983880325
 21
-2852.753623610676
  0
LINE
  5
571
100
AcDbEntity
  8
0
  6
CONTINUOUS
 62
           3
100
AcDbLine
 10
2634.095293348818
 20
-2850.135441792491
 11
2634.095293348818
 21
-2852.753623610676
  0
LINE
  5
570
100
AcDbEntity
  8
0
  6
CONTINUOUS
 62
           3
100
AcDbLine
 10
2637.14983880325
 20
-2852.753623610676
 11
2637.14983880325
 21
-2850.135441792491
  0
LINE
  5
56F
100
AcDbEntity
  8
0
  6
CONTINUOUS
 62
           3
100
AcDbLine
 10
2636.495293348718
 20
-2844.899078156147
 11
2639.768020621435
 21
-2844.899078156147
  0
LINE
  5
56E
100
AcDbEntity
  8
0
  6
CONTINUOUS
 62
           3
100
AcDbLine
 10
2631.477111530514
 20
-2844.899078156147
 11
2634.749838803291
 21
-2844.899078156147
  0
LINE
  5
56D
100
AcDbEntity
  8
1
  6
CONTINUOUS
 62
           3
100
AcDbLine
 10
2594.098576422545
 20
-2855.589987247029
 11
2597.066708176542
 21
-2866.717259974336
  0
LINE
  5
56C
100
AcDbEntity
  8
1
  6
CONTINUOUS
 62
           3
100
AcDbLine
 10
2590.149509891367
 20
-2855.589987247029
 11
2594.098576422545
 21
-2855.589987247029
  0
LINE
  5
56B
100
AcDbEntity
  8
1
  6
CONTINUOUS
 62
           3
100
AcDbLine
 10
2590.818979090284
 20
-2852.753623610676
 11
2592.003424596362
 21
-2847.735441792501
  0
LINE
  5
56A
100
AcDbEntity
  8
1
  6
CONTINUOUS
 62
           3
100
AcDbLine
 10
2590.818979090284
 20
-2852.753623610676
 11
2593.341993818602
 21
-2852.753623610676
  0
LINE
  5
569
100
AcDbEntity
  8
1
  6
CONTINUOUS
 62
           3
100
AcDbLine
 10
2597.066708176542
 20
-2866.717259974336
 11
2600.284250611926
 21
-2859.490541342869
  0
LINE
  5
568
100
AcDbEntity
  8
1
  6
CONTINUOUS
 62
           3
100
AcDbLine
 10
2592.003424596362
 20
-2847.735441792501
 11
2593.341993818602
 21
-2852.753623610676
  0
LINE
  5
567
100
AcDbEntity
  8
1
  6
CONTINUOUS
 62
           3
100
AcDbLine
 10
2589.686031215075
 20
-2857.553623610683
 11
2590.149509891367
 21
-2855.589987247029
  0
LINE
  5
566
100
AcDbEntity
  8
1
  6
CONTINUOUS
 62
           3
100
AcDbLine
 10
2584.886031215067
 20
-2857.553623610683
 11
2589.686031215075
 21
-2857.553623610683
  0
LINE
  5
565
100
AcDbEntity
  8
1
  6
CONTINUOUS
 62
           3
100
AcDbLine
 10
2588.99774228016
 20
-2844.899078156147
 11
2595.543196825625
 21
-2844.899078156147
  0
LINE
  5
564
100
AcDbEntity
  8
1
  6
CONTINUOUS
 62
           3
100
AcDbLine
 10
2584.886031215067
 20
-2857.553623610683
 11
2588.99774228016
 21
-2844.899078156147
  0
LINE
  5
563
100
AcDbEntity
  8
1
  6
CONTINUOUS
 62
           3
100
AcDbLine
 10
2595.543196825625
 20
-2844.899078156147
 11
2600.284250611926
 21
-2859.490541342869
  0
LINE
  5
562
100
AcDbEntity
  8
1
  6
CONTINUOUS
 62
           3
100
AcDbLine
 10
2598.968020621414
 20
-2844.899078156147
 11
2602.022566076023
 21
-2844.899078156147
  0
LINE
  5
561
100
AcDbEntity
  8
1
  6
CONTINUOUS
 62
           3
100
AcDbLine
 10
2602.022566076023
 20
-2844.899078156147
 11
2602.022566076023
 21
-2850.789987247051
  0
LINE
  5
560
100
AcDbEntity
  8
1
  6
CONTINUOUS
 62
           3
100
AcDbLine
 10
2602.022566076023
 20
-2850.789987247051
 11
2604.858929712376
 21
-2850.789987247051
  0
LINE
  5
55F
100
AcDbEntity
  8
1
  6
CONTINUOUS
 62
           3
100
AcDbLine
 10
2604.858929712376
 20
-2850.789987247051
 11
2604.858929712376
 21
-2852.753623610676
  0
LINE
  5
55E
100
AcDbEntity
  8
1
  6
CONTINUOUS
 62
           3
100
AcDbLine
 10
2604.858929712376
 20
-2852.753623610676
 11
2598.968020621414
 21
-2852.753623610676
  0
LINE
  5
55D
100
AcDbEntity
  8
1
  6
CONTINUOUS
 62
           3
100
AcDbLine
 10
2598.968020621414
 20
-2852.753623610676
 11
2598.968020621414
 21
-2844.899078156147
  0
LINE
  5
55C
100
AcDbEntity
  8
1
  6
CONTINUOUS
 62
           3
100
AcDbLine
 10
2608.349838803262
 20
-2846.644532701604
 11
2608.786202439655
 21
-2846.644532701604
  0
LINE
  5
55B
100
AcDbEntity
  8
1
  6
CONTINUOUS
 62
           3
100
AcDbLine
 10
2608.349838803262
 20
-2848.171805428866
 11
2608.786202439655
 21
-2848.171805428866
  0
LINE
  5
55A
100
AcDbEntity
  8
1
  6
CONTINUOUS
 62
           3
100
AcDbLine
 10
2608.349838803262
 20
-2849.480896337959
 11
2608.786202439655
 21
-2849.480896337959
  0
LINE
  5
559
100
AcDbEntity
  8
1
  6
CONTINUOUS
 62
           3
100
AcDbLine
 10
2608.349838803262
 20
-2851.008169065249
 11
2608.786202439655
 21
-2851.008169065249
  0
LINE
  5
558
100
AcDbEntity
  8
1
  6
CONTINUOUS
 62
           3
100
AcDbLine
 10
2608.349838803262
 20
-2846.644532701604
 11
2608.349838803262
 21
-2848.171805428866
  0
LINE
  5
557
100
AcDbEntity
  8
1
  6
CONTINUOUS
 62
           3
100
AcDbLine
 10
2608.349838803262
 20
-2849.480896337959
 11
2608.349838803262
 21
-2851.008169065249
  0
LINE
  5
556
100
AcDbEntity
  8
1
  6
CONTINUOUS
 62
           3
100
AcDbLine
 10
2605.513475166997
 20
-2844.899078156147
 11
2605.513475166997
 21
-2852.753623610676
  0
LINE
  5
555
100
AcDbEntity
  8
1
  6
CONTINUOUS
 62
           3
100
AcDbLine
 10
2610.204384257818
 20
-2844.899078156147
 11
2605.513475166997
 21
-2844.899078156147
  0
LINE
  5
554
100
AcDbEntity
  8
1
  6
CONTINUOUS
 62
           3
100
AcDbLine
 10
2605.513475166997
 20
-2852.753623610676
 11
2610.204384257818
 21
-2852.753623610676
  0
LINE
  5
553
100
AcDbEntity
  8
1
  6
CONTINUOUS
 62
           3
100
AcDbLine
 10
2616.20438425782
 20
-2852.753623610676
 11
2613.368020621437
 21
-2852.753623610676
  0
LINE
  5
552
100
AcDbEntity
  8
1
  6
CONTINUOUS
 62
           3
100
AcDbLine
 10
2619.477111530508
 20
-2852.753623610676
 11
2622.313475166862
 21
-2852.753623610676
  0
LINE
  5
551
100
AcDbEntity
  8
1
  6
CONTINUOUS
 62
           3
100
AcDbLine
 10
2615.986202439623
 20
-2844.899078156147
 11
2619.695293348735
 21
-2844.899078156147
  0
LINE
  5
550
100
AcDbEntity
  8
1
  6
CONTINUOUS
 62
           3
100
AcDbLine
 10
2615.986202439623
 20
-2844.899078156147
 11
2613.368020621437
 21
-2852.753623610676
  0
LINE
  5
54F
100
AcDbEntity
  8
1
  6
CONTINUOUS
 62
           3
100
AcDbLine
 10
2619.695293348735
 20
-2844.899078156147
 11
2622.313475166862
 21
-2852.753623610676
  0
LINE
  5
54E
100
AcDbEntity
  8
1
  6
CONTINUOUS
 62
           3
100
AcDbLine
 10
2616.537717591171
 20
-2851.553623610682
 11
2619.14377819716
 21
-2851.553623610682
  0
LINE
  5
54D
100
AcDbEntity
  8
1
  6
CONTINUOUS
 62
           3
100
AcDbLine
 10
2617.022566075999
 20
-2849.808169065225
 11
2618.658929712358
 21
-2849.808169065225
  0
LINE
  5
54C
100
AcDbEntity
  8
1
  6
CONTINUOUS
 62
           3
100
AcDbLine
 10
2616.20438425782
 20
-2852.753623610676
 11
2616.537717591171
 21
-2851.553623610682
  0
LINE
  5
54B
100
AcDbEntity
  8
1
  6
CONTINUOUS
 62
           3
100
AcDbLine
 10
2617.84074789415
 20
-2846.862714519772
 11
2618.658929712358
 21
-2849.808169065225
  0
LINE
  5
54A
100
AcDbEntity
  8
1
  6
CONTINUOUS
 62
           3
100
AcDbLine
 10
2617.022566075999
 20
-2849.808169065225
 11
2617.84074789415
 21
-2846.862714519772
  0
LINE
  5
549
100
AcDbEntity
  8
1
  6
CONTINUOUS
 62
           3
100
AcDbLine
 10
2619.14377819716
 20
-2851.553623610682
 11
2619.477111530508
 21
-2852.753623610676
  0
LINE
  5
548
100
AcDbEntity
  8
1
  6
CONTINUOUS
 62
           3
100
AcDbLine
 10
2622.968020621452
 20
-2844.899078156147
 11
2622.968020621452
 21
-2852.753623610676
  0
LINE
  5
547
100
AcDbEntity
  8
1
  6
CONTINUOUS
 62
           3
100
AcDbLine
 10
2630.822566076011
 20
-2852.753623610676
 11
2630.822566076011
 21
-2844.899078156147
  0
LINE
  5
546
100
AcDbEntity
  8
1
  6
CONTINUOUS
 62
           3
100
AcDbLine
 10
2628.422566075992
 20
-2844.899078156147
 11
2628.422566075992
 21
-2849.699078156156
  0
LINE
  5
545
100
AcDbEntity
  8
1
  6
CONTINUOUS
 62
           3
100
AcDbLine
 10
2625.368020621471
 20
-2852.753623610676
 11
2625.368020621471
 21
-2847.953623610699
  0
LINE
  5
544
100
AcDbEntity
  8
1
  6
CONTINUOUS
 62
           3
100
AcDbLine
 10
2625.368020621471
 20
-2847.953623610699
 11
2627.113475166899
 21
-2852.753623610676
  0
LINE
  5
543
100
AcDbEntity
  8
1
  6
CONTINUOUS
 62
           3
100
AcDbLine
 10
2628.422566075992
 20
-2849.699078156156
 11
2626.677111530564
 21
-2844.899078156147
  0
LINE
  5
542
100
AcDbEntity
  8
1
  6
CONTINUOUS
 62
           3
100
AcDbLine
 10
2622.968020621452
 20
-2844.899078156147
 11
2626.677111530564
 21
-2844.899078156147
  0
LINE
  5
541
100
AcDbEntity
  8
1
  6
CONTINUOUS
 62
           3
100
AcDbLine
 10
2627.113475166899
 20
-2852.753623610676
 11
2630.822566076011
 21
-2852.753623610676
  0
LINE
  5
540
100
AcDbEntity
  8
1
  6
CONTINUOUS
 62
           3
100
AcDbLine
 10
2628.422566075992
 20
-2844.899078156147
 11
2630.822566076011
 21
-2844.899078156147
  0
LINE
  5
53F
100
AcDbEntity
  8
1
  6
CONTINUOUS
 62
           3
100
AcDbLine
 10
2626.751435945999
 20
-2854.324532701587
 11
2627.94368153781
 21
-2854.324532701587
  0
LINE
  5
53E
100
AcDbEntity
  8
1
  6
CONTINUOUS
 62
           3
100
AcDbLine
 10
2625.245686126241
 20
-2857.553623610683
 11
2626.751435945999
 21
-2854.324532701587
  0
LINE
  5
53D
100
AcDbEntity
  8
1
  6
CONTINUOUS
 62
           3
100
AcDbLine
 10
2624.949088044446
 20
-2857.553623610683
 11
2626.454837864146
 21
-2854.324532701587
  0
LINE
  5
53C
100
AcDbEntity
  8
1
  6
CONTINUOUS
 62
           3
100
AcDbLine
 10
2633.893028088916
 20
-2856.462714519789
 11
2634.181912489429
 21
-2856.462714519789
  0
LINE
  5
53B
100
AcDbEntity
  8
1
  6
CONTINUOUS
 62
           3
100
AcDbLine
 10
2633.673802770165
 20
-2856.932844732776
 11
2633.893028088916
 21
-2856.462714519789
  0
LINE
  5
53A
100
AcDbEntity
  8
1
  6
CONTINUOUS
 62
           3
100
AcDbLine
 10
2634.181912489429
 20
-2856.462714519789
 11
2633.940038021634
 21
-2856.981415989867
  0
LINE
  5
539
100
AcDbEntity
  8
1
  6
CONTINUOUS
 62
           3
100
AcDbLine
 10
2634.137777902538
 20
-2857.291805428866
 11
2635.068913661781
 21
-2857.291805428866
  0
LINE
  5
538
100
AcDbEntity
  8
1
  6
CONTINUOUS
 62
           3
100
AcDbLine
 10
2634.069282531793
 20
-2857.553623610683
 11
2634.957715943506
 21
-2857.553623610683
  0
LINE
  5
537
100
AcDbEntity
  8
1
  6
CONTINUOUS
 62
           3
100
AcDbLine
 10
2636.428057545131
 20
-2856.188947943054
 11
2636.14415522845
 21
-2856.797778426045
  0
LINE
  5
536
100
AcDbEntity
  8
1
  6
CONTINUOUS
 62
           3
100
AcDbLine
 10
2635.859873185097
 20
-2856.787908639136
 11
2636.161822293602
 21
-2856.140376685961
  0
LINE
  5
535
100
AcDbEntity
  8
1
  6
CONTINUOUS
 62
           3
100
AcDbLine
 10
2634.873027368093
 20
-2855.829987247052
 11
2635.964082412906
 21
-2855.829987247052
  0
LINE
  5
534
100
AcDbEntity
  8
1
  6
CONTINUOUS
 62
           3
100
AcDbLine
 10
2634.94152273872
 20
-2855.568169065233
 11
2636.032577783561
 21
-2855.568169065233
  0
LINE
  5
533
100
AcDbEntity
  8
1
  6
CONTINUOUS
 62
           3
100
AcDbLine
 10
2634.659710070538
 20
-2854.818559704408
 11
2634.477547606552
 21
-2855.209208369144
  0
LINE
  5
532
100
AcDbEntity
  8
1
  6
CONTINUOUS
 62
           3
100
AcDbLine
 10
2634.743782857936
 20
-2855.257779626236
 11
2634.943992113803
 21
-2854.828429491319
  0
LINE
  5
531
100
AcDbEntity
  8
1
  6
CONTINUOUS
 62
           3
100
AcDbLine
 10
2635.73495163709
 20
-2854.324532701587
 11
2636.666087396451
 21
-2854.324532701587
  0
LINE
  5
530
100
AcDbEntity
  8
1
  6
CONTINUOUS
 62
           3
100
AcDbLine
 10
2635.846149355366
 20
-2854.062714519769
 11
2636.734582767078
 21
-2854.062714519769
  0
LINE
  5
52F
100
AcDbEntity
  8
1
  6
CONTINUOUS
 62
           3
100
AcDbLine
 10
2636.863827277237
 20
-2854.634922140497
 11
2636.723692662108
 21
-2854.935441792499
  0
LINE
  5
52E
100
AcDbEntity
  8
1
  6
CONTINUOUS
 62
           3
100
AcDbLine
 10
2636.723692662108
 20
-2854.935441792499
 11
2637.012577062708
 21
-2854.935441792499
  0
LINE
  5
52D
100
AcDbEntity
  8
1
  6
CONTINUOUS
 62
           3
100
AcDbLine
 10
2637.130062528736
 20
-2854.68349339759
 11
2637.012577062708
 21
-2854.935441792499
  0
LINE
  5
52C
100
AcDbEntity
  8
1
  6
CONTINUOUS
 62
           3
100
AcDbLine
 10
2622.297196562177
 20
-2854.818559704408
 11
2622.115034098191
 21
-2855.209208369144
  0
LINE
  5
52B
100
AcDbEntity
  8
1
  6
CONTINUOUS
 62
           3
100
AcDbLine
 10
2621.311289261891
 20
-2856.932844732776
 11
2621.530514580495
 21
-2856.462714519789
  0
LINE
  5
52A
100
AcDbEntity
  8
1
  6
CONTINUOUS
 62
           3
100
AcDbLine
 10
2621.530514580495
 20
-2856.462714519789
 11
2621.819398981273
 21
-2856.462714519789
  0
LINE
  5
529
100
AcDbEntity
  8
1
  6
CONTINUOUS
 62
           3
100
AcDbLine
 10
2621.819398981273
 20
-2856.462714519789
 11
2621.577524513332
 21
-2856.981415989867
  0
LINE
  5
528
100
AcDbEntity
  8
1
  6
CONTINUOUS
 62
           3
100
AcDbLine
 10
2621.775264394175
 20
-2857.291805428866
 11
2622.706400153537
 21
-2857.291805428866
  0
LINE
  5
527
100
AcDbEntity
  8
1
  6
CONTINUOUS
 62
           3
100
AcDbLine
 10
2621.70676902355
 20
-2857.553623610683
 11
2622.595202435262
 21
-2857.553623610683
  0
LINE
  5
526
100
AcDbEntity
  8
1
  6
CONTINUOUS
 62
           3
100
AcDbLine
 10
2624.065544036769
 20
-2856.188947943054
 11
2623.781641720088
 21
-2856.797778426045
  0
LINE
  5
525
100
AcDbEntity
  8
1
  6
CONTINUOUS
 62
           3
100
AcDbLine
 10
2623.497359676823
 20
-2856.787908639136
 11
2623.799308785358
 21
-2856.140376685961
  0
LINE
  5
524
100
AcDbEntity
  8
1
  6
CONTINUOUS
 62
           3
100
AcDbLine
 10
2622.510513859819
 20
-2855.829987247052
 11
2623.601568904603
 21
-2855.829987247052
  0
LINE
  5
523
100
AcDbEntity
  8
1
  6
CONTINUOUS
 62
           3
100
AcDbLine
 10
2622.579009230475
 20
-2855.568169065233
 11
2623.670064275229
 21
-2855.568169065233
  0
LINE
  5
522
100
AcDbEntity
  8
1
  6
CONTINUOUS
 62
           3
100
AcDbLine
 10
2622.381269349603
 20
-2855.257779626236
 11
2622.58147860556
 21
-2854.828429491319
  0
LINE
  5
521
100
AcDbEntity
  8
1
  6
CONTINUOUS
 62
           3
100
AcDbLine
 10
2623.372438128787
 20
-2854.324532701587
 11
2624.303573888178
 21
-2854.324532701587
  0
LINE
  5
520
100
AcDbEntity
  8
1
  6
CONTINUOUS
 62
           3
100
AcDbLine
 10
2623.483635847062
 20
-2854.062714519769
 11
2624.372069258835
 21
-2854.062714519769
  0
LINE
  5
51F
100
AcDbEntity
  8
1
  6
CONTINUOUS
 62
           3
100
AcDbLine
 10
2624.361179153777
 20
-2854.935441792499
 11
2624.650063554464
 21
-2854.935441792499
  0
LINE
  5
51E
100
AcDbEntity
  8
1
  6
CONTINUOUS
 62
           3
100
AcDbLine
 10
2624.767549020374
 20
-2854.68349339759
 11
2624.650063554464
 21
-2854.935441792499
  0
LINE
  5
51D
100
AcDbEntity
  8
1
  6
CONTINUOUS
 62
           3
100
AcDbLine
 10
2624.501313768875
 20
-2854.634922140497
 11
2624.361179153777
 21
-2854.935441792499
  0
LINE
  5
51C
100
AcDbEntity
  8
1
  6
CONTINUOUS
 62
           3
100
AcDbLine
 10
2618.828586496168
 20
-2854.634922140497
 11
2618.688451881068
 21
-2854.935441792499
  0
LINE
  5
51B
100
AcDbEntity
  8
1
  6
CONTINUOUS
 62
           3
100
AcDbLine
 10
2617.699710855962
 20
-2854.324532701587
 11
2618.630846615412
 21
-2854.324532701587
  0
LINE
  5
51A
100
AcDbEntity
  8
1
  6
CONTINUOUS
 62
           3
100
AcDbLine
 10
2616.708542076895
 20
-2855.257779626236
 11
2616.908751332823
 21
-2854.828429491319
  0
LINE
  5
519
100
AcDbEntity
  8
1
  6
CONTINUOUS
 62
           3
100
AcDbLine
 10
2617.824632404057
 20
-2856.787908639136
 11
2618.126581512622
 21
-2856.140376685961
  0
LINE
  5
518
100
AcDbEntity
  8
1
  6
CONTINUOUS
 62
           3
100
AcDbLine
 10
2616.102537121468
 20
-2857.291805428866
 11
2617.03367288083
 21
-2857.291805428866
  0
LINE
  5
517
100
AcDbEntity
  8
1
  6
CONTINUOUS
 62
           3
100
AcDbLine
 10
2616.146671708448
 20
-2856.462714519789
 11
2615.904797240624
 21
-2856.981415989867
  0
LINE
  5
516
100
AcDbEntity
  8
1
  6
CONTINUOUS
 62
           3
100
AcDbLine
 10
2613.905445988895
 20
-2856.438492218135
 11
2613.385451680718
 21
-2857.553623610683
  0
LINE
  5
515
100
AcDbEntity
  8
1
  6
CONTINUOUS
 62
           3
100
AcDbLine
 10
2613.096567280265
 20
-2857.553623610683
 11
2613.653835291375
 21
-2856.358558504129
  0
LINE
  5
514
100
AcDbEntity
  8
1
  6
CONTINUOUS
 62
           3
100
AcDbLine
 10
2614.312843155181
 20
-2854.945311579407
 11
2614.038145552878
 21
-2855.534402488491
  0
LINE
  5
513
100
AcDbEntity
  8
1
  6
CONTINUOUS
 62
           3
100
AcDbLine
 10
2612.772715896179
 20
-2854.324532701587
 11
2613.917363393612
 21
-2854.324532701587
  0
LINE
  5
512
100
AcDbEntity
  8
1
  6
CONTINUOUS
 62
           3
100
AcDbLine
 10
2612.091058883066
 20
-2855.786350883431
 11
2613.642665791339
 21
-2855.786350883431
  0
LINE
  5
511
100
AcDbEntity
  8
1
  6
CONTINUOUS
 62
           3
100
AcDbLine
 10
2612.091058883066
 20
-2855.786350883431
 11
2612.772715896179
 21
-2854.324532701587
  0
LINE
  5
510
100
AcDbEntity
  8
1
  6
CONTINUOUS
 62
           3
100
AcDbLine
 10
2611.968971059909
 20
-2856.048169065249
 11
2613.456095410502
 21
-2856.048169065249
  0
LINE
  5
50F
100
AcDbEntity
  8
1
  6
CONTINUOUS
 62
           3
100
AcDbLine
 10
2611.266966076333
 20
-2857.553623610683
 11
2611.968971059909
 21
-2856.048169065249
  0
LINE
  5
50E
100
AcDbEntity
  8
1
  6
CONTINUOUS
 62
           3
100
AcDbLine
 10
2608.329567400185
 20
-2857.553623610683
 11
2609.458737812452
 21
-2857.553623610683
  0
LINE
  5
50D
100
AcDbEntity
  8
1
  6
CONTINUOUS
 62
           3
100
AcDbLine
 10
2609.43093838281
 20
-2857.291805428866
 11
2608.398062770841
 21
-2857.291805428866
  0
LINE
  5
50C
100
AcDbEntity
  8
1
  6
CONTINUOUS
 62
           3
100
AcDbLine
 10
2610.64517709728
 20
-2856.797778426045
 11
2611.631084397506
 21
-2854.68349339759
  0
LINE
  5
50B
100
AcDbEntity
  8
1
  6
CONTINUOUS
 62
           3
100
AcDbLine
 10
2611.364849146183
 20
-2854.634922140497
 11
2610.419637786911
 21
-2856.661934441682
  0
LINE
  5
50A
100
AcDbEntity
  8
1
  6
CONTINUOUS
 62
           3
100
AcDbLine
 10
2610.106434223699
 20
-2854.062714519769
 11
2611.235604635907
 21
-2854.062714519769
  0
LINE
  5
509
100
AcDbEntity
  8
1
  6
CONTINUOUS
 62
           3
100
AcDbLine
 10
2610.134233653253
 20
-2854.324532701587
 11
2611.16710926534
 21
-2854.324532701587
  0
LINE
  5
508
100
AcDbEntity
  8
1
  6
CONTINUOUS
 62
           3
100
AcDbLine
 10
2608.919994938813
 20
-2854.818559704408
 11
2607.934087638557
 21
-2856.932844732776
  0
LINE
  5
507
100
AcDbEntity
  8
1
  6
CONTINUOUS
 62
           3
100
AcDbLine
 10
2608.200322889968
 20
-2856.981415989867
 11
2609.145534249153
 21
-2854.954403688773
  0
LINE
  5
506
100
AcDbEntity
  8
1
  6
CONTINUOUS
 62
           3
100
AcDbLine
 10
2605.070741883467
 20
-2856.981415989867
 11
2606.015953242739
 21
-2854.954403688773
  0
LINE
  5
505
100
AcDbEntity
  8
1
  6
CONTINUOUS
 62
           3
100
AcDbLine
 10
2606.301357376338
 20
-2857.291805428866
 11
2605.268481764369
 21
-2857.291805428866
  0
LINE
  5
504
100
AcDbEntity
  8
1
  6
CONTINUOUS
 62
           3
100
AcDbLine
 10
2608.235268139623
 20
-2854.634922140497
 11
2607.290056780321
 21
-2856.661934441682
  0
LINE
  5
503
100
AcDbEntity
  8
1
  6
CONTINUOUS
 62
           3
100
AcDbLine
 10
2607.00465264684
 20
-2854.324532701587
 11
2608.037528258809
 21
-2854.324532701587
  0
LINE
  5
502
100
AcDbEntity
  8
1
  6
CONTINUOUS
 62
           3
100
AcDbLine
 10
2603.171776369837
 20
-2857.291805428866
 11
2601.796423904589
 21
-2857.291805428866
  0
LINE
  5
501
100
AcDbEntity
  8
1
  6
CONTINUOUS
 62
           3
100
AcDbLine
 10
2605.033318646933
 20
-2854.790116859983
 11
2604.160475773908
 21
-2856.661934441682
  0
LINE
  5
500
100
AcDbEntity
  8
1
  6
CONTINUOUS
 62
           3
100
AcDbLine
 10
2603.180085901189
 20
-2854.324532701587
 11
2604.736708825653
 21
-2854.324532701587
  0
LINE
  5
4FF
100
AcDbEntity
  8
1
  6
CONTINUOUS
 62
           3
100
AcDbLine
 10
2601.796423904589
 20
-2857.291805428866
 11
2603.180085901189
 21
-2854.324532701587
  0
LINE
  5
4FE
100
AcDbEntity
  8
1
  6
CONTINUOUS
 62
           3
100
AcDbLine
 10
2631.321731617153
 20
-2857.008169065221
 11
2634.02798069489
 21
-2854.062714519769
  0
LINE
  5
4FD
100
AcDbEntity
  8
1
  6
CONTINUOUS
 62
           3
100
AcDbLine
 10
2631.42056205108
 20
-2854.062714519769
 11
2631.321731617153
 21
-2857.008169065221
  0
LINE
  5
4FC
100
AcDbEntity
  8
1
  6
CONTINUOUS
 62
           3
100
AcDbLine
 10
2632.635042415094
 20
-2857.553623610683
 11
2632.923779415641
 21
-2857.553623610683
  0
LINE
  5
4FB
100
AcDbEntity
  8
1
  6
CONTINUOUS
 62
           3
100
AcDbLine
 10
2629.31272440806
 20
-2857.553623610683
 11
2629.60065796697
 21
-2857.553623610683
  0
LINE
  5
4FA
100
AcDbEntity
  8
1
  6
CONTINUOUS
 62
           3
100
AcDbLine
 10
2630.975745607704
 20
-2857.553623610683
 11
2631.267781411871
 21
-2857.553623610683
  0
LINE
  5
4F9
100
AcDbEntity
  8
1
  6
CONTINUOUS
 62
           3
100
AcDbLine
 10
2634.02798069489
 20
-2854.062714519769
 11
2634.551617058616
 21
-2854.062714519769
  0
LINE
  5
4F8
100
AcDbEntity
  8
1
  6
CONTINUOUS
 62
           3
100
AcDbLine
 10
2630.940562051093
 20
-2854.062714519769
 11
2631.42056205108
 21
-2854.062714519769
  0
LINE
  5
4F7
100
AcDbEntity
  8
1
  6
CONTINUOUS
 62
           3
100
AcDbLine
 10
2632.923779415641
 20
-2857.553623610683
 11
2634.551617058616
 21
-2854.062714519769
  0
LINE
  5
4F6
100
AcDbEntity
  8
1
  6
CONTINUOUS
 62
           3
100
AcDbLine
 10
2632.635042415094
 20
-2857.553623610683
 11
2634.140792234793
 21
-2854.324532701587
  0
LINE
  5
4F5
100
AcDbEntity
  8
1
  6
CONTINUOUS
 62
           3
100
AcDbLine
 10
2631.267781411871
 20
-2857.553623610683
 11
2634.140792234793
 21
-2854.324532701587
  0
LINE
  5
4F4
100
AcDbEntity
  8
1
  6
CONTINUOUS
 62
           3
100
AcDbLine
 10
2631.106407786728
 20
-2854.324532701587
 11
2630.975745607704
 21
-2857.553623610683
  0
LINE
  5
4F3
100
AcDbEntity
  8
1
  6
CONTINUOUS
 62
           3
100
AcDbLine
 10
2629.60065796697
 20
-2857.553623610683
 11
2631.106407786728
 21
-2854.324532701587
  0
LINE
  5
4F2
100
AcDbEntity
  8
1
  6
CONTINUOUS
 62
           3
100
AcDbLine
 10
2629.31272440806
 20
-2857.553623610683
 11
2630.940562051093
 21
-2854.062714519769
  0
LINE
  5
4F1
100
AcDbEntity
  8
1
  6
CONTINUOUS
 62
           3
100
AcDbLine
 10
2628.962915447089
 20
-2857.291805428866
 11
2628.861175594334
 21
-2857.553623610683
  0
LINE
  5
4F0
100
AcDbEntity
  8
1
  6
CONTINUOUS
 62
           3
100
AcDbLine
 10
2629.776834268561
 20
-2855.568169065233
 11
2629.675094415925
 21
-2855.829987247052
  0
LINE
  5
4EF
100
AcDbEntity
  8
1
  6
CONTINUOUS
 62
           3
100
AcDbLine
 10
2630.387273384733
 20
-2854.324532701587
 11
2630.489013237427
 21
-2854.062714519769
  0
LINE
  5
4EE
100
AcDbEntity
  8
1
  6
CONTINUOUS
 62
           3
100
AcDbLine
 10
2627.899011076229
 20
-2855.568169065233
 11
2628.509450192429
 21
-2854.324532701587
  0
LINE
  5
4ED
100
AcDbEntity
  8
1
  6
CONTINUOUS
 62
           3
100
AcDbLine
 10
2627.085092254728
 20
-2857.291805428866
 11
2627.797271223592
 21
-2855.829987247052
  0
LINE
  5
4EC
100
AcDbEntity
  8
1
  6
CONTINUOUS
 62
           3
100
AcDbLine
 10
2628.322380232908
 20
-2854.062714519769
 11
2626.694542589874
 21
-2857.553623610683
  0
LINE
  5
4EB
100
AcDbEntity
  8
1
  6
CONTINUOUS
 62
           3
100
AcDbLine
 10
2628.861175594334
 20
-2857.553623610683
 11
2626.694542589874
 21
-2857.553623610683
  0
LINE
  5
4EA
100
AcDbEntity
  8
1
  6
CONTINUOUS
 62
           3
100
AcDbLine
 10
2627.085092254728
 20
-2857.291805428866
 11
2628.962915447089
 21
-2857.291805428866
  0
LINE
  5
4E9
100
AcDbEntity
  8
1
  6
CONTINUOUS
 62
           3
100
AcDbLine
 10
2629.675094415925
 20
-2855.829987247052
 11
2627.797271223592
 21
-2855.829987247052
  0
LINE
  5
4E8
100
AcDbEntity
  8
1
  6
CONTINUOUS
 62
           3
100
AcDbLine
 10
2627.899011076229
 20
-2855.568169065233
 11
2629.776834268561
 21
-2855.568169065233
  0
LINE
  5
4E7
100
AcDbEntity
  8
1
  6
CONTINUOUS
 62
           3
100
AcDbLine
 10
2628.509450192429
 20
-2854.324532701587
 11
2630.387273384733
 21
-2854.324532701587
  0
LINE
  5
4E6
100
AcDbEntity
  8
1
  6
CONTINUOUS
 62
           3
100
AcDbLine
 10
2628.322380232908
 20
-2854.062714519769
 11
2630.489013237427
 21
-2854.062714519769
  0
LINE
  5
4E5
100
AcDbEntity
  8
1
  6
CONTINUOUS
 62
           3
100
AcDbLine
 10
2601.385451680713
 20
-2857.553623610683
 11
2603.013289323805
 21
-2854.062714519769
  0
LINE
  5
4E4
100
AcDbEntity
  8
1
  6
CONTINUOUS
 62
           3
100
AcDbLine
 10
2603.013289323805
 20
-2854.062714519769
 11
2604.805204196339
 21
-2854.062714519769
  0
LINE
  5
4E3
100
AcDbEntity
  8
1
  6
CONTINUOUS
 62
           3
100
AcDbLine
 10
2605.299553898257
 20
-2854.838688117043
 11
2604.386015084247
 21
-2856.797778426045
  0
LINE
  5
4E2
100
AcDbEntity
  8
1
  6
CONTINUOUS
 62
           3
100
AcDbLine
 10
2606.976853217197
 20
-2854.062714519769
 11
2608.106023629465
 21
-2854.062714519769
  0
LINE
  5
4E1
100
AcDbEntity
  8
1
  6
CONTINUOUS
 62
           3
100
AcDbLine
 10
2605.199986393713
 20
-2857.553623610683
 11
2606.329156805892
 21
-2857.553623610683
  0
LINE
  5
4E0
100
AcDbEntity
  8
1
  6
CONTINUOUS
 62
           3
100
AcDbLine
 10
2605.790413932372
 20
-2854.818559704408
 11
2604.804506631967
 21
-2856.932844732776
  0
LINE
  5
4DF
100
AcDbEntity
  8
1
  6
CONTINUOUS
 62
           3
100
AcDbLine
 10
2607.515596090807
 20
-2856.797778426045
 11
2608.501503391093
 21
-2854.68349339759
  0
LINE
  5
4DE
100
AcDbEntity
  8
1
  6
CONTINUOUS
 62
           3
100
AcDbLine
 10
2612.605919318677
 20
-2854.062714519769
 11
2613.982416172468
 21
-2854.062714519769
  0
LINE
  5
4DD
100
AcDbEntity
  8
1
  6
CONTINUOUS
 62
           3
100
AcDbLine
 10
2612.605919318677
 20
-2854.062714519769
 11
2610.978081675821
 21
-2857.553623610683
  0
LINE
  5
4DC
100
AcDbEntity
  8
1
  6
CONTINUOUS
 62
           3
100
AcDbLine
 10
2614.576593181592
 20
-2854.991820411781
 11
2614.37450867544
 21
-2855.42850439333
  0
LINE
  5
4DB
100
AcDbEntity
  8
1
  6
CONTINUOUS
 62
           3
100
AcDbLine
 10
2610.978081675821
 20
-2857.553623610683
 11
2611.266966076333
 21
-2857.553623610683
  0
LINE
  5
4DA
100
AcDbEntity
  8
1
  6
CONTINUOUS
 62
           3
100
AcDbLine
 10
2613.096567280265
 20
-2857.553623610683
 11
2613.385451680718
 21
-2857.553623610683
  0
LINE
  5
4D9
100
AcDbEntity
  8
1
  6
CONTINUOUS
 62
           3
100
AcDbLine
 10
2603.199575799479
 20
-2857.553623610683
 11
2601.385451680713
 21
-2857.553623610683
  0
LINE
  5
4D8
100
AcDbEntity
  8
1
  6
CONTINUOUS
 62
           3
100
AcDbLine
 10
2616.62446928947
 20
-2854.818559704408
 11
2616.442306825454
 21
-2855.209208369144
  0
LINE
  5
4D7
100
AcDbEntity
  8
1
  6
CONTINUOUS
 62
           3
100
AcDbLine
 10
2618.392816764062
 20
-2856.188947943054
 11
2618.108914447411
 21
-2856.797778426045
  0
LINE
  5
4D6
100
AcDbEntity
  8
1
  6
CONTINUOUS
 62
           3
100
AcDbLine
 10
2615.638561989183
 20
-2856.932844732776
 11
2615.857787307789
 21
-2856.462714519789
  0
LINE
  5
4D5
100
AcDbEntity
  8
1
  6
CONTINUOUS
 62
           3
100
AcDbLine
 10
2619.094821747637
 20
-2854.68349339759
 11
2618.977336281728
 21
-2854.935441792499
  0
LINE
  5
4D4
100
AcDbEntity
  8
1
  6
CONTINUOUS
 62
           3
100
AcDbLine
 10
2617.810908574238
 20
-2854.062714519769
 11
2618.699341986068
 21
-2854.062714519769
  0
LINE
  5
4D3
100
AcDbEntity
  8
1
  6
CONTINUOUS
 62
           3
100
AcDbLine
 10
2616.034041750841
 20
-2857.553623610683
 11
2616.922475162525
 21
-2857.553623610683
  0
LINE
  5
4D2
100
AcDbEntity
  8
1
  6
CONTINUOUS
 62
           3
100
AcDbLine
 10
2616.837786586995
 20
-2855.829987247052
 11
2617.928841631896
 21
-2855.829987247052
  0
LINE
  5
4D1
100
AcDbEntity
  8
1
  6
CONTINUOUS
 62
           3
100
AcDbLine
 10
2616.90628195768
 20
-2855.568169065233
 11
2617.997337002522
 21
-2855.568169065233
  0
LINE
  5
4D0
100
AcDbEntity
  8
1
  6
CONTINUOUS
 62
           3
100
AcDbLine
 10
2615.857787307789
 20
-2856.462714519789
 11
2616.146671708448
 21
-2856.462714519789
  0
LINE
  5
4CF
100
AcDbEntity
  8
1
  6
CONTINUOUS
 62
           3
100
AcDbLine
 10
2618.688451881068
 20
-2854.935441792499
 11
2618.977336281728
 21
-2854.935441792499
  0
LINE
  5
4CE
100
AcDbEntity
  8
1
  6
CONTINUOUS
 62
           3
100
AcDbLine
 10
2620.039874431151
 20
-2854.062714519769
 11
2620.309529527278
 21
-2855.589987247029
  0
LINE
  5
4CD
100
AcDbEntity
  8
1
  6
CONTINUOUS
 62
           3
100
AcDbLine
 10
2621.987588617
 20
-2854.062714519769
 11
2620.309529527278
 21
-2855.589987247029
  0
LINE
  5
4CC
100
AcDbEntity
  8
1
  6
CONTINUOUS
 62
           3
100
AcDbLine
 10
2622.372694117798
 20
-2854.062714519769
 11
2620.277424141059
 21
-2856.026350883424
  0
LINE
  5
4CB
100
AcDbEntity
  8
1
  6
CONTINUOUS
 62
           3
100
AcDbLine
 10
2620.031610560269
 20
-2855.934143262594
 11
2619.724587112288
 21
-2854.062714519769
  0
LINE
  5
4CA
100
AcDbEntity
  8
1
  6
CONTINUOUS
 62
           3
100
AcDbLine
 10
2620.031610560269
 20
-2855.934143262594
 11
2619.276360771739
 21
-2857.553623610683
  0
LINE
  5
4C9
100
AcDbEntity
  8
1
  6
CONTINUOUS
 62
           3
100
AcDbLine
 10
2619.565245172222
 20
-2857.553623610683
 11
2620.277424141059
 21
-2856.026350883424
  0
LINE
  5
4C8
100
AcDbEntity
  8
1
  6
CONTINUOUS
 62
           3
100
AcDbLine
 10
2619.724587112288
 20
-2854.062714519769
 11
2620.039874431151
 21
-2854.062714519769
  0
LINE
  5
4C7
100
AcDbEntity
  8
1
  6
CONTINUOUS
 62
           3
100
AcDbLine
 10
2621.987588617
 20
-2854.062714519769
 11
2622.372694117798
 21
-2854.062714519769
  0
LINE
  5
4C6
100
AcDbEntity
  8
1
  6
CONTINUOUS
 62
           3
100
AcDbLine
 10
2619.276360771739
 20
-2857.553623610683
 11
2619.565245172222
 21
-2857.553623610683
  0
LINE
  5
4C5
100
AcDbEntity
  8
1
  6
CONTINUOUS
 62
           3
100
AcDbLine
 10
2625.397314384995
 20
-2854.062714519769
 11
2625.295574532359
 21
-2854.324532701587
  0
LINE
  5
4C4
100
AcDbEntity
  8
1
  6
CONTINUOUS
 62
           3
100
AcDbLine
 10
2628.045421390447
 20
-2854.062714519769
 11
2627.94368153781
 21
-2854.324532701587
  0
LINE
  5
4C3
100
AcDbEntity
  8
1
  6
CONTINUOUS
 62
           3
100
AcDbLine
 10
2625.397314384995
 20
-2854.062714519769
 11
2628.045421390447
 21
-2854.062714519769
  0
LINE
  5
4C2
100
AcDbEntity
  8
1
  6
CONTINUOUS
 62
           3
100
AcDbLine
 10
2625.295574532359
 20
-2854.324532701587
 11
2626.454837864146
 21
-2854.324532701587
  0
LINE
  5
4C1
100
AcDbEntity
  8
1
  6
CONTINUOUS
 62
           3
100
AcDbLine
 10
2624.949088044446
 20
-2857.553623610683
 11
2625.245686126241
 21
-2857.553623610683
  0
ENDBLK
  5
5C3
100
AcDbEntity
  8
0
100
AcDbBlockEnd
  0
BLOCK
  5
79
100
AcDbEntity
  8
0
100
AcDbBlockBegin
  2
VORLAGE__4
 70
           0
 10
3433.629500693945
 20
-1472.925156161801
 30
0.0
  3
VORLAGE__4
  1

  0
INSERT
  5
7A
100
AcDbEntity
  8
0
100
AcDbBlockReference
  2
_LOGO
 10
1619.142938593877
 20
-2841.727337345499
  0
ENDBLK
  5
5C4
100
AcDbEntity
  8
0
100
AcDbBlockEnd
  0
BLOCK
  5
7C
100
AcDbEntity
  8
0
100
AcDbBlockBegin
  2
8300R0001
 70
           0
 10
17361.029991788379
 20
20946.93715083797
 30
0.0
  3
8300R0001
  1

  0
INSERT
  5
7D
100
AcDbEntity
  8
0
100
AcDbBlockReference
  2
VORLAGE__4
 10
53822.5569625727
 20
53178.401316191135
 41
33.333333333336
 42
33.333333333328
  0
ENDBLK
  5
5C5
100
AcDbEntity
  8
0
100
AcDbBlockEnd
  0
BLOCK
  5
7F
100
AcDbEntity
  8
0
100
AcDbBlockBegin
  2
MOTORHAUBE
 70
           0
 10
11981.380521192321
 20
-20072.391791870548
 30
0.0
  3
MOTORHAUBE
  1

  0
DIMENSION
  5
5D7
100
AcDbEntity
  8
0
100
AcDbDimension
  2
*D57
 10
26961.899001053804
 20
4489.455483838399
 11
26859.052792256211
 21
4589.455483838399
 31
0.0
 70
           1
  1
<>
  3
ME10_DIM_23
100
AcDbAlignedDimension
 13
26751.8990010538
 23
4703.549572987217
 14
26961.8990010538
 24
4703.549572987217
  0
ARC
  5
5CC
100
AcDbEntity
  8
1
  6
DOT_CENTER
 62
           3
100
AcDbCircle
 10
23393.885034155472
 20
5578.180928411024
 40
1620.000000000003
100
AcDbArc
 50
-170.677976521411
 51
-147.323447518293
  0
ARC
  5
5CB
100
AcDbEntity
  8
1
  6
DOT_CENTER
 62
           3
100
AcDbCircle
 10
22460.279522246132
 20
3838.549572987218
 40
1619.999999999999
100
AcDbArc
 50
90.0
 51
114.235860025277
  0
LINE
  5
5CA
100
AcDbEntity
  8
1
  6
DOT_CENTER
 62
           3
100
AcDbLine
 10
26751.8990010538
 20
4703.549572987217
 11
26751.8990010538
 21
5458.549572987217
  0
LINE
  5
5C9
100
AcDbEntity
  8
1
  6
DOT_CENTER
 62
           3
100
AcDbLine
 10
26961.8990010538
 20
4703.549572987217
 11
26751.8990010538
 21
4703.549572987217
  0
LINE
  5
5C8
100
AcDbEntity
  8
1
  6
DOT_CENTER
 62
           3
100
AcDbLine
 10
26961.8990010538
 20
5458.549572987217
 11
26961.8990010538
 21
4703.549572987217
  0
LINE
  5
5C7
100
AcDbEntity
  8
1
  6
DOT_CENTER
 62
           3
100
AcDbLine
 10
26751.8990010538
 20
5458.549572987217
 11
26961.8990010538
 21
5458.549572987217
  0
LINE
  5
5C6
100
AcDbEntity
  8
1
  6
DOT_CENTER
 62
           3
100
AcDbLine
 10
22030.279522246132
 20
4703.549572987217
 11
22460.279522246132
 21
4703.549572987217
  0
ENDBLK
  5
5D8
100
AcDbEntity
  8
0
100
AcDbBlockEnd
  0
BLOCK
  5
81
100
AcDbEntity
  8
0
100
AcDbBlockBegin
  2
_1
 70
           0
 10
11981.380521192321
 20
-20072.391791870548
 30
0.0
  3
_1
  1

  0
INSERT
  5
82
100
AcDbEntity
  8
0
100
AcDbBlockReference
  2
MOTORHAUBE
 10
11981.380521192321
 20
-20072.391791870548
  0
ENDBLK
  5
5D9
100
AcDbEntity
  8
0
100
AcDbBlockEnd
  0
BLOCK
  5
158
100
AcDbEntity
  8
0
100
AcDbBlockBegin
  2
*D34
 70
           1
 10
0.0
 20
0.0
 30
0.0
  3
*D34
  1

  0
LINE
  5
159
100
AcDbEntity
  8
0
  6
CONTINUOUS
 62
           2
100
AcDbLine
 10
23305.458375205839
 20
5447.549572987221
 11
23305.458375205839
 21
5262.142206132829
  0
LINE
  5
15A
100
AcDbEntity
  8
0
  6
CONTINUOUS
 62
           2
100
AcDbLine
 10
23305.458375205839
 20
5447.549572987221
 11
23305.458375205839
 21
5554.549572987219
  0
LINE
  5
15B
100
AcDbEntity
  8
0
  6
CONTINUOUS
 62
           2
100
AcDbLine
 10
23305.458375205839
 20
5687.882906320552
 11
23305.458375205839
 21
5554.549572987219
  0
LINE
  5
15C
100
AcDbEntity
  8
0
  6
CONTINUOUS
 62
           2
100
AcDbLine
 10
23070.413073275588
 20
5554.549572987219
 11
23372.125041872507
 21
5554.549572987219
  0
LINE
  5
15D
100
AcDbEntity
  8
0
  6
CONTINUOUS
 62
           2
100
AcDbLine
 10
22830.279540711559
 20
5447.549572987221
 11
23372.125041872507
 21
5447.549572987221
  0
SOLID
  5
15E
100
AcDbEntity
  8
0
 62
           2
100
AcDbTrace
 10
23314.235208378333
 20
5380.882906320554
 11
23296.681542033344
 21
5380.882906320554
 12
23305.458375205839
 22
5447.549572987221
 13
23305.458375205839
 23
5447.549572987221
  0
SOLID
  5
15F
100
AcDbEntity
  8
0
 62
           2
100
AcDbTrace
 10
23296.681542033344
 20
5621.216239653886
 11
23314.235208378333
 21
5621.216239653886
 12
23305.458375205839
 22
5554.549572987219
 13
23305.458375205839
 23
5554.549572987219
  0
MTEXT
  5
161
100
AcDbEntity
  8
0
 62
           1
100
AcDbMText
 10
23238.791708539171
 20
5262.142206132829
 30
0.0
 40
46.666666666667
 41
0.0
 71
           7
 72
           1
  1
120
  7
CONVERTER_1
 11
0.0
 21
1.0
 31
0.0
  0
ENDBLK
  5
162
100
AcDbEntity
  8
0
100
AcDbBlockEnd
  0
BLOCK
  5
175
100
AcDbEntity
  8
0
100
AcDbBlockBegin
  2
*D35
 70
           1
 10
0.0
 20
0.0
 30
0.0
  3
*D35
  1

  0
LINE
  5
176
100
AcDbEntity
  8
0
  6
CONTINUOUS
 62
           2
100
AcDbLine
 10
23350.765310758139
 20
4886.54957298722
 11
23350.765310758139
 21
5636.54957298722
  0
LINE
  5
177
100
AcDbEntity
  8
0
  6
CONTINUOUS
 62
           2
100
AcDbLine
 10
22460.279522246128
 20
5636.54957298722
 11
23417.431977424807
 21
5636.54957298722
  0
LINE
  5
178
100
AcDbEntity
  8
0
  6
CONTINUOUS
 62
           2
100
AcDbLine
 10
22460.279522246128
 20
4886.54957298722
 11
23417.431977424807
 21
4886.54957298722
  0
SOLID
  5
179
100
AcDbEntity
  8
0
 62
           2
100
AcDbTrace
 10
23341.988477585644
 20
4953.216239653887
 11
23359.542143930634
 21
4953.216239653887
 12
23350.765310758139
 22
4886.54957298722
 13
23350.765310758139
 23
4886.54957298722
  0
SOLID
  5
17A
100
AcDbEntity
  8
0
 62
           2
100
AcDbTrace
 10
23359.542143930634
 20
5569.882906320553
 11
23341.988477585644
 21
5569.882906320553
 12
23350.765310758139
 22
5636.54957298722
 13
23350.765310758139
 23
5636.54957298722
  0
MTEXT
  5
17B
100
AcDbEntity
  8
0
 62
           1
100
AcDbMText
 10
23284.098644091471
 20
5212.653344591689
 30
0.0
 40
46.666666666667
 41
0.0
 71
           7
 72
           1
  1
750
  7
CONVERTER_1
 11
0.0
 21
1.0
 31
0.0
  0
ENDBLK
  5
17C
100
AcDbEntity
  8
0
100
AcDbBlockEnd
  0
BLOCK
  5
180
100
AcDbEntity
  8
0
100
AcDbBlockBegin
  2
*D36
 70
           1
 10
0.0
 20
0.0
 30
0.0
  3
*D36
  1

  0
LINE
  5
181
100
AcDbEntity
  8
0
  6
CONTINUOUS
 62
           2
100
AcDbLine
 10
21662.379892943816
 20
5989.425296015899
 11
22460.279522246117
 21
5989.425296015899
  0
LINE
  5
182
100
AcDbEntity
  8
0
  6
CONTINUOUS
 62
           2
100
AcDbLine
 10
22460.279522246117
 20
5636.54957298722
 11
22460.279522246117
 21
6056.091962682565
  0
LINE
  5
183
100
AcDbEntity
  8
0
  6
CONTINUOUS
 62
           2
100
AcDbLine
 10
21662.379892943816
 20
5501.141567502842
 11
21662.379892943816
 21
6056.091962682565
  0
SOLID
  5
184
100
AcDbEntity
  8
0
 62
           2
100
AcDbTrace
 10
22393.612855579449
 20
5980.648462843406
 11
22393.612855579449
 21
5998.202129188392
 12
22460.279522246117
 22
5989.425296015899
 13
22460.279522246117
 23
5989.425296015899
  0
SOLID
  5
185
100
AcDbEntity
  8
0
 62
           2
100
AcDbTrace
 10
21729.046559610484
 20
5998.202129188392
 11
21729.046559610484
 21
5980.648462843406
 12
21662.379892943816
 22
5989.425296015899
 13
21662.379892943816
 23
5989.425296015899
  0
TEXT
  5
186
100
AcDbEntity
  8
0
 62
           1
100
AcDbText
 10
21943.98077012963
 20
6056.091962682566
 40
46.666666666667
  1
800  
 41
1.357142857143
  7
CONVERTER_1
100
AcDbText
  0
ENDBLK
  5
187
100
AcDbEntity
  8
0
100
AcDbBlockEnd
  0
BLOCK
  5
18B
100
AcDbEntity
  8
0
100
AcDbBlockBegin
  2
*D37
 70
           1
 10
0.0
 20
0.0
 30
0.0
  3
*D37
  1

  0
LINE
  5
18C
100
AcDbEntity
  8
0
  6
CONTINUOUS
 62
           2
100
AcDbLine
 10
22964.1825102972
 20
5686.54957298722
 11
22964.1825102972
 21
5838.791698496141
  0
LINE
  5
18D
100
AcDbEntity
  8
0
  6
CONTINUOUS
 62
           2
100
AcDbLine
 10
22964.1825102972
 20
5636.54957298722
 11
22964.1825102972
 21
5686.54957298722
  0
LINE
  5
18E
100
AcDbEntity
  8
0
  6
CONTINUOUS
 62
           2
100
AcDbLine
 10
22964.1825102972
 20
5503.216239653887
 11
22964.1825102972
 21
5636.54957298722
  0
LINE
  5
18F
100
AcDbEntity
  8
0
  6
CONTINUOUS
 62
           2
100
AcDbLine
 10
22610.279522246128
 20
5686.54957298722
 11
23030.849176963868
 21
5686.54957298722
  0
LINE
  5
190
100
AcDbEntity
  8
0
  6
CONTINUOUS
 62
           2
100
AcDbLine
 10
22460.279522246128
 20
5636.54957298722
 11
23030.849176963868
 21
5636.54957298722
  0
SOLID
  5
191
100
AcDbEntity
  8
0
 62
           2
100
AcDbTrace
 10
22955.405677124705
 20
5753.216239653887
 11
22972.959343469694
 21
5753.216239653887
 12
22964.1825102972
 22
5686.54957298722
 13
22964.1825102972
 23
5686.54957298722
  0
SOLID
  5
192
100
AcDbEntity
  8
0
 62
           2
100
AcDbTrace
 10
22972.959343469694
 20
5569.882906320553
 11
22955.405677124705
 21
5569.882906320553
 12
22964.1825102972
 22
5636.54957298722
 13
22964.1825102972
 23
5636.54957298722
  0
MTEXT
  5
193
100
AcDbEntity
  8
0
 62
           1
100
AcDbMText
 10
22897.515843630532
 20
5768.791698496141
 30
0.0
 40
46.666666666667
 41
0.0
 71
           7
 72
           1
  1
50
  7
CONVERTER_1
 11
0.0
 21
1.0
 31
0.0
  0
ENDBLK
  5
194
100
AcDbEntity
  8
0
100
AcDbBlockEnd
  0
BLOCK
  5
207
100
AcDbEntity
  8
0
100
AcDbBlockBegin
  2
*D38
 70
           1
 10
0.0
 20
0.0
 30
0.0
  3
*D38
  1

  0
LINE
  5
208
100
AcDbEntity
  8
0
  6
CONTINUOUS
 62
           2
100
AcDbLine
 10
26426.899001053804
 20
5823.62556283287
 11
26911.899001053804
 21
5823.62556283287
  0
LINE
  5
209
100
AcDbEntity
  8
0
  6
CONTINUOUS
 62
           2
100
AcDbLine
 10
26911.899001053804
 20
4993.549572987224
 11
26911.899001053804
 21
5890.292229499537
  0
LINE
  5
20A
100
AcDbEntity
  8
0
  6
CONTINUOUS
 62
           2
100
AcDbLine
 10
26426.899001053804
 20
5421.549572987222
 11
26426.899001053804
 21
5890.292229499537
  0
SOLID
  5
20B
100
AcDbEntity
  8
0
 62
           2
100
AcDbTrace
 10
26493.565667720472
 20
5832.402396005363
 11
26493.565667720472
 21
5814.848729660377
 12
26426.899001053804
 22
5823.62556283287
 13
26426.899001053804
 23
5823.62556283287
  0
SOLID
  5
20C
100
AcDbEntity
  8
0
 62
           2
100
AcDbTrace
 10
26845.232334387136
 20
5814.848729660377
 11
26845.232334387136
 21
5832.402396005363
 12
26911.899001053804
 22
5823.62556283287
 13
26911.899001053804
 23
5823.62556283287
  0
TEXT
  5
20D
100
AcDbEntity
  8
0
 62
           1
100
AcDbText
 10
26641.278311990467
 20
5890.292229499537
 40
46.666666666667
  1
485
 41
1.357142857143
  7
CONVERTER_1
100
AcDbText
  0
ENDBLK
  5
20E
100
AcDbEntity
  8
0
100
AcDbBlockEnd
  0
BLOCK
  5
212
100
AcDbEntity
  8
0
100
AcDbBlockBegin
  2
*D39
 70
           1
 10
0.0
 20
0.0
 30
0.0
  3
*D39
  1

  0
LINE
  5
213
100
AcDbEntity
  8
0
  6
CONTINUOUS
 62
           2
100
AcDbLine
 10
23079.764911382241
 20
4886.54957298722
 11
23079.764911382241
 21
5611.549572987222
  0
LINE
  5
214
100
AcDbEntity
  8
0
  6
CONTINUOUS
 62
           2
100
AcDbLine
 10
22095.279522246132
 20
5611.549572987222
 11
23146.431578048909
 21
5611.549572987222
  0
LINE
  5
215
100
AcDbEntity
  8
0
  6
CONTINUOUS
 62
           2
100
AcDbLine
 10
22460.279522246132
 20
4886.54957298722
 11
23146.431578048909
 21
4886.54957298722
  0
SOLID
  5
216
100
AcDbEntity
  8
0
 62
           2
100
AcDbTrace
 10
23088.541744554735
 20
5544.882906320555
 11
23070.988078209746
 21
5544.882906320555
 12
23079.764911382241
 22
5611.549572987222
 13
23079.764911382241
 23
5611.549572987222
  0
SOLID
  5
217
100
AcDbEntity
  8
0
 62
           2
100
AcDbTrace
 10
23070.988078209746
 20
4953.216239653887
 11
23088.541744554735
 21
4953.216239653887
 12
23079.764911382241
 22
4886.54957298722
 13
23079.764911382241
 23
4886.54957298722
  0
MTEXT
  5
218
100
AcDbEntity
  8
0
 62
           1
100
AcDbMText
 10
23013.098244715573
 20
5227.909888738998
 30
0.0
 40
46.666666666667
 41
0.0
 71
           7
 72
           1
  1
725
  7
CONVERTER_1
 11
0.0
 21
1.0
 31
0.0
  0
ENDBLK
  5
219
100
AcDbEntity
  8
0
100
AcDbBlockEnd
  0
BLOCK
  5
21D
100
AcDbEntity
  8
0
100
AcDbBlockBegin
  2
*D40
 70
           1
 10
0.0
 20
0.0
 30
0.0
  3
*D40
  1

  0
LINE
  5
21E
100
AcDbEntity
  8
0
  6
CONTINUOUS
 62
           2
100
AcDbLine
 10
21755.279522246128
 20
4849.782386891429
 11
21888.61285557946
 21
4849.782386891429
  0
LINE
  5
21F
100
AcDbEntity
  8
0
  6
CONTINUOUS
 62
           2
100
AcDbLine
 10
21606.279522246128
 20
4849.782386891429
 11
21472.946188912796
 21
4849.782386891429
  0
LINE
  5
220
100
AcDbEntity
  8
0
  6
CONTINUOUS
 62
           2
100
AcDbLine
 10
21606.279522246128
 20
4849.782386891429
 11
21755.279522246128
 21
4849.782386891429
  0
LINE
  5
221
100
AcDbEntity
  8
0
  6
CONTINUOUS
 62
           2
100
AcDbLine
 10
21755.279522246128
 20
5271.549572987222
 11
21755.279522246128
 21
4783.115720224762
  0
LINE
  5
222
100
AcDbEntity
  8
0
  6
CONTINUOUS
 62
           2
100
AcDbLine
 10
21606.279522246128
 20
5229.549572987222
 11
21606.279522246128
 21
4783.115720224762
  0
SOLID
  5
223
100
AcDbEntity
  8
0
 62
           2
100
AcDbTrace
 10
21539.61285557946
 20
4841.005553718936
 11
21539.61285557946
 21
4858.559220063922
 12
21606.279522246128
 22
4849.782386891429
 13
21606.279522246128
 23
4849.782386891429
  0
SOLID
  5
224
100
AcDbEntity
  8
0
 62
           2
100
AcDbTrace
 10
21821.946188912796
 20
4858.559220063922
 11
21821.946188912796
 21
4841.005553718936
 12
21755.279522246128
 22
4849.782386891429
 13
21755.279522246128
 23
4849.782386891429
  0
TEXT
  5
225
100
AcDbEntity
  8
0
 62
           1
100
AcDbText
 10
21622.704417506109
 20
4916.449053558096
 40
46.666666666667
  1
250
 41
1.357142857143
  7
CONVERTER_1
100
AcDbText
  0
ENDBLK
  5
226
100
AcDbEntity
  8
0
100
AcDbBlockEnd
  0
BLOCK
  5
22A
100
AcDbEntity
  8
0
100
AcDbBlockBegin
  2
*D41
 70
           1
 10
0.0
 20
0.0
 30
0.0
  3
*D41
  1

  0
LINE
  5
22B
100
AcDbEntity
  8
0
  6
CONTINUOUS
 62
           2
100
AcDbLine
 10
21755.279522246132
 20
5819.291670943389
 11
22460.279522246132
 21
5819.291670943389
  0
LINE
  5
22C
100
AcDbEntity
  8
0
  6
CONTINUOUS
 62
           2
100
AcDbLine
 10
22460.279522246132
 20
5421.549572987222
 11
22460.279522246132
 21
5885.958337610055
  0
LINE
  5
22D
100
AcDbEntity
  8
0
  6
CONTINUOUS
 62
           2
100
AcDbLine
 10
21755.279522246132
 20
5271.549572987222
 11
21755.279522246132
 21
5885.958337610055
  0
SOLID
  5
22E
100
AcDbEntity
  8
0
 62
           2
100
AcDbTrace
 10
22393.612855579464
 20
5810.514837770897
 11
22393.612855579464
 21
5828.068504115882
 12
22460.279522246132
 22
5819.291670943389
 13
22460.279522246132
 23
5819.291670943389
  0
SOLID
  5
22F
100
AcDbEntity
  8
0
 62
           2
100
AcDbTrace
 10
21821.9461889128
 20
5828.068504115882
 11
21821.9461889128
 21
5810.514837770897
 12
21755.279522246132
 22
5819.291670943389
 13
21755.279522246132
 23
5819.291670943389
  0
TEXT
  5
230
100
AcDbEntity
  8
0
 62
           1
100
AcDbText
 10
22072.780910969312
 20
5885.958337610056
 40
46.666666666667
  1
725
 41
1.357142857143
  7
CONVERTER_1
100
AcDbText
  0
ENDBLK
  5
231
100
AcDbEntity
  8
0
100
AcDbBlockEnd
  0
BLOCK
  5
235
100
AcDbEntity
  8
0
100
AcDbBlockBegin
  2
*D42
 70
           1
 10
0.0
 20
0.0
 30
0.0
  3
*D42
  1

  0
LINE
  5
236
100
AcDbEntity
  8
0
  6
CONTINUOUS
 62
           2
100
AcDbLine
 10
24201.899001053811
 20
1555.898537371327
 11
26751.8990010538
 21
1555.898537371327
  0
LINE
  5
237
100
AcDbEntity
  8
0
  6
CONTINUOUS
 62
           2
100
AcDbLine
 10
26751.8990010538
 20
1929.549572987216
 11
26751.8990010538
 21
1489.23187070466
  0
LINE
  5
238
100
AcDbEntity
  8
0
  6
CONTINUOUS
 62
           2
100
AcDbLine
 10
24201.899001053811
 20
1929.549572987216
 11
24201.899001053811
 21
1489.23187070466
  0
SOLID
  5
239
100
AcDbEntity
  8
0
 62
           2
100
AcDbTrace
 10
26685.232334387132
 20
1547.121704198834
 11
26685.232334387132
 21
1564.67537054382
 12
26751.8990010538
 22
1555.898537371327
 13
26751.8990010538
 23
1555.898537371327
  0
SOLID
  5
23A
100
AcDbEntity
  8
0
 62
           2
100
AcDbTrace
 10
24268.565667720479
 20
1564.67537054382
 11
24268.565667720479
 21
1547.121704198834
 12
24201.899001053811
 22
1555.898537371327
 13
24201.899001053811
 23
1555.898537371327
  0
TEXT
  5
23B
100
AcDbEntity
  8
0
 62
           1
100
AcDbText
 10
25320.600873856711
 20
1622.565204037994
 40
46.666666666667
  1
DW + 650
 41
1.357142857143
  7
CONVERTER_1
100
AcDbText
  0
ENDBLK
  5
23C
100
AcDbEntity
  8
0
100
AcDbBlockEnd
  0
BLOCK
  5
240
100
AcDbEntity
  8
0
100
AcDbBlockBegin
  2
*D43
 70
           1
 10
0.0
 20
0.0
 30
0.0
  3
*D43
  1

  0
LINE
  5
241
100
AcDbEntity
  8
0
  6
CONTINUOUS
 62
           2
100
AcDbLine
 10
22460.279522246128
 20
1596.58748398325
 11
22628.430899926909
 21
1596.58748398325
  0
LINE
  5
242
100
AcDbEntity
  8
0
  6
CONTINUOUS
 62
           2
100
AcDbLine
 10
22367.279522246128
 20
1596.58748398325
 11
22460.279522246128
 21
1596.58748398325
  0
LINE
  5
243
100
AcDbEntity
  8
0
  6
CONTINUOUS
 62
           2
100
AcDbLine
 10
22233.946188912796
 20
1596.58748398325
 11
22367.279522246128
 21
1596.58748398325
  0
LINE
  5
244
100
AcDbEntity
  8
0
  6
CONTINUOUS
 62
           2
100
AcDbLine
 10
22460.279522246128
 20
1929.549572987218
 11
22460.279522246128
 21
1529.920817316583
  0
LINE
  5
245
100
AcDbEntity
  8
0
  6
CONTINUOUS
 62
           2
100
AcDbLine
 10
22367.279522246128
 20
1979.549572987219
 11
22367.279522246128
 21
1529.920817316583
  0
SOLID
  5
246
100
AcDbEntity
  8
0
 62
           2
100
AcDbTrace
 10
22526.946188912796
 20
1605.364317155743
 11
22526.946188912796
 21
1587.810650810757
 12
22460.279522246128
 22
1596.58748398325
 13
22460.279522246128
 23
1596.58748398325
  0
SOLID
  5
247
100
AcDbEntity
  8
0
 62
           2
100
AcDbTrace
 10
22300.61285557946
 20
1587.810650810757
 11
22300.61285557946
 21
1605.364317155743
 12
22367.279522246128
 22
1596.58748398325
 13
22367.279522246128
 23
1596.58748398325
  0
TEXT
  5
248
100
AcDbEntity
  8
0
 62
           1
100
AcDbText
 10
22558.430899926909
 20
1663.254150649917
 40
46.666666666667
  1
93
 41
1.357142857143
  7
CONVERTER_1
100
AcDbText
  0
ENDBLK
  5
249
100
AcDbEntity
  8
0
100
AcDbBlockEnd
  0
BLOCK
  5
24D
100
AcDbEntity
  8
0
100
AcDbBlockBegin
  2
*D44
 70
           1
 10
0.0
 20
0.0
 30
0.0
  3
*D44
  1

  0
LINE
  5
24E
100
AcDbEntity
  8
0
  6
CONTINUOUS
 62
           2
100
AcDbLine
 10
22240.279522246132
 20
1330.41942787582
 11
22460.279522246132
 21
1330.41942787582
  0
LINE
  5
24F
100
AcDbEntity
  8
0
  6
CONTINUOUS
 62
           2
100
AcDbLine
 10
22240.279522246132
 20
1929.549572987217
 11
22240.279522246132
 21
1263.752761209153
  0
LINE
  5
250
100
AcDbEntity
  8
0
  6
CONTINUOUS
 62
           2
100
AcDbLine
 10
22460.279522246132
 20
1929.549572987217
 11
22460.279522246132
 21
1263.752761209153
  0
SOLID
  5
251
100
AcDbEntity
  8
0
 62
           2
100
AcDbTrace
 10
22393.612855579464
 20
1321.642594703327
 11
22393.612855579464
 21
1339.196261048313
 12
22460.279522246132
 22
1330.41942787582
 13
22460.279522246132
 23
1330.41942787582
  0
SOLID
  5
252
100
AcDbEntity
  8
0
 62
           2
100
AcDbTrace
 10
22306.9461889128
 20
1339.196261048313
 11
22306.9461889128
 21
1321.642594703327
 12
22240.279522246132
 22
1330.41942787582
 13
22240.279522246132
 23
1330.41942787582
  0
TEXT
  5
253
100
AcDbEntity
  8
0
 62
           1
100
AcDbText
 10
22297.879649430211
 20
1397.086094542487
 40
46.666666666667
  1
220
 41
1.357142857143
  7
CONVERTER_1
100
AcDbText
  0
ENDBLK
  5
254
100
AcDbEntity
  8
0
100
AcDbBlockEnd
  0
BLOCK
  5
258
100
AcDbEntity
  8
0
100
AcDbBlockBegin
  2
*D45
 70
           1
 10
0.0
 20
0.0
 30
0.0
  3
*D45
  1

  0
LINE
  5
259
100
AcDbEntity
  8
0
  6
CONTINUOUS
 62
           2
100
AcDbLine
 10
22819.341872717101
 20
1929.549572987217
 11
22819.341872717101
 21
4886.54957298722
  0
LINE
  5
25A
100
AcDbEntity
  8
0
  6
CONTINUOUS
 62
           2
100
AcDbLine
 10
22454.279522246128
 20
4886.54957298722
 11
22886.008539383769
 21
4886.54957298722
  0
LINE
  5
25B
100
AcDbEntity
  8
0
  6
CONTINUOUS
 62
           2
100
AcDbLine
 10
22460.279522246128
 20
1929.549572987217
 11
22886.008539383769
 21
1929.549572987217
  0
SOLID
  5
25C
100
AcDbEntity
  8
0
 62
           2
100
AcDbTrace
 10
22828.118705889596
 20
4819.882906320553
 11
22810.565039544606
 21
4819.882906320553
 12
22819.341872717101
 22
4886.54957298722
 13
22819.341872717101
 23
4886.54957298722
  0
SOLID
  5
25D
100
AcDbEntity
  8
0
 62
           2
100
AcDbTrace
 10
22810.565039544606
 20
1996.216239653884
 11
22828.118705889596
 21
1996.216239653884
 12
22819.341872717101
 22
1929.549572987217
 13
22819.341872717101
 23
1929.549572987217
  0
MTEXT
  5
25E
100
AcDbEntity
  8
0
 62
           1
100
AcDbMText
 10
22752.675206050433
 20
3341.133240772042
 30
0.0
 40
46.666666666667
 41
0.0
 71
           7
 72
           1
  1
DH
  7
CONVERTER_1
 11
0.0
 21
1.0
 31
0.0
  0
ENDBLK
  5
25F
100
AcDbEntity
  8
0
100
AcDbBlockEnd
  0
BLOCK
  5
263
100
AcDbEntity
  8
0
100
AcDbBlockBegin
  2
*D46
 70
           1
 10
0.0
 20
0.0
 30
0.0
  3
*D46
  1

  0
LINE
  5
264
100
AcDbEntity
  8
0
  6
CONTINUOUS
 62
           2
100
AcDbLine
 10
22820.4811940369
 20
4886.54957298722
 11
22820.4811940369
 21
5421.549572987222
  0
LINE
  5
265
100
AcDbEntity
  8
0
  6
CONTINUOUS
 62
           2
100
AcDbLine
 10
22454.279522246128
 20
4886.54957298722
 11
22887.147860703568
 21
4886.54957298722
  0
LINE
  5
266
100
AcDbEntity
  8
0
  6
CONTINUOUS
 62
           2
100
AcDbLine
 10
22390.603494858296
 20
5421.549572987222
 11
22887.147860703568
 21
5421.549572987222
  0
SOLID
  5
267
100
AcDbEntity
  8
0
 62
           2
100
AcDbTrace
 10
22829.258027209395
 20
5354.882906320555
 11
22811.704360864405
 21
5354.882906320555
 12
22820.4811940369
 22
5421.549572987222
 13
22820.4811940369
 23
5421.549572987222
  0
SOLID
  5
268
100
AcDbEntity
  8
0
 62
           2
100
AcDbTrace
 10
22811.704360864405
 20
4953.216239653887
 11
22829.258027209395
 21
4953.216239653887
 12
22820.4811940369
 22
4886.54957298722
 13
22820.4811940369
 23
4886.54957298722
  0
MTEXT
  5
269
100
AcDbEntity
  8
0
 62
           1
100
AcDbMText
 10
22753.814527370232
 20
5096.43777014277
 30
0.0
 40
46.666666666667
 41
0.0
 71
           7
 72
           1
  1
535
  7
CONVERTER_1
 11
0.0
 21
1.0
 31
0.0
  0
ENDBLK
  5
26A
100
AcDbEntity
  8
0
100
AcDbBlockEnd
  0
BLOCK
  5
26E
100
AcDbEntity
  8
0
100
AcDbBlockBegin
  2
*D47
 70
           1
 10
0.0
 20
0.0
 30
0.0
  3
*D47
  1

  0
LINE
  5
26F
100
AcDbEntity
  8
0
  6
CONTINUOUS
 62
           2
100
AcDbLine
 10
27076.899001053804
 20
5703.33334766791
 11
27248.751274145208
 21
5703.33334766791
  0
LINE
  5
270
100
AcDbEntity
  8
0
  6
CONTINUOUS
 62
           2
100
AcDbLine
 10
26911.899001053804
 20
5703.33334766791
 11
27076.899001053804
 21
5703.33334766791
  0
LINE
  5
271
100
AcDbEntity
  8
0
  6
CONTINUOUS
 62
           2
100
AcDbLine
 10
26778.565667720472
 20
5703.33334766791
 11
26911.899001053804
 21
5703.33334766791
  0
LINE
  5
272
100
AcDbEntity
  8
0
  6
CONTINUOUS
 62
           2
100
AcDbLine
 10
27076.899001053804
 20
5028.549572987224
 11
27076.899001053804
 21
5770.000014334577
  0
LINE
  5
273
100
AcDbEntity
  8
0
  6
CONTINUOUS
 62
           2
100
AcDbLine
 10
26911.899001053804
 20
4993.549572987224
 11
26911.899001053804
 21
5770.000014334577
  0
SOLID
  5
274
100
AcDbEntity
  8
0
 62
           2
100
AcDbTrace
 10
26845.232334387136
 20
5694.556514495417
 11
26845.232334387136
 21
5712.110180840403
 12
26911.899001053804
 22
5703.33334766791
 13
26911.899001053804
 23
5703.33334766791
  0
SOLID
  5
275
100
AcDbEntity
  8
0
 62
           2
100
AcDbTrace
 10
27143.565667720472
 20
5712.110180840403
 11
27143.565667720472
 21
5694.556514495417
 12
27076.899001053804
 22
5703.33334766791
 13
27076.899001053804
 23
5703.33334766791
  0
TEXT
  5
276
100
AcDbEntity
  8
0
 62
           1
100
AcDbText
 10
27150.751274145208
 20
5770.000014334577
 40
46.666666666667
  1
165
 41
1.357142857143
  7
CONVERTER_1
100
AcDbText
  0
ENDBLK
  5
277
100
AcDbEntity
  8
0
100
AcDbBlockEnd
  0
BLOCK
  5
327
100
AcDbEntity
  8
0
100
AcDbBlockBegin
  2
*D48
 70
           1
 10
0.0
 20
0.0
 30
0.0
  3
*D48
  1

  0
LINE
  5
328
100
AcDbEntity
  8
0
  6
CONTINUOUS
 62
           2
100
AcDbLine
 10
22235.279522246121
 20
5262.099521322778
 11
22455.279522246132
 21
5262.099521322778
  0
LINE
  5
329
100
AcDbEntity
  8
0
  6
CONTINUOUS
 62
           2
100
AcDbLine
 10
22455.279522246132
 20
5056.54957298722
 11
22455.279522246132
 21
5328.766187989444
  0
LINE
  5
32A
100
AcDbEntity
  8
0
  6
CONTINUOUS
 62
           2
100
AcDbLine
 10
22235.279522246121
 20
5056.54957298722
 11
22235.279522246121
 21
5328.766187989444
  0
SOLID
  5
32B
100
AcDbEntity
  8
0
 62
           2
100
AcDbTrace
 10
22388.612855579464
 20
5253.322688150285
 11
22388.612855579464
 21
5270.876354495271
 12
22455.279522246132
 22
5262.099521322778
 13
22455.279522246132
 23
5262.099521322778
  0
SOLID
  5
32C
100
AcDbEntity
  8
0
 62
           2
100
AcDbTrace
 10
22301.946188912789
 20
5270.876354495271
 11
22301.946188912789
 21
5253.322688150285
 12
22235.279522246121
 22
5262.099521322778
 13
22235.279522246121
 23
5262.099521322778
  0
TEXT
  5
32D
100
AcDbEntity
  8
0
 62
           1
100
AcDbText
 10
22289.25066577231
 20
5328.766187989445
 40
46.666666666667
  1
220
 41
1.357142857143
  7
CONVERTER_1
100
AcDbText
  0
ENDBLK
  5
32E
100
AcDbEntity
  8
0
100
AcDbBlockEnd
  0
BLOCK
  5
332
100
AcDbEntity
  8
0
100
AcDbBlockBegin
  2
*D49
 70
           1
 10
0.0
 20
0.0
 30
0.0
  3
*D49
  1

  0
LINE
  5
333
100
AcDbEntity
  8
0
  6
CONTINUOUS
 62
           2
100
AcDbLine
 10
26971.58882739511
 20
1929.549572987216
 11
26971.58882739511
 21
3339.549572987216
  0
LINE
  5
334
100
AcDbEntity
  8
0
  6
CONTINUOUS
 62
           2
100
AcDbLine
 10
26826.8990010538
 20
3339.549572987216
 11
27038.255494061774
 21
3339.549572987216
  0
LINE
  5
335
100
AcDbEntity
  8
0
  6
CONTINUOUS
 62
           2
100
AcDbLine
 10
26875.440237810257
 20
1929.549572987216
 11
27038.255494061774
 21
1929.549572987216
  0
SOLID
  5
336
100
AcDbEntity
  8
0
 62
           2
100
AcDbTrace
 10
26962.811994222615
 20
1996.216239653883
 11
26980.365660567604
 21
1996.216239653883
 12
26971.58882739511
 22
1929.549572987216
 13
26971.58882739511
 23
1929.549572987216
  0
SOLID
  5
337
100
AcDbEntity
  8
0
 62
           2
100
AcDbTrace
 10
26980.365660567604
 20
3272.88290632055
 11
26962.811994222615
 21
3272.88290632055
 12
26971.58882739511
 22
3339.549572987216
 13
26971.58882739511
 23
3339.549572987216
  0
MTEXT
  5
338
100
AcDbEntity
  8
0
 62
           1
100
AcDbMText
 10
26904.922160728442
 20
2682.755304537968
 30
0.0
 40
46.666666666667
 41
0.0
 71
           7
 72
           1
  1
1410
  7
CONVERTER_1
 11
0.0
 21
1.0
 31
0.0
  0
ENDBLK
  5
339
100
AcDbEntity
  8
0
100
AcDbBlockEnd
  0
BLOCK
  5
33D
100
AcDbEntity
  8
0
100
AcDbBlockBegin
  2
*D50
 70
           1
 10
0.0
 20
0.0
 30
0.0
  3
*D50
  1

  0
LINE
  5
33E
100
AcDbEntity
  8
0
  6
CONTINUOUS
 62
           2
100
AcDbLine
 10
26826.8990010538
 20
3742.6410308297
 11
27035.806265488809
 21
3742.6410308297
  0
LINE
  5
33F
100
AcDbEntity
  8
0
  6
CONTINUOUS
 62
           2
100
AcDbLine
 10
26751.8990010538
 20
3742.6410308297
 11
26826.8990010538
 21
3742.6410308297
  0
LINE
  5
340
100
AcDbEntity
  8
0
  6
CONTINUOUS
 62
           2
100
AcDbLine
 10
26618.565667720464
 20
3742.6410308297
 11
26751.8990010538
 21
3742.6410308297
  0
LINE
  5
341
100
AcDbEntity
  8
0
  6
CONTINUOUS
 62
           2
100
AcDbLine
 10
26826.8990010538
 20
3518.549572987216
 11
26826.8990010538
 21
3809.307697496367
  0
LINE
  5
342
100
AcDbEntity
  8
0
  6
CONTINUOUS
 62
           2
100
AcDbLine
 10
26751.8990010538
 20
3518.549572987216
 11
26751.8990010538
 21
3809.307697496367
  0
SOLID
  5
343
100
AcDbEntity
  8
0
 62
           2
100
AcDbTrace
 10
26893.565667720468
 20
3751.417864002193
 11
26893.565667720468
 21
3733.864197657207
 12
26826.8990010538
 22
3742.6410308297
 13
26826.8990010538
 23
3742.6410308297
  0
SOLID
  5
344
100
AcDbEntity
  8
0
 62
           2
100
AcDbTrace
 10
26685.232334387132
 20
3733.864197657207
 11
26685.232334387132
 21
3751.417864002193
 12
26751.8990010538
 22
3742.6410308297
 13
26751.8990010538
 23
3742.6410308297
  0
TEXT
  5
345
100
AcDbEntity
  8
0
 62
           1
100
AcDbText
 10
26965.806265488809
 20
3809.307697496367
 40
46.666666666667
  1
75
 41
1.357142857143
  7
CONVERTER_1
100
AcDbText
  0
ENDBLK
  5
346
100
AcDbEntity
  8
0
100
AcDbBlockEnd
  0
BLOCK
  5
385
100
AcDbEntity
  8
0
100
AcDbBlockBegin
  2
*D51
 70
           1
 10
0.0
 20
0.0
 30
0.0
  3
*D51
  1

  0
LINE
  5
386
100
AcDbEntity
  8
0
  6
CONTINUOUS
 62
           2
100
AcDbLine
 10
27475.65012274071
 20
641.429388408627
 11
27475.65012274071
 21
886.429294845144
  0
LINE
  5
387
100
AcDbEntity
  8
0
  6
CONTINUOUS
 62
           2
100
AcDbLine
 10
27184.8990010538
 20
886.429294845144
 11
27542.316789407374
 21
886.429294845144
  0
LINE
  5
388
100
AcDbEntity
  8
0
  6
CONTINUOUS
 62
           2
100
AcDbLine
 10
27241.89899749032
 20
641.429388408627
 11
27542.316789407374
 21
641.429388408627
  0
SOLID
  5
389
100
AcDbEntity
  8
0
 62
           2
100
AcDbTrace
 10
27466.873289568215
 20
708.096055075294
 11
27484.426955913204
 21
708.096055075294
 12
27475.65012274071
 22
641.429388408627
 13
27475.65012274071
 23
641.429388408627
  0
SOLID
  5
38A
100
AcDbEntity
  8
0
 62
           2
100
AcDbTrace
 10
27484.426955913204
 20
819.762628178477
 11
27466.873289568215
 21
819.762628178477
 12
27475.65012274071
 22
886.429294845144
 13
27475.65012274071
 23
886.429294845144
  0
MTEXT
  5
38B
100
AcDbEntity
  8
0
 62
           1
100
AcDbMText
 10
27408.983456074042
 20
701.028575657544
 30
0.0
 40
46.666666666667
 41
0.0
 71
           7
 72
           1
  1
280
  7
CONVERTER_1
 11
0.0
 21
1.0
 31
0.0
  0
ENDBLK
  5
38C
100
AcDbEntity
  8
0
100
AcDbBlockEnd
  0
BLOCK
  5
46C
100
AcDbEntity
  8
0
100
AcDbBlockBegin
  2
*D52
 70
           1
 10
0.0
 20
0.0
 30
0.0
  3
*D52
  1

  0
LINE
  5
46D
100
AcDbEntity
  8
0
  6
CONTINUOUS
 62
           2
100
AcDbLine
 10
26426.8990010538
 20
-184.633255482926
 11
26751.899001053811
 21
-184.633255482926
  0
LINE
  5
46E
100
AcDbEntity
  8
0
  6
CONTINUOUS
 62
           2
100
AcDbLine
 10
26426.8990010538
 20
706.429392648117
 11
26426.8990010538
 21
-251.299922149593
  0
LINE
  5
46F
100
AcDbEntity
  8
0
  6
CONTINUOUS
 62
           2
100
AcDbLine
 10
26751.899001053811
 20
345.429392648117
 11
26751.899001053811
 21
-251.299922149593
  0
SOLID
  5
470
100
AcDbEntity
  8
0
 62
           2
100
AcDbTrace
 10
26685.232334387143
 20
-193.410088655419
 11
26685.232334387143
 21
-175.856422310433
 12
26751.899001053811
 22
-184.633255482926
 13
26751.899001053811
 23
-184.633255482926
  0
SOLID
  5
471
100
AcDbEntity
  8
0
 62
           2
100
AcDbTrace
 10
26493.565667720468
 20
-175.856422310433
 11
26493.565667720468
 21
-193.410088655419
 12
26426.8990010538
 22
-184.633255482926
 13
26426.8990010538
 23
-184.633255482926
  0
TEXT
  5
472
100
AcDbEntity
  8
0
 62
           1
100
AcDbText
 10
26529.01412935981
 20
-117.966588816259
 40
46.666666666667
  1
325
 41
1.357142857143
  7
CONVERTER_1
100
AcDbText
  0
ENDBLK
  5
473
100
AcDbEntity
  8
0
100
AcDbBlockEnd
  0
BLOCK
  5
477
100
AcDbEntity
  8
0
100
AcDbBlockBegin
  2
*D53
 70
           1
 10
0.0
 20
0.0
 30
0.0
  3
*D53
  1

  0
LINE
  5
478
100
AcDbEntity
  8
0
  6
CONTINUOUS
 62
           2
100
AcDbLine
 10
24201.899001053811
 20
-184.572621729187
 11
24526.899001053811
 21
-184.572621729187
  0
LINE
  5
479
100
AcDbEntity
  8
0
  6
CONTINUOUS
 62
           2
100
AcDbLine
 10
24201.899001053811
 20
345.429392648117
 11
24201.899001053811
 21
-251.239288395853
  0
LINE
  5
47A
100
AcDbEntity
  8
0
  6
CONTINUOUS
 62
           2
100
AcDbLine
 10
24526.899001053811
 20
690.429392648117
 11
24526.899001053811
 21
-251.239288395853
  0
SOLID
  5
47B
100
AcDbEntity
  8
0
 62
           2
100
AcDbTrace
 10
24460.232334387143
 20
-193.34945490168
 11
24460.232334387143
 21
-175.795788556694
 12
24526.899001053811
 22
-184.572621729187
 13
24526.899001053811
 23
-184.572621729187
  0
SOLID
  5
47C
100
AcDbEntity
  8
0
 62
           2
100
AcDbTrace
 10
24268.565667720479
 20
-175.795788556694
 11
24268.565667720479
 21
-193.34945490168
 12
24201.899001053811
 22
-184.572621729187
 13
24201.899001053811
 23
-184.572621729187
  0
TEXT
  5
47D
100
AcDbEntity
  8
0
 62
           1
100
AcDbText
 10
24324.97284677381
 20
-117.90595506252
 40
46.666666666667
  1
325
 41
1.357142857143
  7
CONVERTER_1
100
AcDbText
  0
ENDBLK
  5
47E
100
AcDbEntity
  8
0
100
AcDbBlockEnd
  0
BLOCK
  5
482
100
AcDbEntity
  8
0
100
AcDbBlockBegin
  2
*D54
 70
           1
 10
0.0
 20
0.0
 30
0.0
  3
*D54
  1

  0
LINE
  5
483
100
AcDbEntity
  8
0
  6
CONTINUOUS
 62
           2
100
AcDbLine
 10
24151.899001053811
 20
170.130431509686
 11
23938.543663999411
 21
170.130431509686
  0
LINE
  5
484
100
AcDbEntity
  8
0
  6
CONTINUOUS
 62
           2
100
AcDbLine
 10
24151.899001053811
 20
170.130431509686
 11
24201.899001053811
 21
170.130431509686
  0
LINE
  5
485
100
AcDbEntity
  8
0
  6
CONTINUOUS
 62
           2
100
AcDbLine
 10
24335.232334387143
 20
170.130431509686
 11
24201.899001053811
 21
170.130431509686
  0
LINE
  5
486
100
AcDbEntity
  8
0
  6
CONTINUOUS
 62
           2
100
AcDbLine
 10
24201.899001053811
 20
345.429392648117
 11
24201.899001053811
 21
103.46376484302
  0
LINE
  5
487
100
AcDbEntity
  8
0
  6
CONTINUOUS
 62
           2
100
AcDbLine
 10
24151.899001053811
 20
345.429392648117
 11
24151.899001053811
 21
103.46376484302
  0
SOLID
  5
488
100
AcDbEntity
  8
0
 62
           2
100
AcDbTrace
 10
24085.232334387143
 20
161.353598337193
 11
24085.232334387143
 21
178.907264682179
 12
24151.899001053811
 22
170.130431509686
 13
24151.899001053811
 23
170.130431509686
  0
SOLID
  5
489
100
AcDbEntity
  8
0
 62
           2
100
AcDbTrace
 10
24268.565667720479
 20
178.907264682179
 11
24268.565667720479
 21
161.353598337193
 12
24201.899001053811
 22
170.130431509686
 13
24201.899001053811
 23
170.130431509686
  0
TEXT
  5
48A
100
AcDbEntity
  8
0
 62
           1
100
AcDbText
 10
23938.543663999411
 20
236.797098176353
 40
46.666666666667
  1
50
 41
1.357142857143
  7
CONVERTER_1
100
AcDbText
  0
ENDBLK
  5
48B
100
AcDbEntity
  8
0
100
AcDbBlockEnd
  0
BLOCK
  5
49A
100
AcDbEntity
  8
0
100
AcDbBlockBegin
  2
*D55
 70
           1
 10
0.0
 20
0.0
 30
0.0
  3
*D55
  1

  0
LINE
  5
49B
100
AcDbEntity
  8
0
  6
CONTINUOUS
 62
           2
100
AcDbLine
 10
27150.382069933308
 20
568.429296114677
 11
27150.382069933308
 21
820.429392648117
  0
LINE
  5
49C
100
AcDbEntity
  8
0
  6
CONTINUOUS
 62
           2
100
AcDbLine
 10
26935.4108646163
 20
820.429392648117
 11
27217.048736599972
 21
820.429392648117
  0
LINE
  5
49D
100
AcDbEntity
  8
0
  6
CONTINUOUS
 62
           2
100
AcDbLine
 10
26874.649976516863
 20
568.429296114677
 11
27217.048736599972
 21
568.429296114677
  0
SOLID
  5
49E
100
AcDbEntity
  8
0
 62
           2
100
AcDbTrace
 10
27159.158903105803
 20
753.76272598145
 11
27141.605236760814
 21
753.76272598145
 12
27150.382069933308
 22
820.429392648117
 13
27150.382069933308
 23
820.429392648117
  0
SOLID
  5
49F
100
AcDbEntity
  8
0
 62
           2
100
AcDbTrace
 10
27141.605236760814
 20
635.095962781343
 11
27159.158903105803
 21
635.095962781343
 12
27150.382069933308
 22
568.429296114677
 13
27150.382069933308
 23
568.429296114677
  0
MTEXT
  5
4A0
100
AcDbEntity
  8
0
 62
           1
100
AcDbMText
 10
27083.71540326664
 20
650.383186203939
 30
0.0
 40
46.666666666667
 41
0.0
 71
           7
 72
           1
  1
230
  7
CONVERTER_1
 11
0.0
 21
1.0
 31
0.0
  0
ENDBLK
  5
4A1
100
AcDbEntity
  8
0
100
AcDbBlockEnd
  0
BLOCK
  5
4A5
100
AcDbEntity
  8
0
100
AcDbBlockBegin
  2
*D56
 70
           1
 10
0.0
 20
0.0
 30
0.0
  3
*D56
  1

  0
LINE
  5
4A6
100
AcDbEntity
  8
0
  6
CONTINUOUS
 62
           2
100
AcDbLine
 10
24526.899001053804
 20
1073.350393333776
 11
26426.899001053804
 21
1073.350393333776
  0
LINE
  5
4A7
100
AcDbEntity
  8
0
  6
CONTINUOUS
 62
           2
100
AcDbLine
 10
24526.899001053804
 20
970.429392648115
 11
24526.899001053804
 21
1140.017060000443
  0
LINE
  5
4A8
100
AcDbEntity
  8
0
  6
CONTINUOUS
 62
           2
100
AcDbLine
 10
26426.899001053804
 20
970.429392648116
 11
26426.899001053804
 21
1140.017060000443
  0
SOLID
  5
4A9
100
AcDbEntity
  8
0
 62
           2
100
AcDbTrace
 10
26343.565667720472
 20
1062.37935186816
 11
26343.565667720472
 21
1084.321434799392
 12
26426.899001053804
 22
1073.350393333776
 13
26426.899001053804
 23
1073.350393333776
  0
SOLID
  5
4AA
100
AcDbEntity
  8
0
 62
           2
100
AcDbTrace
 10
24610.232334387136
 20
1084.321434799392
 11
24610.232334387136
 21
1062.37935186816
 12
24526.899001053804
 22
1073.350393333776
 13
24526.899001053804
 23
1073.350393333776
  0
TEXT
  5
4AB
100
AcDbEntity
  8
0
 62
           1
100
AcDbText
 10
25205.811030703499
 20
1165.017060000442
 40
58.333333333333
  1
DW  
 41
1.357142857143
  7
CONVERTER_1
100
AcDbText
  0
ENDBLK
  5
4AC
100
AcDbEntity
  8
0
100
AcDbBlockEnd
  0
BLOCK
  5
5CE
100
AcDbEntity
  8
0
100
AcDbBlockBegin
  2
*D57
 70
           1
 10
0.0
 20
0.0
 30
0.0
  3
*D57
  1

  0
LINE
  5
5CF
100
AcDbEntity
  8
0
  6
CONTINUOUS
 62
           2
100
AcDbLine
 10
26751.899001053804
 20
4489.455483838399
 11
26961.899001053804
 21
4489.455483838399
  0
LINE
  5
5D0
100
AcDbEntity
  8
0
  6
CONTINUOUS
 62
           2
100
AcDbLine
 10
26961.899001053804
 20
4703.549572987217
 11
26961.899001053804
 21
4422.788817171732
  0
LINE
  5
5D1
100
AcDbEntity
  8
0
  6
CONTINUOUS
 62
           2
100
AcDbLine
 10
26751.899001053804
 20
4703.549572987217
 11
26751.899001053804
 21
4422.788817171732
  0
SOLID
  5
5D2
100
AcDbEntity
  8
0
 62
           2
100
AcDbTrace
 10
26895.232334387136
 20
4480.678650665906
 11
26895.232334387136
 21
4498.232317010892
 12
26961.899001053804
 22
4489.455483838399
 13
26961.899001053804
 23
4489.455483838399
  0
SOLID
  5
5D3
100
AcDbEntity
  8
0
 62
           2
100
AcDbTrace
 10
26818.565667720472
 20
4498.232317010892
 11
26818.565667720472
 21
4480.678650665906
 12
26751.899001053804
 22
4489.455483838399
 13
26751.899001053804
 23
4489.455483838399
  0
TEXT
  5
5D4
100
AcDbEntity
  8
0
 62
           1
100
AcDbText
 10
26810.052792256211
 20
4556.122150505066
 40
46.666666666667
  1
210
 41
1.357142857143
  7
CONVERTER_1
100
AcDbText
  0
ENDBLK
  5
5D5
100
AcDbEntity
  8
0
100
AcDbBlockEnd
  0
ENDSEC
  0
SECTION
  2
ENTITIES
  0
MTEXT
  5
5E6
100
AcDbEntity
  8
1
 62
           3
100
AcDbMText
 10
23296.648494021942
 20
574.4377893367
 30
0.0
 40
66.666666666667
 41
0.0
 71
           7
 72
           1
  1
Montagefreiraum\PExtra fixing space
  7
CONVERTER_2
  0
MTEXT
  5
5E5
100
AcDbEntity
  8
1
 62
           3
100
AcDbMText
 10
23018.921744651441
 20
5839.77290999612
 30
0.0
 40
66.666666666667
 41
0.0
 71
           7
 72
           1
  1
Montagefreiraum\PExtra fixing space
  7
CONVERTER_2
  0
MTEXT
  5
5E4
100
AcDbEntity
  8
1
 62
           3
100
AcDbMText
 10
26897.634379131359
 20
6099.863358794861
 30
0.0
 40
66.666666666667
 41
0.0
 71
           7
 72
           1
  1
Montagefreiraum\PExtra fixing space
  7
CONVERTER_2
  0
MTEXT
  5
5E3
100
AcDbEntity
  8
1
 62
           3
100
AcDbMText
 10
21581.608806510842
 20
4297.873791325569
 30
0.0
 40
66.666666666667
 41
0.0
 71
           7
 72
           1
  1
Montagefreiraum\PExtra fixing space
  7
CONVERTER_2
  0
MTEXT
  5
5E2
100
AcDbEntity
  8
1
 62
           3
100
AcDbMText
 10
23206.921744651441
 20
4233.772909996121
 30
0.0
 40
66.666666666667
 41
0.0
 71
           7
 72
           1
  1
Steuerung /\Pcontrol system
  7
CONVERTER_2
  0
MTEXT
  5
5E1
100
AcDbEntity
  8
1
 62
           3
100
AcDbMText
 10
21672.838651335951
 20
3493.60882993284
 30
0.0
 40
66.666666666667
 41
0.0
 71
           7
 72
           1
  1
Bedieneinheit /\PKeyboard
  7
CONVERTER_2
  0
LINE
  5
5E0
100
AcDbEntity
  8
1
  6
CONTINUOUS
 62
           2
100
AcDbLine
 10
23711.163297528979
 20
519.031353291848
 11
23911.163297528979
 21
384.031353291848
  0
LINE
  5
5DF
100
AcDbEntity
  8
1
  6
CONTINUOUS
 62
           2
100
AcDbLine
 10
22906.212988403418
 20
5864.935103214619
 11
22963.532405686889
 21
5969.288980023372
  0
LINE
  5
5DE
100
AcDbEntity
  8
1
  6
CONTINUOUS
 62
           2
100
AcDbLine
 10
21773.137697837599
 20
4488.750065778318
 11
21662.482740666212
 21
4817.641188482099
  0
LINE
  5
5DD
100
AcDbEntity
  8
1
  6
CONTINUOUS
 62
           2
100
AcDbLine
 10
23298.71873455041
 20
4427.755604074055
 11
22375.25781801622
 21
5143.697213521919
  0
LINE
  5
5DC
100
AcDbEntity
  8
1
  6
CONTINUOUS
 62
           3
100
AcDbLine
 10
27208.594088701
 20
5894.709098077769
 11
27166.724240288819
 21
6071.306677544597
  0
LINE
  5
5DB
100
AcDbEntity
  8
1
  6
CONTINUOUS
 62
           2
100
AcDbLine
 10
22065.712243217011
 20
3553.224693915008
 11
22296.97150335351
 21
3501.470391272567
  0
INSERT
  5
85
100
AcDbEntity
  8
0
100
AcDbBlockReference
  2
8300079
 10
7734.907763164041
 20
1966.26675977652
  0
INSERT
  5
86
100
AcDbEntity
  8
0
100
AcDbBlockReference
  2
ANTRIEB_SA
 10
16776.19413407821
 20
19227.437150838039
  0
INSERT
  5
87
100
AcDbEntity
  8
0
100
AcDbBlockReference
  2
_SCHALTKASTEN_VA
 10
10428.540802781101
 20
5781.122806826084
  0
INSERT
  5
88
100
AcDbEntity
  8
0
100
AcDbBlockReference
  2
STURZABDICHTUNG_SA
 10
-1398.952073997285
 20
1207.000000000002
  0
INSERT
  5
89
100
AcDbEntity
  8
0
100
AcDbBlockReference
  2
DRAUFSICHT_PRINZIPZG
 10
16970.0
 20
20430.940657297469
  0
INSERT
  5
8A
100
AcDbEntity
  8
0
100
AcDbBlockReference
  2
VORLAGE__3
 10
61621.223629239365
 20
52578.401316191099
 41
33.333333333343
 42
33.333333333328
  0
INSERT
  5
8B
100
AcDbEntity
  8
0
100
AcDbBlockReference
  2
8300R0001
 10
17361.029991788379
 20
20946.93715083797
  0
INSERT
  5
8C
100
AcDbEntity
  8
0
100
AcDbBlockReference
  2
_1
 10
11981.380521192321
 20
-20072.391791870548
  0
ENDSEC
  0
SECTION
  2
OBJECTS
  0
DICTIONARY
  5
19
100
AcDbDictionary
  3
ACAD_GROUP
350
1A
  3
ACAD_MLINESTYLE
350
1B
  0
DICTIONARY
  5
1A
102
{ACAD_REACTORS
330
19
102
}
100
AcDbDictionary
  0
DICTIONARY
  5
1B
102
{ACAD_REACTORS
330
19
102
}
100
AcDbDictionary
  3
STANDARD
350
1C
  0
MLINESTYLE
  5
1C
102
{ACAD_REACTORS
330
1B
102
}
100
AcDbMlineStyle
  2
STANDARD
 70
           0
  3

 62
           0
 51
90.0
 52
90.0
 71
           2
 49
0.5
 62
         256
  6
BYLAYER
 49
-0.5
 62
         256
  6
BYLAYER
  0
ENDSEC
  0
EOF
