  0
SECTION
  2
HEADER
  9
$ACADVER
  1
AC1014
  9
$ACADMAINTVER
 70
           0
  9
$DWGCODEPAGE
  3
ANSI_1252
  9
$INSBASE
 10
0.0
 20
0.0
 30
0.0
  9
$EXTMIN
 10
1.000000000000E+20
 20
1.000000000000E+20
 30
1.000000000000E+20
  9
$EXTMAX
 10
-1.000000000000E+20
 20
-1.000000000000E+20
 30
-1.000000000000E+20
  9
$LIMMIN
 10
0.0
 20
0.0
  9
$LIMMAX
 10
0.0
 20
0.0
  9
$ORTHOMODE
 70
           0
  9
$REGENMODE
 70
           1
  9
$FILLMODE
 70
           1
  9
$QTEXTMODE
 70
           0
  9
$MIRRTEXT
 70
           1
  9
$DRAGMODE
 70
           2
  9
$LTSCALE
 40
1.0
  9
$OSMODE
 70
           0
  9
$ATTMODE
 70
           1
  9
$TEXTSIZE
 40
0.2
  9
$TRACEWID
 40
0.05
  9
$TEXTSTYLE
  7
STANDARD
  9
$CLAYER
  8
0
  9
$CELTYPE
  6
CONTINUOUS
  9
$CECOLOR
 62
         256
  9
$CELTSCALE
 40
1.0
  9
$DELOBJ
 70
           1
  9
$DISPSILH
 70
           0
  9
$DIMSCALE
 40
1.0
  9
$DIMASZ
 40
0.18
  9
$DIMEXO
 40
0.0625
  9
$DIMDLI
 40
0.38
  9
$DIMRND
 40
0.0
  9
$DIMDLE
 40
0.0
  9
$DIMEXE
 40
0.18
  9
$DIMTP
 40
0.0
  9
$DIMTM
 40
0.0
  9
$DIMTXT
 40
0.18
  9
$DIMCEN
 40
0.09
  9
$DIMTSZ
 40
0.0
  9
$DIMTOL
 70
           0
  9
$DIMLIM
 70
           0
  9
$DIMTIH
 70
           1
  9
$DIMTOH
 70
           1
  9
$DIMSE1
 70
           0
  9
$DIMSE2
 70
           0
  9
$DIMTAD
 70
           0
  9
$DIMZIN
 70
           0
  9
$DIMBLK
  1

  9
$DIMASO
 70
           1
  9
$DIMSHO
 70
           1
  9
$DIMPOST
  1

  9
$DIMAPOST
  1

  9
$DIMALT
 70
           0
  9
$DIMALTD
 70
           2
  9
$DIMALTF
 40
25.4
  9
$DIMLFAC
 40
1.0
  9
$DIMTOFL
 70
           0
  9
$DIMTVP
 40
0.0
  9
$DIMTIX
 70
           0
  9
$DIMSOXD
 70
           0
  9
$DIMSAH
 70
           0
  9
$DIMBLK1
  1

  9
$DIMBLK2
  1

  9
$DIMSTYLE
  2
STANDARD
  9
$DIMCLRD
 70
           0
  9
$DIMCLRE
 70
           0
  9
$DIMCLRT
 70
           0
  9
$DIMTFAC
 40
1.0
  9
$DIMGAP
 40
0.09
  9
$DIMJUST
 70
           0
  9
$DIMSD1
 70
           0
  9
$DIMSD2
 70
           0
  9
$DIMTOLJ
 70
           1
  9
$DIMTZIN
 70
           0
  9
$DIMALTZ
 70
           0
  9
$DIMALTTZ
 70
           0
  9
$DIMFIT
 70
           3
  9
$DIMUPT
 70
           0
  9
$DIMUNIT
 70
           2
  9
$DIMDEC
 70
           4
  9
$DIMTDEC
 70
           4
  9
$DIMALTU
 70
           2
  9
$DIMALTTD
 70
           2
  9
$DIMTXSTY
  7
STANDARD
  9
$DIMAUNIT
 70
           0
  9
$LUNITS
 70
           2
  9
$LUPREC
 70
           4
  9
$SKETCHINC
 40
0.1
  9
$FILLETRAD
 40
0.0
  9
$AUNITS
 70
           0
  9
$AUPREC
 70
           0
  9
$MENU
  1
acad
  9
$ELEVATION
 40
0.0
  9
$PELEVATION
 40
0.0
  9
$THICKNESS
 40
0.0
  9
$LIMCHECK
 70
           0
  9
$BLIPMODE
 70
           1
  9
$CHAMFERA
 40
0.0
  9
$CHAMFERB
 40
0.0
  9
$CHAMFERC
 40
0.0
  9
$CHAMFERD
 40
0.0
  9
$SKPOLY
 70
           0
  9
$TDCREATE
 40
0.000000000
  9
$TDUPDATE
 40
0.000000000
  9
$TDINDWG
 40
0.0000000000
  9
$TDUSRTIMER
 40
0.0000000000
  9
$USRTIMER
 70
           1
  9
$ANGBASE
 50
0.0
  9
$ANGDIR
 70
           0
  9
$PDMODE
 70
           0
  9
$PDSIZE
 40
0.0
  9
$PLINEWID
 40
0.0
  9
$COORDS
 70
           0
  9
$SPLFRAME
 70
           0
  9
$SPLINETYPE
 70
           6
  9
$SPLINESEGS
 70
           8
  9
$ATTDIA
 70
           0
  9
$ATTREQ
 70
           1
  9
$HANDLING
 70
           1
  9
$HANDSEED
  5
628
  9
$SURFTAB1
 70
           6
  9
$SURFTAB2
 70
           6
  9
$SURFTYPE
 70
           6
  9
$SURFU
 70
           6
  9
$SURFV
 70
           6
  9
$UCSNAME
  2

  9
$UCSORG
 10
0.0
 20
0.0
 30
0.0
  9
$UCSXDIR
 10
1.0
 20
0.0
 30
0.0
  9
$UCSYDIR
 10
0.0
 20
1.0
 30
0.0
  9
$PUCSNAME
  2

  9
$PUCSORG
 10
0.0
 20
0.0
 30
0.0
  9
$PUCSXDIR
 10
1.0
 20
0.0
 30
0.0
  9
$PUCSYDIR
 10
0.0
 20
1.0
 30
0.0
  9
$USERI1
 70
           0
  9
$USERI2
 70
           0
  9
$USERI3
 70
           0
  9
$USERI4
 70
           0
  9
$USERI5
 70
           0
  9
$USERR1
 40
0.0
  9
$USERR2
 40
0.0
  9
$USERR3
 40
0.0
  9
$USERR4
 40
0.0
  9
$USERR5
 40
0.0
  9
$WORLDVIEW
 70
           1
  9
$SHADEDGE
 70
           3
  9
$SHADEDIF
 70
          70
  9
$TILEMODE
 70
           1
  9
$MAXACTVP
 70
          16
  9
$PINSBASE
 10
0.0
 20
0.0
 30
0.0
  9
$PLIMCHECK
 70
           0
  9
$PEXTMIN
 10
1.000000000000E+20
 20
1.000000000000E+20
 30
1.000000000000E+20
  9
$PEXTMAX
 10
-1.000000000000E+20
 20
-1.000000000000E+20
 30
-1.000000000000E+20
  9
$PLIMMIN
 10
0.0
 20
0.0
  9
$PLIMMAX
 10
12.0
 20
9.0
  9
$UNITMODE
 70
           0
  9
$VISRETAIN
 70
           0
  9
$PLINEGEN
 70
           1
  9
$PSLTSCALE
 70
           0
  9
$TREEDEPTH
 70
        3020
  9
$PICKSTYLE
 70
           1
  9
$CMLSTYLE
  2
STANDARD
  9
$CMLJUST
 70
           0
  9
$CMLSCALE
 40
1.0
  9
$PROXYGRAPHICS
 70
           0
  9
$MEASUREMENT
 70
           1
  0
ENDSEC
  0
SECTION
  2
CLASSES
  0
CLASS
  1
LWPOLYLINE
  2
AcDbPolyline
  3
"AutoCAD"
 90
        0
280
           0
281
           1
  0
CLASS
  1
IMAGE
  2
AcDbRasterImage
  3
ISM
 90
      127
280
           0
281
           1
  0
CLASS
  1
OLE2FRAME
  2
AcDbOle2Frame
  3
""
 90
        0
280
           0
281
           1
  0
CLASS
  1
HATCH
  2
AcDbHatch
  3
"ACAD_SEDONA"
 90
        0
280
           0
281
           1
  0
CLASS
  1
DICTIONARYVAR
  2
AcDbDictionaryVar
  3
"AutoCAD"
 90
        0
280
           0
281
           0
  0
CLASS
  1
RASTERVARIABLES
  2
AcDbRasterVariables
  3
ISM
 90
        0
280
           0
281
           0
  0
CLASS
  1
IMAGEDEF
  2
AcDbRasterImageDef
  3
ISM
 90
        0
280
           0
281
           0
  0
CLASS
  1
IMAGEDEF_REACTOR
  2
AcDbRasterImageDefReactor
  3
ISM
 90
        1
280
           0
281
           0
  0
CLASS
  1
IDBUFFER
  2
AcDbIdBuffer
  3
"Acad"
 90
        0
280
           0
281
           0
  0
CLASS
  1
SPATIAL_FILTER
  2
AcDbSpatialFilter
  3
"Acad"
 90
        0
280
           0
281
           0
  0
CLASS
  1
XRECORD
  2
AcDbXrecord
  3
"<Built In>"
 90
        0
280
           0
281
           0
  0
CLASS
  1
SORTENTSTABLE
  2
AcDbSortentsTable
  3
"AutoCAD"
 90
        0
280
           0
281
           0
  0
CLASS
  1
LAYER_INDEX
  2
AcDbLayerIndex
  3
"Acad"
 90
        0
280
           0
281
           0
  0
CLASS
  1
SPATIAL_INDEX
  2
AcDbSpatialIndex
  3
"Acad"
 90
        0
280
           0
281
           0
  0
CLASS
  1
OBJECT_PTR
  2
CAseDLPNTableRecord
  3
"ASE-LPNTableRecord"
 90
        1
280
           0
281
           0
  0
CLASS
  1
LAYOUT
  2
AcDbLayout
  3
"AutoCAD 2000"
 90
        1
280
           0
281
           0
  0
CLASS
  1
PLOTSETTINGS
  2
AcDbPlotSettings
  3
"AutoCAD 2000"
 90
        1
280
           0
281
           0
  0
CLASS
  1
ACDBDICTIONARYWDFLT
  2
AcDbDictionaryWithDefault
  3
"AutoCAD 2000"
 90
        1
280
           0
281
           0
  0
CLASS
  1
ACDBPLACEHOLDER
  2
AcDbPlaceHolder
  3
"AutoCAD 2000"
 90
        1
280
           0
281
           0
  0
CLASS
  1
VBA_PROJECT
  2
AcDbVbaProject
  3
"acadvba"
 90
        1
280
           0
281
           0
  0
CLASS
  1
WIPEOUT
  2
AcDbWipeout
  3
WipeOut|AutoCAD Express Tool|expresstools@autodesk.com
 90
      127
280
           0
281
           1
  0
CLASS
  1
WIPEOUTVARIABLES
  2
AcDbWipeoutVariables
  3
WipeOut|AutoCAD Express Tool|expresstools@autodesk.com
 90
        0
280
           0
281
           0
  0
CLASS
  1
RTEXT
  2
RText
  3
RText|AutoCAD Express Tool|expresstools@autodesk.com
 90
        0
280
           0
281
           1
  0
CLASS
  1
ARCALIGNEDTEXT
  2
AcDbArcAlignedText
  3
ATEXT|AutoCAD Express Tool|expresstools@autodesk.com
 90
        0
280
           0
281
           1
  0
ENDSEC
  0
SECTION
  2
TABLES
  0
TABLE
  2
VPORT
  5
7
100
AcDbSymbolTable
 70
           1
  0
VPORT
  5
15
100
AcDbSymbolTableRecord
100
AcDbViewportTableRecord
  2
*ACTIVE
 70
           0
 10
0.0
 20
0.0
 11
1.0
 21
1.0
 12
6.591288
 22
4.579184
 13
0.0
 23
0.0
 14
1.0
 24
1.0
 15
0.0
 25
0.0
 16
0.0
 26
0.0
 36
1.0
 17
0.0
 27
0.0
 37
0.0
 40
9.158369
 41
0.688564
 42
50.0
 43
0.0
 44
0.0
 50
0.0
 51
0.0
 71
           0
 72
         100
 73
           1
 74
           1
 75
           0
 76
           0
 77
           0
 78
           0
  0
ENDTAB
  0
TABLE
  2
LTYPE
  5
4
100
AcDbSymbolTable
 70
          10
  0
LTYPE
  5
11
100
AcDbSymbolTableRecord
100
AcDbLinetypeTableRecord
  2
BYBLOCK
 70
          64
  3

 72
          65
 73
           0
 40
0.0
  0
LTYPE
  5
12
100
AcDbSymbolTableRecord
100
AcDbLinetypeTableRecord
  2
BYLAYER
 70
          64
  3

 72
          65
 73
           0
 40
0.0
  0
LTYPE
  5
13
100
AcDbSymbolTableRecord
100
AcDbLinetypeTableRecord
  2
CONTINUOUS
 70
          64
  3
Solid line
 72
          65
 73
           0
 40
0.0
  0
LTYPE
  5
1D
100
AcDbSymbolTableRecord
100
AcDbLinetypeTableRecord
  2
DASHED
 70
          64
  3
Dashed
 72
          65
 73
           2
 40
15.0
 49
12.0
 74
           0
 49
-3.0
 74
           0
  0
LTYPE
  5
1E
100
AcDbSymbolTableRecord
100
AcDbLinetypeTableRecord
  2
DOTTED
 70
          64
  3
Dotted
 72
          65
 73
           2
 40
3.5
 49
0.5
 74
           0
 49
-3.0
 74
           0
  0
LTYPE
  5
1F
100
AcDbSymbolTableRecord
100
AcDbLinetypeTableRecord
  2
DOT_CENTER
 70
          64
  3
Dot_Center
 72
          65
 73
           4
 40
2.0
 49
1.25
 74
           0
 49
-0.25
 74
           0
 49
0.25
 74
           0
 49
-0.25
 74
           0
  0
LTYPE
  5
20
100
AcDbSymbolTableRecord
100
AcDbLinetypeTableRecord
  2
LONG_DASHED
 70
          64
  3
Long_Dashed
 72
          65
 73
           2
 40
2.0
 49
1.5
 74
           0
 49
-0.5
 74
           0
  0
LTYPE
  5
21
100
AcDbSymbolTableRecord
100
AcDbLinetypeTableRecord
  2
DASH_CENTER
 70
          64
  3
Dash_Center
 72
          65
 73
           4
 40
36.0
 49
24.0
 74
           0
 49
-3.0
 74
           0
 49
6.0
 74
           0
 49
-3.0
 74
           0
  0
LTYPE
  5
22
100
AcDbSymbolTableRecord
100
AcDbLinetypeTableRecord
  2
PHANTOM
 70
          64
  3
Phantom
 72
          65
 73
           6
 40
2.5
 49
1.25
 74
           0
 49
-0.25
 74
           0
 49
0.25
 74
           0
 49
-0.25
 74
           0
 49
0.25
 74
           0
 49
-0.25
 74
           0
  0
LTYPE
  5
23
100
AcDbSymbolTableRecord
100
AcDbLinetypeTableRecord
  2
CENTER_DASH_DASH
 70
          64
  3
Center_Dash_Dash
 72
          65
 73
           6
 40
22.0
 49
12.0
 74
           0
 49
-3.0
 74
           0
 49
0.5
 74
           0
 49
-3.0
 74
           0
 49
0.5
 74
           0
 49
-3.0
 74
           0
  0
ENDTAB
  0
TABLE
  2
LAYER
  5
2
100
AcDbSymbolTable
 70
           2
  0
LAYER
  5
14
100
AcDbSymbolTableRecord
100
AcDbLayerTableRecord
  2
0
 70
           0
 62
           7
  6
CONTINUOUS
  0
LAYER
  5
24
100
AcDbSymbolTableRecord
100
AcDbLayerTableRecord
  2
1
 70
           0
 62
           7
  6
CONTINUOUS
  0
ENDTAB
  0
TABLE
  2
STYLE
  5
3
100
AcDbSymbolTable
 70
           5
  0
STYLE
  5
17
100
AcDbSymbolTableRecord
100
AcDbTextStyleTableRecord
  2
STANDARD
 70
           0
 40
0.0
 41
1.0
 50
0.0
 71
           0
 42
0.0
  3
txt
  4

  0
STYLE
  5
D5
100
AcDbSymbolTableRecord
100
AcDbTextStyleTableRecord
  2
CONVERTER_1
 70
           0
 40
0.0
 41
1.357142857143
 50
0.0
 71
           0
 42
0.0
  3
simplex.shx
  4

  0
STYLE
  5
2FD
100
AcDbSymbolTableRecord
100
AcDbTextStyleTableRecord
  2
CONVERTER_2
 70
           0
 40
0.0
 41
0.665
 50
0.0
 71
           0
 42
0.0
  3
simplex.shx
  4

  0
STYLE
  5
308
100
AcDbSymbolTableRecord
100
AcDbTextStyleTableRecord
  2
CONVERTER_3
 70
           0
 40
0.0
 41
0.95
 50
0.0
 71
           0
 42
0.0
  3
complex.shx
  4

  0
STYLE
  5
30A
100
AcDbSymbolTableRecord
100
AcDbTextStyleTableRecord
  2
CONVERTER_4
 70
           0
 40
0.0
 41
0.608
 50
0.0
 71
           0
 42
0.0
  3
simplex.shx
  4

  0
ENDTAB
  0
TABLE
  2
VIEW
  5
5
100
AcDbSymbolTable
 70
           0
  0
ENDTAB
  0
TABLE
  2
UCS
  5
6
100
AcDbSymbolTable
 70
           0
  0
ENDTAB
  0
TABLE
  2
APPID
  5
8
100
AcDbSymbolTable
 70
           1
  0
APPID
  5
16
100
AcDbSymbolTableRecord
100
AcDbRegAppTableRecord
  2
ACAD
 70
           0
  0
ENDTAB
  0
TABLE
  2
DIMSTYLE
  5
9
100
AcDbSymbolTable
 70
          32
  0
DIMSTYLE
105
18
100
AcDbSymbolTableRecord
100
AcDbDimStyleTableRecord
  2
STANDARD
 70
           0
  3

  4

  5

  6

  7

 40
1.0
 41
0.18
 42
0.0625
 43
0.38
 44
0.18
 45
0.0
 46
0.0
 47
0.0
 48
0.0
 71
           0
 72
           0
 73
           1
 74
           1
 75
           0
 76
           0
 77
           0
 78
           0
140
0.18
141
0.09
142
0.0
143
25.4
144
1.0
145
0.0
146
1.0
147
0.09
170
           0
171
           2
172
           0
173
           0
174
           0
175
           0
176
           0
177
           0
178
           0
270
           2
271
           4
272
           4
273
           2
274
           2
275
           0
280
           0
281
           0
282
           0
283
           1
284
           0
285
           0
286
           0
287
           0
288
           0
340
17
  0
DIMSTYLE
105
D8
100
AcDbSymbolTableRecord
100
AcDbDimStyleTableRecord
  2
ME10_DIM_0
 70
           0
  3

  4

  5

  6

  7

 40
1.0
 41
66.666666666667
 42
0.0
 43
0.38
 44
66.666666666667
 45
0.0
 46
0.0
 47
0.0
 48
0.0
 71
           0
 72
           0
 73
           0
 74
           0
 75
           0
 76
           0
 77
           1
 78
           8
140
66.666666666667
141
0.09
142
0.0
143
25.4
144
1.0
145
0.0
146
1.0
147
0.625
170
           0
171
           2
172
           0
173
           1
174
           0
175
           0
176
           2
177
           2
178
           1
270
           2
271
           2
272
           4
273
           2
274
           2
275
           0
280
           0
281
           0
282
           0
283
           1
284
           0
285
           0
286
           0
287
           3
288
           0
340
17
  0
DIMSTYLE
105
E3
100
AcDbSymbolTableRecord
100
AcDbDimStyleTableRecord
  2
ME10_DIM_1
 70
           0
  3

  4

  5

  6

  7

 40
1.0
 41
66.666666666667
 42
0.0
 43
0.38
 44
66.666666666667
 45
0.0
 46
0.0
 47
0.0
 48
0.0
 71
           0
 72
           0
 73
           0
 74
           0
 75
           0
 76
           0
 77
           1
 78
           8
140
66.666666666667
141
0.09
142
0.0
143
25.4
144
1.0
145
0.0
146
1.0
147
0.625
170
           0
171
           2
172
           0
173
           1
174
           0
175
           0
176
           2
177
           2
178
           1
270
           2
271
           2
272
           4
273
           2
274
           2
275
           0
280
           0
281
           0
282
           0
283
           1
284
           0
285
           0
286
           0
287
           3
288
           0
340
17
  0
DIMSTYLE
105
EE
100
AcDbSymbolTableRecord
100
AcDbDimStyleTableRecord
  2
ME10_DIM_2
 70
           0
  3

  4

  5

  6

  7

 40
1.0
 41
66.666666666667
 42
0.0
 43
0.38
 44
66.666666666667
 45
0.0
 46
0.0
 47
0.0
 48
0.0
 71
           0
 72
           0
 73
           0
 74
           0
 75
           0
 76
           0
 77
           1
 78
           8
140
66.666666666667
141
0.09
142
0.0
143
25.4
144
1.0
145
0.0
146
1.0
147
0.625
170
           0
171
           2
172
           0
173
           1
174
           0
175
           0
176
           2
177
           2
178
           1
270
           2
271
           2
272
           4
273
           2
274
           2
275
           0
280
           0
281
           0
282
           0
283
           1
284
           0
285
           0
286
           0
287
           3
288
           0
340
17
  0
DIMSTYLE
105
F9
100
AcDbSymbolTableRecord
100
AcDbDimStyleTableRecord
  2
ME10_DIM_3
 70
           0
  3

  4

  5

  6

  7

 40
1.0
 41
66.666666666667
 42
0.0
 43
0.38
 44
66.666666666667
 45
0.0
 46
0.0
 47
0.0
 48
0.0
 71
           0
 72
           0
 73
           0
 74
           0
 75
           0
 76
           0
 77
           1
 78
           8
140
66.666666666667
141
0.09
142
0.0
143
25.4
144
1.0
145
0.0
146
1.0
147
0.625
170
           0
171
           2
172
           0
173
           1
174
           0
175
           0
176
           2
177
           2
178
           1
270
           2
271
           2
272
           4
273
           2
274
           2
275
           0
280
           0
281
           0
282
           0
283
           1
284
           0
285
           0
286
           0
287
           3
288
           0
340
17
  0
DIMSTYLE
105
104
100
AcDbSymbolTableRecord
100
AcDbDimStyleTableRecord
  2
ME10_DIM_4
 70
           0
  3

  4

  5

  6

  7

 40
1.0
 41
66.666666666667
 42
0.0
 43
0.38
 44
66.666666666667
 45
0.0
 46
0.0
 47
0.0
 48
0.0
 71
           0
 72
           0
 73
           0
 74
           0
 75
           0
 76
           0
 77
           1
 78
           8
140
66.666666666667
141
0.09
142
0.0
143
25.4
144
1.0
145
0.0
146
1.0
147
0.625
170
           0
171
           2
172
           0
173
           1
174
           0
175
           0
176
           2
177
           2
178
           1
270
           2
271
           2
272
           4
273
           2
274
           2
275
           0
280
           0
281
           0
282
           0
283
           1
284
           0
285
           0
286
           0
287
           3
288
           0
340
17
  0
DIMSTYLE
105
111
100
AcDbSymbolTableRecord
100
AcDbDimStyleTableRecord
  2
ME10_DIM_5
 70
           0
  3

  4

  5

  6

  7

 40
1.0
 41
66.666666666667
 42
0.0
 43
0.38
 44
66.666666666667
 45
0.0
 46
0.0
 47
0.0
 48
0.0
 71
           0
 72
           0
 73
           0
 74
           0
 75
           0
 76
           0
 77
           1
 78
           8
140
66.666666666667
141
0.09
142
0.0
143
25.4
144
1.0
145
0.0
146
1.0
147
0.625
170
           0
171
           2
172
           0
173
           1
174
           0
175
           0
176
           2
177
           2
178
           1
270
           2
271
           2
272
           4
273
           2
274
           2
275
           0
280
           0
281
           0
282
           0
283
           1
284
           0
285
           0
286
           0
287
           3
288
           0
340
17
  0
DIMSTYLE
105
164
100
AcDbSymbolTableRecord
100
AcDbDimStyleTableRecord
  2
ME10_DIM_6
 70
           0
  3

  4

  5

  6

  7

 40
1.0
 41
83.333333333333
 42
0.0
 43
0.38
 44
66.666666666667
 45
0.0
 46
0.0
 47
0.0
 48
0.0
 71
           0
 72
           0
 73
           0
 74
           0
 75
           0
 76
           0
 77
           1
 78
           8
140
83.333333333333
141
0.09
142
0.0
143
25.4
144
1.0
145
0.0
146
1.0
147
0.625
170
           0
171
           2
172
           0
173
           1
174
           0
175
           0
176
           2
177
           2
178
           1
270
           2
271
           2
272
           4
273
           2
274
           2
275
           0
280
           0
281
           0
282
           0
283
           1
284
           0
285
           0
286
           0
287
           3
288
           0
340
17
  0
DIMSTYLE
105
16F
100
AcDbSymbolTableRecord
100
AcDbDimStyleTableRecord
  2
ME10_DIM_7
 70
           0
  3

  4

  5

  6

  7

 40
1.0
 41
83.333333333333
 42
0.0
 43
0.38
 44
66.666666666667
 45
0.0
 46
0.0
 47
0.0
 48
0.0
 71
           0
 72
           0
 73
           0
 74
           0
 75
           0
 76
           0
 77
           1
 78
           8
140
83.333333333333
141
0.09
142
0.0
143
25.4
144
1.0
145
0.0
146
1.0
147
0.625
170
           0
171
           2
172
           0
173
           1
174
           0
175
           0
176
           2
177
           2
178
           1
270
           2
271
           2
272
           4
273
           2
274
           2
275
           0
280
           0
281
           0
282
           0
283
           1
284
           0
285
           0
286
           0
287
           3
288
           0
340
17
  0
DIMSTYLE
105
17C
100
AcDbSymbolTableRecord
100
AcDbDimStyleTableRecord
  2
ME10_DIM_8
 70
           0
  3

  4

  5

  6

  7

 40
1.0
 41
83.333333333333
 42
0.0
 43
0.38
 44
66.666666666667
 45
0.0
 46
0.0
 47
0.0
 48
0.0
 71
           0
 72
           0
 73
           0
 74
           0
 75
           0
 76
           0
 77
           1
 78
           8
140
83.333333333333
141
0.09
142
0.0
143
25.4
144
1.0
145
0.0
146
1.0
147
0.625
170
           0
171
           2
172
           0
173
           1
174
           0
175
           0
176
           2
177
           2
178
           1
270
           2
271
           2
272
           4
273
           2
274
           2
275
           0
280
           0
281
           0
282
           0
283
           1
284
           0
285
           0
286
           0
287
           3
288
           0
340
17
  0
DIMSTYLE
105
189
100
AcDbSymbolTableRecord
100
AcDbDimStyleTableRecord
  2
ME10_DIM_9
 70
           0
  3

  4

  5

  6

  7

 40
1.0
 41
83.333333333333
 42
0.0
 43
0.38
 44
66.666666666667
 45
0.0
 46
0.0
 47
0.0
 48
0.0
 71
           0
 72
           0
 73
           0
 74
           0
 75
           0
 76
           0
 77
           1
 78
           8
140
83.333333333333
141
0.09
142
0.0
143
25.4
144
1.0
145
0.0
146
1.0
147
0.625
170
           0
171
           2
172
           0
173
           1
174
           0
175
           0
176
           2
177
           2
178
           1
270
           2
271
           2
272
           4
273
           2
274
           2
275
           0
280
           0
281
           0
282
           0
283
           1
284
           0
285
           0
286
           0
287
           3
288
           0
340
17
  0
DIMSTYLE
105
2C8
100
AcDbSymbolTableRecord
100
AcDbDimStyleTableRecord
  2
ME10_DIM_10
 70
           0
  3

  4

  5

  6

  7

 40
1.0
 41
83.333333333333
 42
0.0
 43
0.38
 44
66.666666666667
 45
0.0
 46
0.0
 47
0.0
 48
0.0
 71
           0
 72
           0
 73
           0
 74
           0
 75
           0
 76
           0
 77
           1
 78
           8
140
83.333333333333
141
0.09
142
0.0
143
25.4
144
1.0
145
0.0
146
1.0
147
0.625
170
           0
171
           2
172
           0
173
           1
174
           0
175
           0
176
           2
177
           2
178
           1
270
           2
271
           2
272
           4
273
           2
274
           2
275
           0
280
           0
281
           0
282
           0
283
           1
284
           0
285
           0
286
           0
287
           3
288
           0
340
17
  0
DIMSTYLE
105
2D3
100
AcDbSymbolTableRecord
100
AcDbDimStyleTableRecord
  2
ME10_DIM_11
 70
           0
  3

  4

  5

  6

  7

 40
1.0
 41
66.666666666667
 42
0.0
 43
0.38
 44
66.666666666667
 45
0.0
 46
0.0
 47
0.0
 48
0.0
 71
           0
 72
           0
 73
           0
 74
           0
 75
           0
 76
           0
 77
           1
 78
           8
140
66.666666666667
141
0.09
142
0.0
143
25.4
144
1.0
145
0.0
146
1.0
147
0.625
170
           0
171
           2
172
           0
173
           1
174
           0
175
           0
176
           2
177
           2
178
           1
270
           2
271
           2
272
           4
273
           2
274
           2
275
           0
280
           0
281
           0
282
           0
283
           1
284
           0
285
           0
286
           0
287
           3
288
           0
340
17
  0
DIMSTYLE
105
2E0
100
AcDbSymbolTableRecord
100
AcDbDimStyleTableRecord
  2
ME10_DIM_12
 70
           0
  3

  4

  5

  6

  7

 40
1.0
 41
83.333333333333
 42
0.0
 43
0.38
 44
66.666666666667
 45
0.0
 46
0.0
 47
0.0
 48
0.0
 71
           0
 72
           0
 73
           0
 74
           0
 75
           0
 76
           0
 77
           1
 78
           8
140
83.333333333333
141
0.09
142
0.0
143
25.4
144
1.0
145
0.0
146
1.0
147
0.625
170
           0
171
           2
172
           0
173
           1
174
           0
175
           0
176
           2
177
           2
178
           1
270
           2
271
           2
272
           4
273
           2
274
           2
275
           0
280
           0
281
           0
282
           0
283
           1
284
           0
285
           0
286
           0
287
           3
288
           0
340
17
  0
DIMSTYLE
105
2F7
100
AcDbSymbolTableRecord
100
AcDbDimStyleTableRecord
  2
ME10_DIM_13
 70
           0
  3

  4

  5

  6

  7

 40
1.0
 41
83.333333333333
 42
0.0
 43
0.38
 44
66.666666666667
 45
0.0
 46
0.0
 47
0.0
 48
0.0
 71
           0
 72
           0
 73
           0
 74
           0
 75
           0
 76
           0
 77
           1
 78
           8
140
83.333333333333
141
0.09
142
0.0
143
25.4
144
1.0
145
0.0
146
1.0
147
0.625
170
           0
171
           2
172
           0
173
           1
174
           0
175
           0
176
           2
177
           2
178
           1
270
           2
271
           2
272
           4
273
           2
274
           2
275
           0
280
           0
281
           0
282
           0
283
           1
284
           0
285
           0
286
           0
287
           3
288
           0
340
17
  0
DIMSTYLE
105
4E7
100
AcDbSymbolTableRecord
100
AcDbDimStyleTableRecord
  2
ME10_DIM_14
 70
           0
  3

  4

  5

  6

  7

 40
1.0
 41
83.333333333333
 42
0.0
 43
0.38
 44
66.666666666667
 45
0.0
 46
0.0
 47
0.0
 48
0.0
 71
           0
 72
           0
 73
           0
 74
           0
 75
           0
 76
           0
 77
           1
 78
           8
140
83.333333333333
141
0.09
142
0.0
143
25.4
144
1.0
145
0.0
146
1.0
147
0.625
170
           0
171
           2
172
           0
173
           1
174
           0
175
           0
176
           2
177
           2
178
           1
270
           2
271
           2
272
           4
273
           2
274
           2
275
           0
280
           0
281
           0
282
           0
283
           1
284
           0
285
           0
286
           0
287
           3
288
           0
340
17
  0
DIMSTYLE
105
4F3
100
AcDbSymbolTableRecord
100
AcDbDimStyleTableRecord
  2
ME10_DIM_15
 70
           0
  3

  4

  5

  6

  7

 40
1.0
 41
83.333333333333
 42
0.0
 43
0.38
 44
66.666666666667
 45
0.0
 46
0.0
 47
0.0
 48
0.0
 71
           0
 72
           0
 73
           0
 74
           0
 75
           0
 76
           0
 77
           1
 78
           8
140
83.333333333333
141
0.09
142
0.0
143
25.4
144
1.0
145
0.0
146
1.0
147
0.625
170
           0
171
           2
172
           0
173
           1
174
           0
175
           0
176
           2
177
           2
178
           1
270
           2
271
           2
272
           4
273
           2
274
           2
275
           0
280
           0
281
           0
282
           0
283
           1
284
           0
285
           0
286
           0
287
           3
288
           0
340
17
  0
DIMSTYLE
105
4FE
100
AcDbSymbolTableRecord
100
AcDbDimStyleTableRecord
  2
ME10_DIM_16
 70
           0
  3

  4

  5

  6

  7

 40
1.0
 41
83.333333333333
 42
0.0
 43
0.38
 44
66.666666666667
 45
0.0
 46
0.0
 47
0.0
 48
0.0
 71
           0
 72
           0
 73
           0
 74
           0
 75
           0
 76
           0
 77
           1
 78
           8
140
83.333333333333
141
0.09
142
0.0
143
25.4
144
1.0
145
0.0
146
1.0
147
0.625
170
           0
171
           2
172
           0
173
           1
174
           0
175
           0
176
           2
177
           2
178
           1
270
           2
271
           2
272
           4
273
           2
274
           2
275
           0
280
           0
281
           0
282
           0
283
           1
284
           0
285
           0
286
           0
287
           3
288
           0
340
17
  0
DIMSTYLE
105
50B
100
AcDbSymbolTableRecord
100
AcDbDimStyleTableRecord
  2
ME10_DIM_17
 70
           0
  3

  4

  5

  6

  7

 40
1.0
 41
83.333333333333
 42
0.0
 43
0.38
 44
66.666666666667
 45
0.0
 46
0.0
 47
0.0
 48
0.0
 71
           0
 72
           0
 73
           0
 74
           0
 75
           0
 76
           0
 77
           1
 78
           8
140
83.333333333333
141
0.09
142
0.0
143
25.4
144
1.0
145
0.0
146
1.0
147
0.625
170
           0
171
           2
172
           0
173
           1
174
           0
175
           0
176
           2
177
           2
178
           1
270
           2
271
           2
272
           4
273
           2
274
           2
275
           0
280
           0
281
           0
282
           0
283
           1
284
           0
285
           0
286
           0
287
           3
288
           0
340
17
  0
DIMSTYLE
105
516
100
AcDbSymbolTableRecord
100
AcDbDimStyleTableRecord
  2
ME10_DIM_18
 70
           0
  3

  4

  5

  6

  7

 40
1.0
 41
83.333333333333
 42
0.0
 43
0.38
 44
66.666666666667
 45
0.0
 46
0.0
 47
0.0
 48
0.0
 71
           0
 72
           0
 73
           0
 74
           0
 75
           0
 76
           0
 77
           1
 78
           8
140
83.333333333333
141
0.09
142
0.0
143
25.4
144
1.0
145
0.0
146
1.0
147
0.625
170
           0
171
           2
172
           0
173
           1
174
           0
175
           0
176
           2
177
           2
178
           1
270
           2
271
           2
272
           4
273
           2
274
           2
275
           0
280
           0
281
           0
282
           0
283
           1
284
           0
285
           0
286
           0
287
           3
288
           0
340
17
  0
DIMSTYLE
105
521
100
AcDbSymbolTableRecord
100
AcDbDimStyleTableRecord
  2
ME10_DIM_19
 70
           0
  3

  4

  5

  6

  7

 40
1.0
 41
83.333333333333
 42
0.0
 43
0.38
 44
66.666666666667
 45
0.0
 46
0.0
 47
0.0
 48
0.0
 71
           0
 72
           0
 73
           0
 74
           0
 75
           0
 76
           0
 77
           1
 78
           8
140
83.333333333333
141
0.09
142
0.0
143
25.4
144
1.0
145
0.0
146
1.0
147
0.625
170
           0
171
           2
172
           0
173
           1
174
           0
175
           0
176
           2
177
           2
178
           1
270
           2
271
           2
272
           4
273
           2
274
           2
275
           0
280
           0
281
           0
282
           0
283
           1
284
           0
285
           0
286
           0
287
           3
288
           0
340
17
  0
DIMSTYLE
105
52E
100
AcDbSymbolTableRecord
100
AcDbDimStyleTableRecord
  2
ME10_DIM_20
 70
           0
  3

  4

  5

  6

  7

 40
1.0
 41
83.333333333333
 42
0.0
 43
0.38
 44
66.666666666667
 45
0.0
 46
0.0
 47
0.0
 48
0.0
 71
           0
 72
           0
 73
           0
 74
           0
 75
           0
 76
           0
 77
           1
 78
           8
140
83.333333333333
141
0.09
142
0.0
143
25.4
144
1.0
145
0.0
146
1.0
147
0.625
170
           0
171
           2
172
           0
173
           1
174
           0
175
           0
176
           2
177
           2
178
           1
270
           2
271
           2
272
           4
273
           2
274
           2
275
           0
280
           0
281
           0
282
           0
283
           1
284
           0
285
           0
286
           0
287
           3
288
           0
340
17
  0
DIMSTYLE
105
53B
100
AcDbSymbolTableRecord
100
AcDbDimStyleTableRecord
  2
ME10_DIM_21
 70
           0
  3

  4

  5

  6

  7

 40
1.0
 41
83.333333333333
 42
0.0
 43
0.38
 44
66.666666666667
 45
0.0
 46
0.0
 47
0.0
 48
0.0
 71
           0
 72
           0
 73
           0
 74
           0
 75
           0
 76
           0
 77
           1
 78
           8
140
83.333333333333
141
0.09
142
0.0
143
25.4
144
1.0
145
0.0
146
1.0
147
0.625
170
           0
171
           2
172
           0
173
           1
174
           0
175
           0
176
           2
177
           2
178
           1
270
           2
271
           2
272
           4
273
           2
274
           2
275
           0
280
           0
281
           0
282
           0
283
           1
284
           0
285
           0
286
           0
287
           3
288
           0
340
17
  0
DIMSTYLE
105
548
100
AcDbSymbolTableRecord
100
AcDbDimStyleTableRecord
  2
ME10_DIM_22
 70
           0
  3

  4

  5

  6

  7

 40
1.0
 41
83.333333333333
 42
0.0
 43
0.38
 44
66.666666666667
 45
0.0
 46
0.0
 47
0.0
 48
0.0
 71
           0
 72
           0
 73
           0
 74
           0
 75
           0
 76
           0
 77
           1
 78
           8
140
83.333333333333
141
0.09
142
0.0
143
25.4
144
1.0
145
0.0
146
1.0
147
0.625
170
           0
171
           2
172
           0
173
           1
174
           0
175
           0
176
           2
177
           2
178
           1
270
           2
271
           2
272
           4
273
           2
274
           2
275
           0
280
           0
281
           0
282
           0
283
           1
284
           0
285
           0
286
           0
287
           3
288
           0
340
17
  0
DIMSTYLE
105
555
100
AcDbSymbolTableRecord
100
AcDbDimStyleTableRecord
  2
ME10_DIM_23
 70
           0
  3

  4

  5

  6

  7

 40
1.0
 41
83.333333333333
 42
0.0
 43
0.38
 44
66.666666666667
 45
0.0
 46
0.0
 47
0.0
 48
0.0
 71
           0
 72
           0
 73
           0
 74
           0
 75
           0
 76
           0
 77
           1
 78
           8
140
83.333333333333
141
0.09
142
0.0
143
25.4
144
1.0
145
0.0
146
1.0
147
0.625
170
           0
171
           2
172
           0
173
           1
174
           0
175
           0
176
           2
177
           2
178
           1
270
           2
271
           2
272
           4
273
           2
274
           2
275
           0
280
           0
281
           0
282
           0
283
           1
284
           0
285
           0
286
           0
287
           3
288
           0
340
17
  0
DIMSTYLE
105
560
100
AcDbSymbolTableRecord
100
AcDbDimStyleTableRecord
  2
ME10_DIM_24
 70
           0
  3

  4

  5

  6

  7

 40
1.0
 41
83.333333333333
 42
0.0
 43
0.38
 44
66.666666666667
 45
0.0
 46
0.0
 47
0.0
 48
0.0
 71
           0
 72
           0
 73
           0
 74
           0
 75
           0
 76
           0
 77
           1
 78
           8
140
83.333333333333
141
0.09
142
0.0
143
25.4
144
1.0
145
0.0
146
1.0
147
0.625
170
           0
171
           2
172
           0
173
           1
174
           0
175
           0
176
           2
177
           2
178
           1
270
           2
271
           2
272
           4
273
           2
274
           2
275
           0
280
           0
281
           0
282
           0
283
           1
284
           0
285
           0
286
           0
287
           3
288
           0
340
17
  0
DIMSTYLE
105
56B
100
AcDbSymbolTableRecord
100
AcDbDimStyleTableRecord
  2
ME10_DIM_25
 70
           0
  3

  4

  5

  6

  7

 40
1.0
 41
83.333333333333
 42
0.0
 43
0.38
 44
66.666666666667
 45
0.0
 46
0.0
 47
0.0
 48
0.0
 71
           0
 72
           0
 73
           0
 74
           0
 75
           0
 76
           0
 77
           1
 78
           8
140
83.333333333333
141
0.09
142
0.0
143
25.4
144
1.0
145
0.0
146
1.0
147
0.625
170
           0
171
           2
172
           0
173
           1
174
           0
175
           0
176
           2
177
           2
178
           1
270
           2
271
           2
272
           4
273
           2
274
           2
275
           0
280
           0
281
           0
282
           0
283
           1
284
           0
285
           0
286
           0
287
           3
288
           0
340
17
  0
DIMSTYLE
105
576
100
AcDbSymbolTableRecord
100
AcDbDimStyleTableRecord
  2
ME10_DIM_26
 70
           0
  3

  4

  5

  6

  7

 40
1.0
 41
83.333333333333
 42
0.0
 43
0.38
 44
66.666666666667
 45
0.0
 46
0.0
 47
0.0
 48
0.0
 71
           0
 72
           0
 73
           0
 74
           0
 75
           0
 76
           0
 77
           1
 78
           8
140
83.333333333333
141
0.09
142
0.0
143
25.4
144
1.0
145
0.0
146
1.0
147
0.625
170
           0
171
           2
172
           0
173
           1
174
           0
175
           0
176
           2
177
           2
178
           1
270
           2
271
           2
272
           4
273
           2
274
           2
275
           0
280
           0
281
           0
282
           0
283
           1
284
           0
285
           0
286
           0
287
           3
288
           0
340
17
  0
DIMSTYLE
105
583
100
AcDbSymbolTableRecord
100
AcDbDimStyleTableRecord
  2
ME10_DIM_27
 70
           0
  3

  4

  5

  6

  7

 40
1.0
 41
83.333333333333
 42
0.0
 43
0.38
 44
66.666666666667
 45
0.0
 46
0.0
 47
0.0
 48
0.0
 71
           0
 72
           0
 73
           0
 74
           0
 75
           0
 76
           0
 77
           1
 78
           8
140
83.333333333333
141
0.09
142
0.0
143
25.4
144
1.0
145
0.0
146
1.0
147
0.625
170
           0
171
           2
172
           0
173
           1
174
           0
175
           0
176
           2
177
           2
178
           1
270
           2
271
           2
272
           4
273
           2
274
           2
275
           0
280
           0
281
           0
282
           0
283
           1
284
           0
285
           0
286
           0
287
           3
288
           0
340
17
  0
DIMSTYLE
105
58E
100
AcDbSymbolTableRecord
100
AcDbDimStyleTableRecord
  2
ME10_DIM_28
 70
           0
  3

  4

  5

  6

  7

 40
1.0
 41
83.333333333333
 42
0.0
 43
0.38
 44
66.666666666667
 45
0.0
 46
0.0
 47
0.0
 48
0.0
 71
           0
 72
           0
 73
           0
 74
           0
 75
           0
 76
           0
 77
           1
 78
           8
140
83.333333333333
141
0.09
142
0.0
143
25.4
144
1.0
145
0.0
146
1.0
147
0.625
170
           0
171
           2
172
           0
173
           1
174
           0
175
           0
176
           2
177
           2
178
           1
270
           2
271
           2
272
           4
273
           2
274
           2
275
           0
280
           0
281
           0
282
           0
283
           1
284
           0
285
           0
286
           0
287
           3
288
           0
340
17
  0
DIMSTYLE
105
599
100
AcDbSymbolTableRecord
100
AcDbDimStyleTableRecord
  2
ME10_DIM_29
 70
           0
  3

  4

  5

  6

  7

 40
1.0
 41
83.333333333333
 42
0.0
 43
0.38
 44
66.666666666667
 45
0.0
 46
0.0
 47
0.0
 48
0.0
 71
           0
 72
           0
 73
           0
 74
           0
 75
           0
 76
           0
 77
           1
 78
           8
140
83.333333333333
141
0.09
142
0.0
143
25.4
144
1.0
145
0.0
146
1.0
147
0.625
170
           0
171
           2
172
           0
173
           1
174
           0
175
           0
176
           2
177
           2
178
           1
270
           2
271
           2
272
           4
273
           2
274
           2
275
           0
280
           0
281
           0
282
           0
283
           1
284
           0
285
           0
286
           0
287
           3
288
           0
340
17
  0
DIMSTYLE
105
5A6
100
AcDbSymbolTableRecord
100
AcDbDimStyleTableRecord
  2
ME10_DIM_30
 70
           0
  3

  4

  5

  6

  7

 40
1.0
 41
83.333333333333
 42
0.0
 43
0.38
 44
66.666666666667
 45
0.0
 46
0.0
 47
0.0
 48
0.0
 71
           0
 72
           0
 73
           0
 74
           0
 75
           0
 76
           0
 77
           1
 78
           8
140
83.333333333333
141
0.09
142
0.0
143
25.4
144
1.0
145
0.0
146
1.0
147
0.625
170
           0
171
           2
172
           0
173
           1
174
           0
175
           0
176
           2
177
           2
178
           1
270
           2
271
           2
272
           4
273
           2
274
           2
275
           0
280
           0
281
           0
282
           0
283
           1
284
           0
285
           0
286
           0
287
           3
288
           0
340
17
  0
ENDTAB
  0
TABLE
  2
BLOCK_RECORD
  5
1
100
AcDbSymbolTable
 70
          62
  0
BLOCK_RECORD
  5
A
100
AcDbSymbolTableRecord
100
AcDbBlockTableRecord
  2
*MODEL_SPACE
  0
BLOCK_RECORD
  5
B
100
AcDbSymbolTableRecord
100
AcDbBlockTableRecord
  2
*PAPER_SPACE
  0
BLOCK_RECORD
  5
25
100
AcDbSymbolTableRecord
100
AcDbBlockTableRecord
  2
ST_TZFUSS
  0
BLOCK_RECORD
  5
27
100
AcDbSymbolTableRecord
100
AcDbBlockTableRecord
  2
_2
  0
BLOCK_RECORD
  5
2A
100
AcDbSymbolTableRecord
100
AcDbBlockTableRecord
  2
_SCHALTKASTEN_VA__1
  0
BLOCK_RECORD
  5
2C
100
AcDbSymbolTableRecord
100
AcDbBlockTableRecord
  2
8300091
  0
BLOCK_RECORD
  5
2F
100
AcDbSymbolTableRecord
100
AcDbBlockTableRecord
  2
_SCHALTKASTEN_VA__2
  0
BLOCK_RECORD
  5
32
100
AcDbSymbolTableRecord
100
AcDbBlockTableRecord
  2
MAUER_SA
  0
BLOCK_RECORD
  5
34
100
AcDbSymbolTableRecord
100
AcDbBlockTableRecord
  2
STURZABDICHTUNG_SA
  0
BLOCK_RECORD
  5
37
100
AcDbSymbolTableRecord
100
AcDbBlockTableRecord
  2
VERBINDUNGSPROFIL_DS
  0
BLOCK_RECORD
  5
39
100
AcDbSymbolTableRecord
100
AcDbBlockTableRecord
  2
GETRIEBE_DS
  0
BLOCK_RECORD
  5
3B
100
AcDbSymbolTableRecord
100
AcDbBlockTableRecord
  2
E_MOTOR_DS
  0
BLOCK_RECORD
  5
3E
100
AcDbSymbolTableRecord
100
AcDbBlockTableRecord
  2
_MOTOR_DS
  0
BLOCK_RECORD
  5
41
100
AcDbSymbolTableRecord
100
AcDbBlockTableRecord
  2
_ANTRIEB_DS
  0
BLOCK_RECORD
  5
44
100
AcDbSymbolTableRecord
100
AcDbBlockTableRecord
  2
SEITENPROFIL_DS
  0
BLOCK_RECORD
  5
46
100
AcDbSymbolTableRecord
100
AcDbBlockTableRecord
  2
_SEITENTEILE_DS
  0
BLOCK_RECORD
  5
49
100
AcDbSymbolTableRecord
100
AcDbBlockTableRecord
  2
MAUER
  0
BLOCK_RECORD
  5
4B
100
AcDbSymbolTableRecord
100
AcDbBlockTableRecord
  2
DRAUFSICHT_PRINZIPZG
  0
BLOCK_RECORD
  5
51
100
AcDbSymbolTableRecord
100
AcDbBlockTableRecord
  2
_TABELLE
  0
BLOCK_RECORD
  5
53
100
AcDbSymbolTableRecord
100
AcDbBlockTableRecord
  2
_RAHMEN
  0
BLOCK_RECORD
  5
55
100
AcDbSymbolTableRecord
100
AcDbBlockTableRecord
  2
_ZEICHNUNGSNUMMER
  0
BLOCK_RECORD
  5
57
100
AcDbSymbolTableRecord
100
AcDbBlockTableRecord
  2
__BERSCHRIFT
  0
BLOCK_RECORD
  5
59
100
AcDbSymbolTableRecord
100
AcDbBlockTableRecord
  2
VORLAGE__3
  0
BLOCK_RECORD
  5
5F
100
AcDbSymbolTableRecord
100
AcDbBlockTableRecord
  2
_LOGO
  0
BLOCK_RECORD
  5
61
100
AcDbSymbolTableRecord
100
AcDbBlockTableRecord
  2
VORLAGE__4
  0
BLOCK_RECORD
  5
64
100
AcDbSymbolTableRecord
100
AcDbBlockTableRecord
  2
8300R0001
  0
BLOCK_RECORD
  5
67
100
AcDbSymbolTableRecord
100
AcDbBlockTableRecord
  2
ENDSCHALTER
  0
BLOCK_RECORD
  5
69
100
AcDbSymbolTableRecord
100
AcDbBlockTableRecord
  2
_1
  0
BLOCK_RECORD
  5
6C
100
AcDbSymbolTableRecord
100
AcDbBlockTableRecord
  2
GETRIEBEMOTOR_SA
  0
BLOCK_RECORD
  5
6E
100
AcDbSymbolTableRecord
100
AcDbBlockTableRecord
  2
SEITENTEILPROFIL_UNTEN_VA
  0
BLOCK_RECORD
  5
70
100
AcDbSymbolTableRecord
100
AcDbBlockTableRecord
  2
_SEITENTEIL_UNTEN_VA
  0
BLOCK_RECORD
  5
73
100
AcDbSymbolTableRecord
100
AcDbBlockTableRecord
  2
GETRIEBEMOTOR_VA
  0
BLOCK_RECORD
  5
75
100
AcDbSymbolTableRecord
100
AcDbBlockTableRecord
  2
ANTRIEB_SA
  0
BLOCK_RECORD
  5
CE
100
AcDbSymbolTableRecord
100
AcDbBlockTableRecord
  2
*D31
  0
BLOCK_RECORD
  5
DA
100
AcDbSymbolTableRecord
100
AcDbBlockTableRecord
  2
*D32
  0
BLOCK_RECORD
  5
E5
100
AcDbSymbolTableRecord
100
AcDbBlockTableRecord
  2
*D33
  0
BLOCK_RECORD
  5
F0
100
AcDbSymbolTableRecord
100
AcDbBlockTableRecord
  2
*D34
  0
BLOCK_RECORD
  5
FB
100
AcDbSymbolTableRecord
100
AcDbBlockTableRecord
  2
*D35
  0
BLOCK_RECORD
  5
106
100
AcDbSymbolTableRecord
100
AcDbBlockTableRecord
  2
*D36
  0
BLOCK_RECORD
  5
15B
100
AcDbSymbolTableRecord
100
AcDbBlockTableRecord
  2
*D37
  0
BLOCK_RECORD
  5
166
100
AcDbSymbolTableRecord
100
AcDbBlockTableRecord
  2
*D38
  0
BLOCK_RECORD
  5
171
100
AcDbSymbolTableRecord
100
AcDbBlockTableRecord
  2
*D39
  0
BLOCK_RECORD
  5
17E
100
AcDbSymbolTableRecord
100
AcDbBlockTableRecord
  2
*D40
  0
BLOCK_RECORD
  5
2BD
100
AcDbSymbolTableRecord
100
AcDbBlockTableRecord
  2
*D41
  0
BLOCK_RECORD
  5
2CA
100
AcDbSymbolTableRecord
100
AcDbBlockTableRecord
  2
*D42
  0
BLOCK_RECORD
  5
2D5
100
AcDbSymbolTableRecord
100
AcDbBlockTableRecord
  2
*D43
  0
BLOCK_RECORD
  5
2EE
100
AcDbSymbolTableRecord
100
AcDbBlockTableRecord
  2
*D44
  0
BLOCK_RECORD
  5
4DC
100
AcDbSymbolTableRecord
100
AcDbBlockTableRecord
  2
*D45
  0
BLOCK_RECORD
  5
4E9
100
AcDbSymbolTableRecord
100
AcDbBlockTableRecord
  2
*D46
  0
BLOCK_RECORD
  5
4F5
100
AcDbSymbolTableRecord
100
AcDbBlockTableRecord
  2
*D47
  0
BLOCK_RECORD
  5
500
100
AcDbSymbolTableRecord
100
AcDbBlockTableRecord
  2
*D48
  0
BLOCK_RECORD
  5
50D
100
AcDbSymbolTableRecord
100
AcDbBlockTableRecord
  2
*D49
  0
BLOCK_RECORD
  5
518
100
AcDbSymbolTableRecord
100
AcDbBlockTableRecord
  2
*D50
  0
BLOCK_RECORD
  5
523
100
AcDbSymbolTableRecord
100
AcDbBlockTableRecord
  2
*D51
  0
BLOCK_RECORD
  5
530
100
AcDbSymbolTableRecord
100
AcDbBlockTableRecord
  2
*D52
  0
BLOCK_RECORD
  5
53D
100
AcDbSymbolTableRecord
100
AcDbBlockTableRecord
  2
*D53
  0
BLOCK_RECORD
  5
54A
100
AcDbSymbolTableRecord
100
AcDbBlockTableRecord
  2
*D54
  0
BLOCK_RECORD
  5
557
100
AcDbSymbolTableRecord
100
AcDbBlockTableRecord
  2
*D55
  0
BLOCK_RECORD
  5
562
100
AcDbSymbolTableRecord
100
AcDbBlockTableRecord
  2
*D56
  0
BLOCK_RECORD
  5
56D
100
AcDbSymbolTableRecord
100
AcDbBlockTableRecord
  2
*D57
  0
BLOCK_RECORD
  5
578
100
AcDbSymbolTableRecord
100
AcDbBlockTableRecord
  2
*D58
  0
BLOCK_RECORD
  5
585
100
AcDbSymbolTableRecord
100
AcDbBlockTableRecord
  2
*D59
  0
BLOCK_RECORD
  5
590
100
AcDbSymbolTableRecord
100
AcDbBlockTableRecord
  2
*D60
  0
BLOCK_RECORD
  5
59B
100
AcDbSymbolTableRecord
100
AcDbBlockTableRecord
  2
*D61
  0
ENDTAB
  0
ENDSEC
  0
SECTION
  2
BLOCKS
  0
BLOCK
  5
D
100
AcDbEntity
  8
0
100
AcDbBlockBegin
  2
*MODEL_SPACE
 70
           0
 10
0.0
 20
0.0
 30
0.0
  3
*MODEL_SPACE
  1

  0
ENDBLK
  5
E
100
AcDbEntity
  8
0
100
AcDbBlockEnd
  0
BLOCK
  5
F
100
AcDbEntity
 67
           1
  8
0
100
AcDbBlockBegin
  2
*PAPER_SPACE
 70
           0
 10
0.0
 20
0.0
 30
0.0
  3
*PAPER_SPACE
  1

  0
ENDBLK
  5
10
100
AcDbEntity
 67
           1
  8
0
100
AcDbBlockEnd
  0
BLOCK
  5
26
100
AcDbEntity
  8
0
100
AcDbBlockBegin
  2
ST_TZFUSS
 70
           0
 10
30121.05774750375
 20
515.698611025298
 30
0.0
  3
ST_TZFUSS
  1

  0
DIMENSION
  5
112
100
AcDbEntity
  8
0
100
AcDbDimension
  2
*D36
 10
38537.557747503743
 20
328.37289065105
 11
38616.65355135961
 21
428.37289065105
 31
0.0
  1
<>
  3
ME10_DIM_5
100
AcDbAlignedDimension
 13
38707.557747503743
 23
515.698611025298
 14
38537.557747503743
 24
565.698611025298
100
AcDbRotatedDimension
  0
DIMENSION
  5
105
100
AcDbEntity
  8
0
100
AcDbDimension
  2
*D35
 10
39960.128345403697
 20
3649.389537789818
 11
39860.128345403697
 21
3365.046493928381
 31
0.0
 53
90.0
  1
<>
  3
ME10_DIM_4
100
AcDbAlignedDimension
 13
39807.557747503743
 23
3001.389537789818
 14
39637.557747503743
 24
3649.389537789818
 50
90.0
100
AcDbRotatedDimension
  0
DIMENSION
  5
FA
100
AcDbEntity
  8
0
100
AcDbDimension
  2
*D34
 10
38107.937446865108
 20
540.698611025298
 11
38007.937446865108
 21
645.926289462639
 31
0.0
 53
90.0
  1
<>
  3
ME10_DIM_3
100
AcDbAlignedDimension
 13
38228.1374029863
 23
740.698611025298
 14
38227.167402478997
 24
540.698611025298
 50
90.0
100
AcDbRotatedDimension
  0
DIMENSION
  5
EF
100
AcDbEntity
  8
0
100
AcDbDimension
  2
*D33
 10
39327.557747503743
 20
2609.16022182444
 11
39556.4841598688
 21
2709.16022182444
 31
0.0
  1
<>
  3
ME10_DIM_2
100
AcDbAlignedDimension
 13
39787.557747503743
 23
2960.37650124474
 14
39327.557747503743
 24
2974.966122446271
100
AcDbRotatedDimension
  0
DIMENSION
  5
E4
100
AcDbEntity
  8
0
100
AcDbDimension
  2
*D32
 10
38921.546505020298
 20
765.698611025298
 11
38821.546505020298
 21
639.53442017986
 31
0.0
 70
           1
  1
<>
  3
ME10_DIM_1
100
AcDbAlignedDimension
 13
38707.557747503743
 23
515.698611025298
 14
38707.557747503743
 24
765.698611025298
  0
DIMENSION
  5
D9
100
AcDbEntity
  8
0
100
AcDbDimension
  2
*D31
 10
38207.55774750375
 20
84.296913158849
 11
38417.988540311599
 21
184.296913158849
 31
0.0
 70
           1
  1
<>
  3
ME10_DIM_0
100
AcDbAlignedDimension
 13
38707.557747503743
 23
515.698611025298
 14
38207.55774750375
 24
515.698611025298
  0
ARC
  5
CD
100
AcDbEntity
  8
1
  6
CONTINUOUS
 62
           7
100
AcDbCircle
 10
38548.557747503743
 20
576.698611025298
 40
3.0
100
AcDbArc
 50
180.0
 51
-90.0
  0
ARC
  5
CC
100
AcDbEntity
  8
1
  6
CONTINUOUS
 62
           7
100
AcDbCircle
 10
38548.557747503743
 20
754.698611025298
 40
3.0
100
AcDbArc
 50
90.0
 51
180.0
  0
ARC
  5
CB
100
AcDbEntity
  8
1
  6
CONTINUOUS
 62
           7
100
AcDbCircle
 10
38687.557747503743
 20
744.198611025298
 40
6.5
100
AcDbArc
 50
0.0
 51
180.0
  0
ARC
  5
CA
100
AcDbEntity
  8
1
  6
CONTINUOUS
 62
           7
100
AcDbCircle
 10
38687.557747503743
 20
737.198611025298
 40
6.5
100
AcDbArc
 50
180.0
 51
0.0
  0
ARC
  5
C9
100
AcDbEntity
  8
1
  6
CONTINUOUS
 62
           7
100
AcDbCircle
 10
38687.557747503743
 20
544.198611025298
 40
6.5
100
AcDbArc
 50
0.0
 51
180.0
  0
ARC
  5
C8
100
AcDbEntity
  8
1
  6
CONTINUOUS
 62
           7
100
AcDbCircle
 10
38687.557747503743
 20
537.198611025298
 40
6.5
100
AcDbArc
 50
180.0
 51
0.0
  0
ARC
  5
C7
100
AcDbEntity
  8
1
  6
CONTINUOUS
 62
           7
100
AcDbCircle
 10
38227.55774750375
 20
537.198611025298
 40
6.5
100
AcDbArc
 50
180.0
 51
0.0
  0
ARC
  5
C6
100
AcDbEntity
  8
1
  6
CONTINUOUS
 62
           7
100
AcDbCircle
 10
38227.55774750375
 20
544.198611025298
 40
6.5
100
AcDbArc
 50
0.0
 51
180.0
  0
ARC
  5
C5
100
AcDbEntity
  8
1
  6
CONTINUOUS
 62
           7
100
AcDbCircle
 10
38227.55774750375
 20
737.198611025298
 40
6.5
100
AcDbArc
 50
180.0
 51
0.0
  0
ARC
  5
C4
100
AcDbEntity
  8
1
  6
CONTINUOUS
 62
           7
100
AcDbCircle
 10
38227.55774750375
 20
744.198611025298
 40
6.5
100
AcDbArc
 50
0.0
 51
180.0
  0
LINE
  5
C3
100
AcDbEntity
  8
1
  6
DOT_CENTER
 62
           3
100
AcDbLine
 10
38227.167402478997
 20
540.698611025298
 11
38228.167402478997
 21
540.698611025298
  0
LINE
  5
C2
100
AcDbEntity
  8
1
  6
DOT_CENTER
 62
           3
100
AcDbLine
 10
38227.1374029863
 20
740.698611025298
 11
38228.1374029863
 21
740.698611025298
  0
LINE
  5
C1
100
AcDbEntity
  8
1
  6
DOT_CENTER
 62
           3
100
AcDbLine
 10
39619.010558178401
 20
3129.389537789818
 11
39663.010558178401
 21
3129.389537789818
  0
LINE
  5
C0
100
AcDbEntity
  8
1
  6
DOT_CENTER
 62
           3
100
AcDbLine
 10
39620.593055593112
 20
3629.389537789818
 11
39650.593055593112
 21
3629.389537789818
  0
LINE
  5
BF
100
AcDbEntity
  8
1
  6
CONTINUOUS
 62
           7
100
AcDbLine
 10
39757.557747503743
 20
3019.389537789818
 11
39347.55774750375
 21
3019.389537789818
  0
LINE
  5
BE
100
AcDbEntity
  8
1
  6
CONTINUOUS
 62
           7
100
AcDbLine
 10
39757.557747503743
 20
3069.389537789818
 11
39757.557747503743
 21
3019.389537789818
  0
LINE
  5
BD
100
AcDbEntity
  8
1
  6
CONTINUOUS
 62
           7
100
AcDbLine
 10
39677.557747503743
 20
3649.389537789818
 11
39637.557747503743
 21
3649.389537789818
  0
LINE
  5
BC
100
AcDbEntity
  8
1
  6
CONTINUOUS
 62
           7
100
AcDbLine
 10
39677.557747503743
 20
3599.389537789818
 11
39677.557747503743
 21
3649.389537789818
  0
LINE
  5
BB
100
AcDbEntity
  8
1
  6
CONTINUOUS
 62
           7
100
AcDbLine
 10
39677.557747503743
 20
3599.389537789818
 11
39757.557747503743
 21
3069.389537789818
  0
LINE
  5
BA
100
AcDbEntity
  8
1
  6
CONTINUOUS
 62
           7
100
AcDbLine
 10
39407.557747503743
 20
3001.389537789818
 11
39307.557747503743
 21
3001.389537789818
  0
LINE
  5
B9
100
AcDbEntity
  8
1
  6
DOT_CENTER
 62
           3
100
AcDbLine
 10
39327.557747503743
 20
3021.966122446271
 11
39327.557747503743
 21
2974.966122446271
  0
LINE
  5
B8
100
AcDbEntity
  8
1
  6
DOT_CENTER
 62
           3
100
AcDbLine
 10
39787.557747503743
 20
3021.37650124474
 11
39787.557747503743
 21
2960.37650124474
  0
LINE
  5
B7
100
AcDbEntity
  8
1
  6
CONTINUOUS
 62
           7
100
AcDbLine
 10
39767.557747503743
 20
3011.389537789818
 11
39707.557747503743
 21
3011.389537789818
  0
LINE
  5
B6
100
AcDbEntity
  8
1
  6
CONTINUOUS
 62
           7
100
AcDbLine
 10
39347.55774750375
 20
3011.389537789818
 11
39407.557747503743
 21
3011.389537789818
  0
LINE
  5
B5
100
AcDbEntity
  8
1
  6
CONTINUOUS
 62
           7
100
AcDbLine
 10
39767.557747503743
 20
3011.389537789818
 11
39767.557747503743
 21
3019.389537789818
  0
LINE
  5
B4
100
AcDbEntity
  8
1
  6
CONTINUOUS
 62
           7
100
AcDbLine
 10
39347.55774750375
 20
3011.389537789818
 11
39767.557747503743
 21
3011.389537789818
  0
LINE
  5
B3
100
AcDbEntity
  8
1
  6
CONTINUOUS
 62
           7
100
AcDbLine
 10
39347.55774750375
 20
3019.389537789818
 11
39347.55774750375
 21
3011.389537789818
  0
LINE
  5
B2
100
AcDbEntity
  8
1
  6
CONTINUOUS
 62
           7
100
AcDbLine
 10
39767.557747503743
 20
3019.389537789818
 11
39757.557747503743
 21
3019.389537789818
  0
LINE
  5
B1
100
AcDbEntity
  8
1
  6
CONTINUOUS
 62
           7
100
AcDbLine
 10
39807.557747503743
 20
3001.389537789818
 11
39807.557747503743
 21
3011.389537789818
  0
LINE
  5
B0
100
AcDbEntity
  8
1
  6
CONTINUOUS
 62
           7
100
AcDbLine
 10
39707.557747503743
 20
3001.389537789818
 11
39807.557747503743
 21
3001.389537789818
  0
LINE
  5
AF
100
AcDbEntity
  8
1
  6
CONTINUOUS
 62
           7
100
AcDbLine
 10
39707.557747503743
 20
3011.389537789818
 11
39707.557747503743
 21
3001.389537789818
  0
LINE
  5
AE
100
AcDbEntity
  8
1
  6
CONTINUOUS
 62
           7
100
AcDbLine
 10
39807.557747503743
 20
3011.389537789818
 11
39767.557747503743
 21
3011.389537789818
  0
LINE
  5
AD
100
AcDbEntity
  8
1
  6
CONTINUOUS
 62
           7
100
AcDbLine
 10
39307.557747503743
 20
3001.389537789818
 11
39307.557747503743
 21
3011.389537789818
  0
LINE
  5
AC
100
AcDbEntity
  8
1
  6
CONTINUOUS
 62
           7
100
AcDbLine
 10
39407.557747503743
 20
3011.389537789818
 11
39407.557747503743
 21
3001.389537789818
  0
LINE
  5
AB
100
AcDbEntity
  8
1
  6
CONTINUOUS
 62
           7
100
AcDbLine
 10
39307.557747503743
 20
3011.389537789818
 11
39347.55774750375
 21
3011.389537789818
  0
LINE
  5
AA
100
AcDbEntity
  8
1
  6
CONTINUOUS
 62
           7
100
AcDbLine
 10
38444.557747503743
 20
765.698611025298
 11
38537.557747503743
 21
765.698611025298
  0
LINE
  5
A9
100
AcDbEntity
  8
1
  6
CONTINUOUS
 62
           7
100
AcDbLine
 10
38681.057747503743
 20
737.198611025298
 11
38681.057747503743
 21
744.198611025298
  0
LINE
  5
A8
100
AcDbEntity
  8
1
  6
CONTINUOUS
 62
           7
100
AcDbLine
 10
38694.057747503743
 20
737.198611025298
 11
38694.057747503743
 21
744.198611025298
  0
LINE
  5
A7
100
AcDbEntity
  8
1
  6
DOT_CENTER
 62
           3
100
AcDbLine
 10
38687.557747503743
 20
729.746636994705
 11
38687.557747503743
 21
751.746636994705
  0
LINE
  5
A6
100
AcDbEntity
  8
1
  6
DOT_CENTER
 62
           3
100
AcDbLine
 10
38680.188703269188
 20
737.198611025298
 11
38695.188703269188
 21
737.198611025298
  0
LINE
  5
A5
100
AcDbEntity
  8
1
  6
DOT_CENTER
 62
           3
100
AcDbLine
 10
38679.347803738587
 20
744.198611025298
 11
38695.347803738587
 21
744.198611025298
  0
LINE
  5
A4
100
AcDbEntity
  8
1
  6
DOT_CENTER
 62
           3
100
AcDbLine
 10
38695.347803738587
 20
537.198611025298
 11
38679.347803738587
 21
537.198611025298
  0
LINE
  5
A3
100
AcDbEntity
  8
1
  6
DOT_CENTER
 62
           3
100
AcDbLine
 10
38695.188703269188
 20
544.198611025298
 11
38680.188703269188
 21
544.198611025298
  0
LINE
  5
A2
100
AcDbEntity
  8
1
  6
DOT_CENTER
 62
           3
100
AcDbLine
 10
38687.557747503743
 20
529.650585055891
 11
38687.557747503743
 21
551.650585055891
  0
LINE
  5
A1
100
AcDbEntity
  8
1
  6
CONTINUOUS
 62
           7
100
AcDbLine
 10
38694.057747503743
 20
537.198611025298
 11
38694.057747503743
 21
544.198611025298
  0
LINE
  5
A0
100
AcDbEntity
  8
1
  6
CONTINUOUS
 62
           7
100
AcDbLine
 10
38681.057747503743
 20
537.198611025298
 11
38681.057747503743
 21
544.198611025298
  0
LINE
  5
9F
100
AcDbEntity
  8
1
  6
CONTINUOUS
 62
           7
100
AcDbLine
 10
38234.05774750375
 20
544.198611025298
 11
38234.05774750375
 21
537.198611025298
  0
LINE
  5
9E
100
AcDbEntity
  8
1
  6
CONTINUOUS
 62
           7
100
AcDbLine
 10
38221.05774750375
 20
544.198611025298
 11
38221.05774750375
 21
537.198611025298
  0
LINE
  5
9D
100
AcDbEntity
  8
1
  6
DOT_CENTER
 62
           3
100
AcDbLine
 10
38227.55774750375
 20
551.650585055891
 11
38227.55774750375
 21
529.650585055891
  0
LINE
  5
9C
100
AcDbEntity
  8
1
  6
DOT_CENTER
 62
           3
100
AcDbLine
 10
38234.926791738297
 20
544.198611025298
 11
38219.926791738297
 21
544.198611025298
  0
LINE
  5
9B
100
AcDbEntity
  8
1
  6
DOT_CENTER
 62
           3
100
AcDbLine
 10
38235.767691268898
 20
537.198611025298
 11
38219.767691268898
 21
537.198611025298
  0
LINE
  5
9A
100
AcDbEntity
  8
1
  6
DOT_CENTER
 62
           3
100
AcDbLine
 10
38219.767691268898
 20
744.198611025298
 11
38235.767691268898
 21
744.198611025298
  0
LINE
  5
99
100
AcDbEntity
  8
1
  6
DOT_CENTER
 62
           3
100
AcDbLine
 10
38219.926791738297
 20
737.198611025298
 11
38234.926791738297
 21
737.198611025298
  0
LINE
  5
98
100
AcDbEntity
  8
1
  6
DOT_CENTER
 62
           3
100
AcDbLine
 10
38227.55774750375
 20
751.746636994705
 11
38227.55774750375
 21
729.746636994705
  0
LINE
  5
97
100
AcDbEntity
  8
1
  6
CONTINUOUS
 62
           7
100
AcDbLine
 10
38221.05774750375
 20
744.198611025298
 11
38221.05774750375
 21
737.198611025298
  0
LINE
  5
96
100
AcDbEntity
  8
1
  6
CONTINUOUS
 62
           7
100
AcDbLine
 10
38234.05774750375
 20
744.198611025298
 11
38234.05774750375
 21
737.198611025298
  0
LINE
  5
95
100
AcDbEntity
  8
1
  6
CONTINUOUS
 62
           7
100
AcDbLine
 10
38545.557747503743
 20
754.698611025298
 11
38545.557747503743
 21
576.698611025298
  0
LINE
  5
94
100
AcDbEntity
  8
1
  6
CONTINUOUS
 62
           7
100
AcDbLine
 10
38537.557747503743
 20
765.698611025298
 11
38657.557747503743
 21
765.698611025298
  0
LINE
  5
93
100
AcDbEntity
  8
1
  6
CONTINUOUS
 62
           7
100
AcDbLine
 10
38537.557747503743
 20
565.698611025298
 11
38537.557747503743
 21
765.698611025298
  0
LINE
  5
92
100
AcDbEntity
  8
1
  6
CONTINUOUS
 62
           7
100
AcDbLine
 10
38657.557747503743
 20
565.698611025298
 11
38537.557747503743
 21
565.698611025298
  0
LINE
  5
91
100
AcDbEntity
  8
1
  6
CONTINUOUS
 62
           7
100
AcDbLine
 10
38657.557747503743
 20
573.698611025298
 11
38657.557747503743
 21
565.698611025298
  0
LINE
  5
90
100
AcDbEntity
  8
1
  6
CONTINUOUS
 62
           7
100
AcDbLine
 10
38657.557747503743
 20
765.698611025298
 11
38707.557747503743
 21
765.698611025298
  0
LINE
  5
8F
100
AcDbEntity
  8
1
  6
CONTINUOUS
 62
           7
100
AcDbLine
 10
38657.557747503743
 20
757.698611025298
 11
38657.557747503743
 21
765.698611025298
  0
LINE
  5
8E
100
AcDbEntity
  8
1
  6
CONTINUOUS
 62
           7
100
AcDbLine
 10
38548.557747503743
 20
573.698611025298
 11
38657.557747503743
 21
573.698611025298
  0
LINE
  5
8D
100
AcDbEntity
  8
1
  6
CONTINUOUS
 62
           7
100
AcDbLine
 10
38657.557747503743
 20
757.698611025298
 11
38548.557747503743
 21
757.698611025298
  0
LINE
  5
8C
100
AcDbEntity
  8
1
  6
CONTINUOUS
 62
           7
100
AcDbLine
 10
38657.557747503743
 20
515.698611025298
 11
38257.55774750375
 21
515.698611025298
  0
LINE
  5
8B
100
AcDbEntity
  8
1
  6
CONTINUOUS
 62
           7
100
AcDbLine
 10
38657.557747503743
 20
523.698611025298
 11
38657.557747503743
 21
515.698611025298
  0
LINE
  5
8A
100
AcDbEntity
  8
1
  6
CONTINUOUS
 62
           7
100
AcDbLine
 10
38257.55774750375
 20
515.698611025298
 11
38207.55774750375
 21
515.698611025298
  0
LINE
  5
89
100
AcDbEntity
  8
1
  6
CONTINUOUS
 62
           7
100
AcDbLine
 10
38257.55774750375
 20
523.698611025298
 11
38257.55774750375
 21
515.698611025298
  0
LINE
  5
88
100
AcDbEntity
  8
1
  6
CONTINUOUS
 62
           7
100
AcDbLine
 10
38657.557747503743
 20
523.698611025298
 11
38257.55774750375
 21
523.698611025298
  0
LINE
  5
87
100
AcDbEntity
  8
1
  6
CONTINUOUS
 62
           7
100
AcDbLine
 10
38207.55774750375
 20
515.698611025298
 11
38207.55774750375
 21
765.698611025298
  0
LINE
  5
86
100
AcDbEntity
  8
1
  6
CONTINUOUS
 62
           7
100
AcDbLine
 10
38707.557747503743
 20
515.698611025298
 11
38657.557747503743
 21
515.698611025298
  0
LINE
  5
85
100
AcDbEntity
  8
1
  6
CONTINUOUS
 62
           7
100
AcDbLine
 10
38707.557747503743
 20
765.698611025298
 11
38707.557747503743
 21
515.698611025298
  0
LINE
  5
84
100
AcDbEntity
  8
1
  6
CONTINUOUS
 62
           7
100
AcDbLine
 10
38207.55774750375
 20
765.698611025298
 11
38426.557747503743
 21
765.698611025298
  0
ENDBLK
  5
113
100
AcDbEntity
  8
0
100
AcDbBlockEnd
  0
BLOCK
  5
28
100
AcDbEntity
  8
0
100
AcDbBlockBegin
  2
_2
 70
           0
 10
30121.05774750375
 20
515.698611025298
 30
0.0
  3
_2
  1

  0
INSERT
  5
29
100
AcDbEntity
  8
0
100
AcDbBlockReference
  2
ST_TZFUSS
 10
30121.05774750375
 20
515.698611025298
  0
ENDBLK
  5
114
100
AcDbEntity
  8
0
100
AcDbBlockEnd
  0
BLOCK
  5
2B
100
AcDbEntity
  8
0
100
AcDbBlockBegin
  2
_SCHALTKASTEN_VA__1
 70
           0
 10
11289.801413323479
 20
16373.16343768791
 30
0.0
  3
_SCHALTKASTEN_VA__1
  1

  0
DIMENSION
  5
18A
100
AcDbEntity
  8
0
100
AcDbDimension
  2
*D40
 10
42939.177226311389
 20
4687.919358377197
 11
42827.979468743877
 21
4796.25269171053
 31
0.0
 70
           1
  1
<>
  3
ME10_DIM_9
100
AcDbAlignedDimension
 13
42719.177226311389
 23
4896.389537789818
 14
42939.177226311404
 24
4896.389537789818
  0
DIMENSION
  5
17D
100
AcDbEntity
  8
0
100
AcDbDimension
  2
*D39
 10
42779.177226311404
 20
4157.343171597977
 11
42887.916293809612
 21
4265.67650493131
 31
0.0
 70
           1
  1
<>
  3
ME10_DIM_8
100
AcDbAlignedDimension
 13
42704.177226311404
 23
4590.389537789815
 14
42779.177226311404
 24
4590.389537789815
  0
DIMENSION
  5
170
100
AcDbEntity
  8
0
100
AcDbDimension
  2
*D38
 10
43101.68713584981
 20
3001.389537789817
 11
42993.353802516482
 21
3746.2311204146
 31
0.0
 53
90.0
  1
<>
  3
ME10_DIM_7
100
AcDbAlignedDimension
 13
42779.177226311404
 23
4411.389537789815
 14
42952.71846306786
 24
3001.389537789817
 50
90.0
100
AcDbRotatedDimension
  0
DIMENSION
  5
165
100
AcDbEntity
  8
0
100
AcDbDimension
  2
*D37
 10
43125.567294833905
 20
4886.389537789818
 11
43017.233961500577
 21
5078.20117591773
 31
0.0
 70
           1
  1
<>
  3
ME10_DIM_6
100
AcDbAlignedDimension
 13
42939.177226311404
 23
5261.389537789818
 14
42939.177226311404
 24
4886.389537789818
  0
LINE
  5
15A
100
AcDbEntity
  8
1
  6
CONTINUOUS
 62
           7
100
AcDbLine
 10
38502.557747503721
 20
5111.546518079318
 11
38502.557747503721
 21
4896.389537789822
  0
LINE
  5
159
100
AcDbEntity
  8
1
  6
CONTINUOUS
 62
           7
100
AcDbLine
 10
38502.557747503721
 20
5251.389537789819
 11
38502.557747503721
 21
5111.546518079318
  0
LINE
  5
158
100
AcDbEntity
  8
1
  6
CONTINUOUS
 62
           7
100
AcDbLine
 10
42719.177226311389
 20
1526.400146529541
 11
42939.177226311389
 21
1526.400146529541
  0
LINE
  5
157
100
AcDbEntity
  8
1
  6
CONTINUOUS
 62
           7
100
AcDbLine
 10
42719.177226311389
 20
1626.400146529541
 11
42719.177226311389
 21
1526.400146529541
  0
LINE
  5
156
100
AcDbEntity
  8
1
  6
CONTINUOUS
 62
           7
100
AcDbLine
 10
42939.177226311389
 20
1626.400146529541
 11
42719.177226311389
 21
1626.400146529541
  0
LINE
  5
155
100
AcDbEntity
  8
1
  6
CONTINUOUS
 62
           7
100
AcDbLine
 10
42939.177226311389
 20
1526.400146529541
 11
42939.177226311389
 21
1626.400146529541
  0
LINE
  5
154
100
AcDbEntity
  8
1
  6
CONTINUOUS
 62
           7
100
AcDbLine
 10
38342.557747503743
 20
4340.389537789813
 11
38352.112103387422
 21
4340.389537789813
  0
LINE
  5
153
100
AcDbEntity
  8
1
  6
CONTINUOUS
 62
           7
100
AcDbLine
 10
38377.557747503743
 20
4340.389537789813
 11
38377.557747503743
 21
4161.389537789813
  0
LINE
  5
152
100
AcDbEntity
  8
1
  6
CONTINUOUS
 62
           7
100
AcDbLine
 10
38377.557747503743
 20
4161.389537789813
 11
38352.112103387422
 21
4161.389537789813
  0
LINE
  5
151
100
AcDbEntity
  8
1
  6
CONTINUOUS
 62
           7
100
AcDbLine
 10
38342.557747503743
 20
4161.389537789813
 11
38342.557747503743
 21
4316.708612776818
  0
LINE
  5
150
100
AcDbEntity
  8
1
  6
CONTINUOUS
 62
           7
100
AcDbLine
 10
42939.177226311404
 20
5261.389537789818
 11
42719.177226311389
 21
5261.389537789818
  0
LINE
  5
14F
100
AcDbEntity
  8
1
  6
CONTINUOUS
 62
           7
100
AcDbLine
 10
42719.177226311389
 20
5261.389537789818
 11
42719.177226311389
 21
5251.389537789818
  0
LINE
  5
14E
100
AcDbEntity
  8
1
  6
CONTINUOUS
 62
           7
100
AcDbLine
 10
42719.177226311389
 20
4886.389537789818
 11
42939.177226311404
 21
4886.389537789818
  0
LINE
  5
14D
100
AcDbEntity
  8
1
  6
CONTINUOUS
 62
           7
100
AcDbLine
 10
42939.177226311404
 20
4886.389537789818
 11
42939.177226311404
 21
4896.389537789818
  0
LINE
  5
14C
100
AcDbEntity
  8
1
  6
CONTINUOUS
 62
           7
100
AcDbLine
 10
42719.177226311389
 20
4886.389537789818
 11
42939.177226311404
 21
4886.389537789818
  0
LINE
  5
14B
100
AcDbEntity
  8
1
  6
CONTINUOUS
 62
           7
100
AcDbLine
 10
42719.177226311389
 20
4896.389537789818
 11
42739.177226311404
 21
4896.389537789818
  0
LINE
  5
14A
100
AcDbEntity
  8
1
  6
CONTINUOUS
 62
           7
100
AcDbLine
 10
42719.177226311389
 20
4896.389537789818
 11
42719.177226311389
 21
4886.389537789818
  0
LINE
  5
149
100
AcDbEntity
  8
1
  6
CONTINUOUS
 62
           7
100
AcDbLine
 10
42939.177226311404
 20
4896.389537789818
 11
42939.177226311404
 21
5251.389537789818
  0
LINE
  5
148
100
AcDbEntity
  8
1
  6
CONTINUOUS
 62
           7
100
AcDbLine
 10
42719.177226311389
 20
5251.389537789818
 11
42739.177226311404
 21
5251.389537789818
  0
LINE
  5
147
100
AcDbEntity
  8
1
  6
CONTINUOUS
 62
           7
100
AcDbLine
 10
42719.177226311389
 20
5251.389537789818
 11
42719.177226311389
 21
4896.389537789818
  0
LINE
  5
146
100
AcDbEntity
  8
1
  6
CONTINUOUS
 62
           7
100
AcDbLine
 10
42939.177226311404
 20
5251.389537789818
 11
42939.177226311404
 21
5261.389537789818
  0
LINE
  5
145
100
AcDbEntity
  8
1
  6
CONTINUOUS
 62
           7
100
AcDbLine
 10
42739.177226311404
 20
5251.389537789818
 11
42739.177226311404
 21
4896.389537789818
  0
LINE
  5
144
100
AcDbEntity
  8
1
  6
CONTINUOUS
 62
           7
100
AcDbLine
 10
42739.177226311404
 20
4896.389537789818
 11
42919.177226311389
 21
4896.389537789818
  0
LINE
  5
143
100
AcDbEntity
  8
1
  6
CONTINUOUS
 62
           7
100
AcDbLine
 10
42739.177226311404
 20
5251.389537789818
 11
42919.177226311389
 21
5251.389537789818
  0
LINE
  5
142
100
AcDbEntity
  8
1
  6
CONTINUOUS
 62
           7
100
AcDbLine
 10
42919.177226311389
 20
5251.389537789818
 11
42919.177226311389
 21
4896.389537789818
  0
LINE
  5
141
100
AcDbEntity
  8
1
  6
CONTINUOUS
 62
           7
100
AcDbLine
 10
42919.177226311389
 20
4896.389537789818
 11
42939.177226311404
 21
4896.389537789818
  0
LINE
  5
140
100
AcDbEntity
  8
1
  6
CONTINUOUS
 62
           7
100
AcDbLine
 10
42919.177226311389
 20
5251.389537789818
 11
42939.177226311404
 21
5251.389537789818
  0
LINE
  5
13F
100
AcDbEntity
  8
1
  6
CONTINUOUS
 62
           7
100
AcDbLine
 10
38342.557747503743
 20
4316.708612776818
 11
38342.557747503743
 21
4340.389537789813
  0
LINE
  5
13E
100
AcDbEntity
  8
1
  6
CONTINUOUS
 62
           7
100
AcDbLine
 10
38352.112103387422
 20
4340.389537789813
 11
38352.112103387422
 21
4161.389537789813
  0
LINE
  5
13D
100
AcDbEntity
  8
1
  6
CONTINUOUS
 62
           7
100
AcDbLine
 10
38352.112103387422
 20
4340.389537789813
 11
38377.557747503743
 21
4340.389537789813
  0
LINE
  5
13C
100
AcDbEntity
  8
1
  6
CONTINUOUS
 62
           7
100
AcDbLine
 10
38352.112103387422
 20
4161.389537789813
 11
38342.557747503743
 21
4161.389537789813
  0
LINE
  5
13B
100
AcDbEntity
  8
1
  6
CONTINUOUS
 62
           7
100
AcDbLine
 10
42704.177226311404
 20
4412.98959896254
 11
42704.177226311404
 21
4411.389537789815
  0
LINE
  5
13A
100
AcDbEntity
  8
1
  6
CONTINUOUS
 62
           7
100
AcDbLine
 10
42704.177226311404
 20
4590.389537789815
 11
42704.177226311404
 21
4412.98959896254
  0
LINE
  5
139
100
AcDbEntity
  8
1
  6
CONTINUOUS
 62
           7
100
AcDbLine
 10
42734.177226311411
 20
4446.389537789815
 11
42734.177226311411
 21
4463.389537789815
  0
LINE
  5
138
100
AcDbEntity
  8
1
  6
CONTINUOUS
 62
           7
100
AcDbLine
 10
42749.177226311404
 20
4446.389537789815
 11
42734.177226311411
 21
4446.389537789815
  0
LINE
  5
137
100
AcDbEntity
  8
1
  6
CONTINUOUS
 62
           7
100
AcDbLine
 10
42749.177226311404
 20
4463.389537789815
 11
42749.177226311404
 21
4446.389537789815
  0
LINE
  5
136
100
AcDbEntity
  8
1
  6
CONTINUOUS
 62
           7
100
AcDbLine
 10
42734.177226311411
 20
4463.389537789815
 11
42749.177226311404
 21
4463.389537789815
  0
LINE
  5
135
100
AcDbEntity
  8
1
  6
CONTINUOUS
 62
           7
100
AcDbLine
 10
42734.177226311411
 20
4479.389537789815
 11
42734.177226311411
 21
4494.389537789815
  0
LINE
  5
134
100
AcDbEntity
  8
1
  6
CONTINUOUS
 62
           7
100
AcDbLine
 10
42749.177226311404
 20
4479.389537789815
 11
42734.177226311411
 21
4479.389537789815
  0
LINE
  5
133
100
AcDbEntity
  8
1
  6
CONTINUOUS
 62
           7
100
AcDbLine
 10
42749.177226311404
 20
4494.389537789815
 11
42749.177226311404
 21
4479.389537789815
  0
LINE
  5
132
100
AcDbEntity
  8
1
  6
CONTINUOUS
 62
           7
100
AcDbLine
 10
42734.177226311411
 20
4494.389537789815
 11
42749.177226311404
 21
4494.389537789815
  0
LINE
  5
131
100
AcDbEntity
  8
1
  6
CONTINUOUS
 62
           7
100
AcDbLine
 10
42734.177226311411
 20
4510.389537789815
 11
42734.177226311411
 21
4525.389537789819
  0
LINE
  5
130
100
AcDbEntity
  8
1
  6
CONTINUOUS
 62
           7
100
AcDbLine
 10
42749.177226311404
 20
4510.389537789815
 11
42734.177226311411
 21
4510.389537789815
  0
LINE
  5
12F
100
AcDbEntity
  8
1
  6
CONTINUOUS
 62
           7
100
AcDbLine
 10
42749.177226311404
 20
4525.389537789819
 11
42749.177226311404
 21
4510.389537789815
  0
LINE
  5
12E
100
AcDbEntity
  8
1
  6
CONTINUOUS
 62
           7
100
AcDbLine
 10
42734.177226311411
 20
4525.389537789819
 11
42749.177226311404
 21
4525.389537789819
  0
LINE
  5
12D
100
AcDbEntity
  8
1
  6
CONTINUOUS
 62
           7
100
AcDbLine
 10
42769.177226311404
 20
4540.389537789815
 11
42769.177226311404
 21
4580.389537789815
  0
LINE
  5
12C
100
AcDbEntity
  8
1
  6
CONTINUOUS
 62
           7
100
AcDbLine
 10
42714.177226311404
 20
4540.389537789815
 11
42769.177226311404
 21
4540.389537789815
  0
LINE
  5
12B
100
AcDbEntity
  8
1
  6
CONTINUOUS
 62
           7
100
AcDbLine
 10
42714.177226311404
 20
4580.389537789815
 11
42714.177226311404
 21
4540.389537789815
  0
LINE
  5
12A
100
AcDbEntity
  8
1
  6
CONTINUOUS
 62
           7
100
AcDbLine
 10
42769.177226311404
 20
4580.389537789815
 11
42714.177226311404
 21
4580.389537789815
  0
LINE
  5
129
100
AcDbEntity
  8
1
  6
CONTINUOUS
 62
           7
100
AcDbLine
 10
42779.177226311404
 20
4411.389537789815
 11
42779.177226311404
 21
4590.389537789815
  0
LINE
  5
128
100
AcDbEntity
  8
1
  6
CONTINUOUS
 62
           7
100
AcDbLine
 10
42704.177226311404
 20
4411.389537789815
 11
42779.177226311404
 21
4411.389537789815
  0
LINE
  5
127
100
AcDbEntity
  8
1
  6
CONTINUOUS
 62
           7
100
AcDbLine
 10
42704.177226311404
 20
4590.389537789815
 11
42704.177226311404
 21
4412.98959896254
  0
LINE
  5
126
100
AcDbEntity
  8
1
  6
CONTINUOUS
 62
           7
100
AcDbLine
 10
42779.177226311404
 20
4590.389537789815
 11
42704.177226311404
 21
4590.389537789815
  0
LINE
  5
125
100
AcDbEntity
  8
1
  6
CONTINUOUS
 62
           7
100
AcDbLine
 10
38502.557747503721
 20
5251.389537789819
 11
38522.557747503743
 21
5251.389537789819
  0
LINE
  5
124
100
AcDbEntity
  8
1
  6
CONTINUOUS
 62
           7
100
AcDbLine
 10
38502.557747503721
 20
4896.389537789822
 11
38522.557747503743
 21
4896.389537789822
  0
LINE
  5
123
100
AcDbEntity
  8
1
  6
CONTINUOUS
 62
           7
100
AcDbLine
 10
38442.557747503743
 20
5251.389537789819
 11
38502.557747503721
 21
5251.389537789819
  0
LINE
  5
122
100
AcDbEntity
  8
1
  6
CONTINUOUS
 62
           7
100
AcDbLine
 10
38442.557747503743
 20
4896.389537789822
 11
38502.557747503721
 21
4896.389537789822
  0
LINE
  5
121
100
AcDbEntity
  8
1
  6
CONTINUOUS
 62
           7
100
AcDbLine
 10
38442.557747503743
 20
5251.389537789819
 11
38442.557747503743
 21
4896.389537789822
  0
LINE
  5
120
100
AcDbEntity
  8
1
  6
CONTINUOUS
 62
           7
100
AcDbLine
 10
38522.557747503743
 20
5251.389537789819
 11
38522.557747503743
 21
5261.389537789819
  0
LINE
  5
11F
100
AcDbEntity
  8
1
  6
CONTINUOUS
 62
           7
100
AcDbLine
 10
38422.557747503743
 20
5251.389537789819
 11
38422.557747503743
 21
4896.389537789822
  0
LINE
  5
11E
100
AcDbEntity
  8
1
  6
CONTINUOUS
 62
           7
100
AcDbLine
 10
38422.557747503743
 20
5251.389537789819
 11
38442.557747503743
 21
5251.389537789819
  0
LINE
  5
11D
100
AcDbEntity
  8
1
  6
CONTINUOUS
 62
           7
100
AcDbLine
 10
38522.557747503743
 20
4896.389537789822
 11
38522.557747503743
 21
5251.389537789819
  0
LINE
  5
11C
100
AcDbEntity
  8
1
  6
CONTINUOUS
 62
           7
100
AcDbLine
 10
38422.557747503743
 20
4896.389537789822
 11
38422.557747503743
 21
4886.389537789819
  0
LINE
  5
11B
100
AcDbEntity
  8
1
  6
CONTINUOUS
 62
           7
100
AcDbLine
 10
38422.557747503743
 20
4896.389537789822
 11
38442.557747503743
 21
4896.389537789822
  0
LINE
  5
11A
100
AcDbEntity
  8
1
  6
CONTINUOUS
 62
           7
100
AcDbLine
 10
38422.557747503743
 20
4886.389537789819
 11
38522.557747503743
 21
4886.389537789819
  0
LINE
  5
119
100
AcDbEntity
  8
1
  6
CONTINUOUS
 62
           7
100
AcDbLine
 10
38522.557747503743
 20
4886.389537789819
 11
38522.557747503743
 21
4896.389537789822
  0
LINE
  5
118
100
AcDbEntity
  8
1
  6
CONTINUOUS
 62
           7
100
AcDbLine
 10
38422.557747503743
 20
4886.389537789819
 11
38522.557747503743
 21
4886.389537789819
  0
LINE
  5
117
100
AcDbEntity
  8
1
  6
CONTINUOUS
 62
           7
100
AcDbLine
 10
38422.557747503743
 20
5261.389537789819
 11
38422.557747503743
 21
5251.389537789819
  0
LINE
  5
116
100
AcDbEntity
  8
1
  6
CONTINUOUS
 62
           7
100
AcDbLine
 10
38522.557747503743
 20
5261.389537789819
 11
38422.557747503743
 21
5261.389537789819
  0
LINE
  5
115
100
AcDbEntity
  8
1
  6
CONTINUOUS
 62
           7
100
AcDbLine
 10
42952.71846306786
 20
3001.389537789817
 11
42926.744210636112
 21
3001.389537789817
  0
ENDBLK
  5
18B
100
AcDbEntity
  8
0
100
AcDbBlockEnd
  0
BLOCK
  5
2D
100
AcDbEntity
  8
0
100
AcDbBlockBegin
  2
8300091
 70
           0
 10
40361.029991788382
 20
20946.93715083797
 30
0.0
  3
8300091
  1

  0
INSERT
  5
2E
100
AcDbEntity
  8
0
100
AcDbBlockReference
  2
_SCHALTKASTEN_VA__1
 10
11289.801413323479
 20
16373.16343768791
  0
ENDBLK
  5
18C
100
AcDbEntity
  8
0
100
AcDbBlockEnd
  0
BLOCK
  5
30
100
AcDbEntity
  8
0
100
AcDbBlockBegin
  2
_SCHALTKASTEN_VA__2
 70
           0
 10
10428.540802781101
 20
5781.122806826084
 30
0.0
  3
_SCHALTKASTEN_VA__2
  1

  0
INSERT
  5
31
100
AcDbEntity
  8
0
100
AcDbBlockReference
  2
8300091
 10
40361.029991788382
 20
20946.93715083797
  0
ENDBLK
  5
18D
100
AcDbEntity
  8
0
100
AcDbBlockEnd
  0
BLOCK
  5
33
100
AcDbEntity
  8
0
100
AcDbBlockBegin
  2
MAUER_SA
 70
           0
 10
-857.287084134616
 20
1199.999999999999
 30
0.0
  3
MAUER_SA
  1

  0
HATCH
  5
1A3
100
AcDbEntity
  8
0
  6
CONTINUOUS
 62
           6
100
AcDbHatch
 10
0.0
 20
0.0
 30
0.0
210
0.0
220
0.0
230
1.0
  2
USER
 70
           0
 71
           1
 91
        1
 92
        1
 93
        4
 72
           1
 10
38802.928025605899
 20
3001.389537789817
 11
38802.928025605899
 21
2852.389537789817
 72
           1
 10
38802.928025605899
 20
2852.389537789817
 11
38083.453011757701
 21
2852.389537789817
 72
           1
 10
38083.453011757701
 20
3001.389537789817
 11
38083.453011757701
 21
2852.389537789817
 72
           1
 10
38802.928025605899
 20
3001.389537789817
 11
38083.453011757701
 21
3001.389537789817
 97
        4
330
18F
330
18E
330
190
330
191
 75
           1
 76
           0
 52
45.0
 41
50.0
 77
           0
 78
           1
 53
45.0
 43
0.0
 44
0.0
 45
-35.355339059327378
 46
35.355339059327378
 79
           0
 98
        1
 10
0.0
 20
0.0
  0
HATCH
  5
1A2
100
AcDbEntity
  8
0
  6
CONTINUOUS
 62
           6
100
AcDbHatch
 10
0.0
 20
0.0
 30
0.0
210
0.0
220
0.0
230
1.0
  2
USER
 70
           0
 71
           1
 91
        1
 92
        1
 93
        4
 72
           1
 10
38537.557747503743
 20
6381.3895377898189
 11
38537.557747503743
 21
5501.3895377898189
 72
           1
 10
38537.557747503743
 20
5501.3895377898189
 11
38687.557747503743
 21
5501.3895377898189
 72
           1
 10
38687.557747503743
 20
5501.3895377898189
 11
38687.557747503743
 21
6381.3895377898189
 72
           1
 10
38687.557747503743
 20
6381.3895377898189
 11
38537.557747503743
 21
6381.3895377898189
 97
        4
330
196
330
197
330
194
330
195
 75
           1
 76
           0
 52
45.0
 41
50.0
 77
           0
 78
           1
 53
45.0
 43
0.0
 44
0.0
 45
-35.355339059327378
 46
35.355339059327378
 79
           0
 98
        1
 10
0.0
 20
0.0
  0
HATCH
  5
1A1
100
AcDbEntity
  8
0
  6
CONTINUOUS
 62
           6
100
AcDbHatch
 10
0.0
 20
0.0
 30
0.0
210
0.0
220
0.0
230
1.0
  2
USER
 70
           0
 71
           1
 91
        1
 92
        1
 93
        4
 72
           1
 10
42952.71846306786
 20
3001.389537789817
 11
42952.71846306786
 21
2852.389537789817
 72
           1
 10
42952.71846306786
 20
2852.389537789817
 11
40204.177226311404
 21
2852.389537789817
 72
           1
 10
40204.177226311404
 20
3001.389537789818
 11
40204.177226311404
 21
2852.389537789817
 72
           1
 10
42952.71846306786
 20
3001.389537789817
 11
40204.177226311404
 21
3001.389537789818
 97
        4
330
199
330
198
330
19A
330
19B
 75
           1
 76
           0
 52
45.0
 41
50.0
 77
           0
 78
           1
 53
45.0
 43
0.0
 44
0.0
 45
-35.355339059327378
 46
35.355339059327378
 79
           0
 98
        1
 10
0.0
 20
0.0
  0
HATCH
  5
1A0
100
AcDbEntity
  8
0
  6
CONTINUOUS
 62
           6
100
AcDbHatch
 10
0.0
 20
0.0
 30
0.0
210
0.0
220
0.0
230
1.0
  2
USER
 70
           0
 71
           1
 91
        1
 92
        1
 93
        4
 72
           1
 10
39902.928025605899
 20
3001.389537789817
 11
39902.928025605899
 21
2852.389537789817
 72
           1
 10
39902.928025605899
 20
2852.389537789817
 11
39183.453011757701
 21
2852.389537789817
 72
           1
 10
39183.453011757701
 20
3001.389537789817
 11
39183.453011757701
 21
2852.389537789817
 72
           1
 10
39902.928025605899
 20
3001.389537789817
 11
39183.453011757701
 21
3001.389537789817
 97
        4
330
19E
330
19F
330
19D
330
19C
 75
           1
 76
           0
 52
45.0
 41
50.0
 77
           0
 78
           1
 53
45.0
 43
0.0
 44
0.0
 45
-35.355339059327378
 46
35.355339059327378
 79
           0
 98
        1
 10
0.0
 20
0.0
  0
LINE
  5
19F
100
AcDbEntity
  8
1
  6
CONTINUOUS
 62
         250
100
AcDbLine
 10
39902.928025605899
 20
2852.389537789817
 11
39183.453011757701
 21
2852.389537789817
  0
LINE
  5
19E
100
AcDbEntity
  8
1
  6
CONTINUOUS
 62
         250
100
AcDbLine
 10
39902.928025605899
 20
3001.389537789817
 11
39902.928025605899
 21
2852.389537789817
  0
LINE
  5
19D
100
AcDbEntity
  8
1
  6
CONTINUOUS
 62
         250
100
AcDbLine
 10
39183.453011757701
 20
3001.389537789817
 11
39183.453011757701
 21
2852.389537789817
  0
LINE
  5
19C
100
AcDbEntity
  8
1
  6
CONTINUOUS
 62
           7
100
AcDbLine
 10
39902.928025605899
 20
3001.389537789817
 11
39183.453011757701
 21
3001.389537789817
  0
LINE
  5
19B
100
AcDbEntity
  8
1
  6
CONTINUOUS
 62
           7
100
AcDbLine
 10
42952.71846306786
 20
3001.389537789817
 11
40204.177226311404
 21
3001.389537789818
  0
LINE
  5
19A
100
AcDbEntity
  8
1
  6
CONTINUOUS
 62
         250
100
AcDbLine
 10
40204.177226311404
 20
3001.389537789818
 11
40204.177226311404
 21
2852.389537789817
  0
LINE
  5
199
100
AcDbEntity
  8
1
  6
CONTINUOUS
 62
         250
100
AcDbLine
 10
42952.71846306786
 20
3001.389537789817
 11
42952.71846306786
 21
2852.389537789817
  0
LINE
  5
198
100
AcDbEntity
  8
1
  6
CONTINUOUS
 62
         250
100
AcDbLine
 10
42952.71846306786
 20
2852.389537789817
 11
40204.177226311404
 21
2852.389537789817
  0
LINE
  5
197
100
AcDbEntity
  8
1
  6
CONTINUOUS
 62
           7
100
AcDbLine
 10
38537.557747503743
 20
5501.389537789819
 11
38687.557747503743
 21
5501.389537789819
  0
LINE
  5
196
100
AcDbEntity
  8
1
  6
CONTINUOUS
 62
           7
100
AcDbLine
 10
38537.557747503743
 20
6381.389537789819
 11
38537.557747503743
 21
5501.389537789819
  0
LINE
  5
195
100
AcDbEntity
  8
1
  6
CONTINUOUS
 62
         250
100
AcDbLine
 10
38687.557747503743
 20
6381.389537789819
 11
38537.557747503743
 21
6381.389537789819
  0
LINE
  5
194
100
AcDbEntity
  8
1
  6
CONTINUOUS
 62
           7
100
AcDbLine
 10
38687.557747503743
 20
5501.389537789819
 11
38687.557747503743
 21
6381.389537789819
  0
LINE
  5
193
100
AcDbEntity
  8
1
  6
DASHED
 62
           3
100
AcDbLine
 10
38687.557747503743
 20
5501.389537789819
 11
38687.557747503743
 21
3001.389537789817
  0
LINE
  5
192
100
AcDbEntity
  8
1
  6
CONTINUOUS
 62
           7
100
AcDbLine
 10
38537.557747503743
 20
5501.389537789819
 11
38537.557747503743
 21
3001.389537789818
  0
LINE
  5
191
100
AcDbEntity
  8
1
  6
CONTINUOUS
 62
           7
100
AcDbLine
 10
38802.928025605899
 20
3001.389537789817
 11
38083.453011757701
 21
3001.389537789817
  0
LINE
  5
190
100
AcDbEntity
  8
1
  6
CONTINUOUS
 62
         250
100
AcDbLine
 10
38083.453011757701
 20
3001.389537789817
 11
38083.453011757701
 21
2852.389537789817
  0
LINE
  5
18F
100
AcDbEntity
  8
1
  6
CONTINUOUS
 62
         250
100
AcDbLine
 10
38802.928025605899
 20
3001.389537789817
 11
38802.928025605899
 21
2852.389537789817
  0
LINE
  5
18E
100
AcDbEntity
  8
1
  6
CONTINUOUS
 62
         250
100
AcDbLine
 10
38802.928025605899
 20
2852.389537789817
 11
38083.453011757701
 21
2852.389537789817
  0
ENDBLK
  5
1A4
100
AcDbEntity
  8
0
100
AcDbBlockEnd
  0
BLOCK
  5
35
100
AcDbEntity
  8
0
100
AcDbBlockBegin
  2
STURZABDICHTUNG_SA
 70
           0
 10
-1398.952073997285
 20
1207.000000000002
 30
0.0
  3
STURZABDICHTUNG_SA
  1

  0
INSERT
  5
36
100
AcDbEntity
  8
0
100
AcDbBlockReference
  2
MAUER_SA
 10
-857.287084134616
 20
1199.999999999999
  0
ENDBLK
  5
1A5
100
AcDbEntity
  8
0
100
AcDbBlockEnd
  0
BLOCK
  5
38
100
AcDbEntity
  8
0
100
AcDbBlockBegin
  2
VERBINDUNGSPROFIL_DS
 70
           0
 10
10097.729251104291
 20
5463.978888788721
 30
0.0
  3
VERBINDUNGSPROFIL_DS
  1

  0
LINE
  5
1AA
100
AcDbEntity
  8
1
  6
CONTINUOUS
 62
           7
100
AcDbLine
 10
42504.177226311404
 20
1642.269357450718
 11
42504.177226311404
 21
1582.269357450718
  0
LINE
  5
1A9
100
AcDbEntity
  8
1
  6
CONTINUOUS
 62
           7
100
AcDbLine
 10
40604.177226311411
 20
1582.269357450718
 11
40604.177226311411
 21
1642.269357450717
  0
LINE
  5
1A8
100
AcDbEntity
  8
1
  6
CONTINUOUS
 62
           7
100
AcDbLine
 10
42504.177226311404
 20
1582.269357450718
 11
40604.177226311411
 21
1582.269357450718
  0
LINE
  5
1A7
100
AcDbEntity
  8
1
  6
CONTINUOUS
 62
           7
100
AcDbLine
 10
42504.177226311404
 20
1639.269357450718
 11
40604.177226311411
 21
1639.269357450718
  0
LINE
  5
1A6
100
AcDbEntity
  8
1
  6
CONTINUOUS
 62
           7
100
AcDbLine
 10
42504.177226311404
 20
1642.269357450718
 11
40604.177226311411
 21
1642.269357450717
  0
ENDBLK
  5
1AB
100
AcDbEntity
  8
0
100
AcDbBlockEnd
  0
BLOCK
  5
3A
100
AcDbEntity
  8
0
100
AcDbBlockBegin
  2
GETRIEBE_DS
 70
           0
 10
4514.356628369576
 20
-3885.890668595383
 30
0.0
  3
GETRIEBE_DS
  1

  0
LWPOLYLINE
  5
1D5
100
AcDbEntity
  8
0
  6
DOT_CENTER
 62
           3
 60
           1
100
AcDbPolyline
 90
       29
 70
           1
 10
43067.876715182872
 20
1673.269360917278
 10
43070.876615182882
 20
1673.269360917278
 10
43070.876615182882
 20
1653.269360917278
 10
43078.376715182872
 20
1653.269360917278
 10
43083.876699904897
 20
1653.269360917278
 10
43083.876699904897
 20
1651.269360917278
 10
43173.876702598151
 20
1651.269360917278
 10
43173.876702598151
 20
1653.269360917278
 10
43179.376715182872
 20
1653.269360917278
 10
43186.876715182872
 20
1653.269360917278
 10
43186.876715182872
 20
1673.269360917278
 10
43189.876715182872
 20
1673.269360917278
 10
43189.876715182872
 20
1753.269360917278
 10
43186.876715182872
 20
1753.269360917278
 10
43186.876715182872
 20
1773.269360917278
 10
43179.376715182872
 20
1773.269360917278
 10
43173.876702598151
 20
1773.269360917278
 10
43173.876702598151
 20
1798.269260917277
 10
43186.876715182872
 20
1798.269260917278
 10
43186.876715182872
 20
1813.269260917278
 10
43070.876715182872
 20
1813.269260917278
 10
43070.876715182872
 20
1798.269260917278
 10
43083.876699904897
 20
1798.269260917277
 10
43083.876699904897
 20
1773.269360917278
 10
43078.376715182872
 20
1773.269360917278
 10
43070.876615182882
 20
1773.269360917278
 10
43070.876615182882
 20
1753.269360917278
 10
43067.876715182872
 20
1753.269360917278
 10
43067.876715182872
 20
1673.269360917278
  0
LINE
  5
1D4
100
AcDbEntity
  8
0
  6
DOT_CENTER
 62
           3
100
AcDbLine
 10
43081.376715182872
 20
1795.269260917278
 11
43081.376715182872
 21
1816.269260917278
  0
LINE
  5
1D3
100
AcDbEntity
  8
0
  6
DOT_CENTER
 62
           3
100
AcDbLine
 10
43176.376715182872
 20
1795.269260917278
 11
43176.376715182872
 21
1816.269260917278
  0
LINE
  5
1D2
100
AcDbEntity
  8
0
  6
DOT_CENTER
 62
           3
100
AcDbLine
 10
43192.876715182872
 20
1713.269355800089
 11
43064.876715182872
 21
1713.269361034463
  0
LINE
  5
1D1
100
AcDbEntity
  8
0
  6
DOT_CENTER
 62
           3
100
AcDbLine
 10
43128.876704997667
 20
1816.269260917278
 11
43128.876715368053
 21
1648.269360917278
  0
LINE
  5
1D0
100
AcDbEntity
  8
0
  6
CONTINUOUS
 62
           7
100
AcDbLine
 10
43186.876715182872
 20
1773.269360917278
 11
43186.876715182872
 21
1753.269360917278
  0
LINE
  5
1CF
100
AcDbEntity
  8
0
  6
CONTINUOUS
 62
           7
100
AcDbLine
 10
43186.876715182872
 20
1753.269360917278
 11
43186.876715182872
 21
1673.269360917278
  0
LINE
  5
1CE
100
AcDbEntity
  8
0
  6
CONTINUOUS
 62
           7
100
AcDbLine
 10
43186.876715182872
 20
1753.269360917278
 11
43189.876715182872
 21
1753.269360917278
  0
LINE
  5
1CD
100
AcDbEntity
  8
0
  6
CONTINUOUS
 62
           7
100
AcDbLine
 10
43189.876715182872
 20
1753.269360917278
 11
43189.876715182872
 21
1673.269360917278
  0
LINE
  5
1CC
100
AcDbEntity
  8
0
  6
CONTINUOUS
 62
           7
100
AcDbLine
 10
43189.876715182872
 20
1673.269360917278
 11
43186.876715182872
 21
1673.269360917278
  0
LINE
  5
1CB
100
AcDbEntity
  8
0
  6
CONTINUOUS
 62
           7
100
AcDbLine
 10
43070.876615182882
 20
1773.269360917278
 11
43070.876615182882
 21
1753.269360917278
  0
LINE
  5
1CA
100
AcDbEntity
  8
0
  6
CONTINUOUS
 62
           7
100
AcDbLine
 10
43070.876615182882
 20
1753.269360917278
 11
43070.876615182882
 21
1673.269360917278
  0
LINE
  5
1C9
100
AcDbEntity
  8
0
  6
CONTINUOUS
 62
           7
100
AcDbLine
 10
43070.876615182882
 20
1753.269360917278
 11
43067.876715182872
 21
1753.269360917278
  0
LINE
  5
1C8
100
AcDbEntity
  8
0
  6
CONTINUOUS
 62
           7
100
AcDbLine
 10
43067.876715182872
 20
1753.269360917278
 11
43067.876715182872
 21
1673.269360917278
  0
LINE
  5
1C7
100
AcDbEntity
  8
0
  6
CONTINUOUS
 62
           7
100
AcDbLine
 10
43067.876715182872
 20
1673.269360917278
 11
43070.876615182882
 21
1673.269360917278
  0
LINE
  5
1C6
100
AcDbEntity
  8
0
  6
CONTINUOUS
 62
           7
100
AcDbLine
 10
43179.376715182872
 20
1773.269360917278
 11
43186.876715182872
 21
1773.269360917278
  0
LINE
  5
1C5
100
AcDbEntity
  8
0
  6
CONTINUOUS
 62
           7
100
AcDbLine
 10
43186.876715182872
 20
1673.269360917278
 11
43186.876715182872
 21
1653.269360917278
  0
LINE
  5
1C4
100
AcDbEntity
  8
0
  6
CONTINUOUS
 62
           7
100
AcDbLine
 10
43186.876715182872
 20
1653.269360917278
 11
43179.376715182872
 21
1653.269360917278
  0
LINE
  5
1C3
100
AcDbEntity
  8
0
  6
CONTINUOUS
 62
           7
100
AcDbLine
 10
43078.376715182872
 20
1773.269360917278
 11
43070.876615182882
 21
1773.269360917278
  0
LINE
  5
1C2
100
AcDbEntity
  8
0
  6
CONTINUOUS
 62
           7
100
AcDbLine
 10
43070.876615182882
 20
1673.269360917278
 11
43070.876615182882
 21
1653.269360917278
  0
LINE
  5
1C1
100
AcDbEntity
  8
0
  6
CONTINUOUS
 62
           7
100
AcDbLine
 10
43070.876615182882
 20
1653.269360917278
 11
43078.376715182872
 21
1653.269360917278
  0
LINE
  5
1C0
100
AcDbEntity
  8
0
  6
CONTINUOUS
 62
           7
100
AcDbLine
 10
43173.876702598151
 20
1798.269260917277
 11
43173.876702598151
 21
1773.269360917278
  0
LINE
  5
1BF
100
AcDbEntity
  8
0
  6
CONTINUOUS
 62
           7
100
AcDbLine
 10
43173.876702598151
 20
1773.269360917278
 11
43173.876702598151
 21
1653.269360917278
  0
LINE
  5
1BE
100
AcDbEntity
  8
0
  6
CONTINUOUS
 62
           7
100
AcDbLine
 10
43173.876702598151
 20
1773.269360917278
 11
43179.376715182872
 21
1773.269360917278
  0
LINE
  5
1BD
100
AcDbEntity
  8
0
  6
CONTINUOUS
 62
           7
100
AcDbLine
 10
43179.376715182872
 20
1773.269360917278
 11
43179.376715182872
 21
1653.269360917278
  0
LINE
  5
1BC
100
AcDbEntity
  8
0
  6
CONTINUOUS
 62
           7
100
AcDbLine
 10
43179.376715182872
 20
1653.269360917278
 11
43173.876702598151
 21
1653.269360917278
  0
LINE
  5
1BB
100
AcDbEntity
  8
0
  6
CONTINUOUS
 62
           7
100
AcDbLine
 10
43083.876699904897
 20
1651.269360917278
 11
43083.876699904897
 21
1653.269360917278
  0
LINE
  5
1BA
100
AcDbEntity
  8
0
  6
CONTINUOUS
 62
           7
100
AcDbLine
 10
43083.876699904897
 20
1653.269360917278
 11
43083.876699904897
 21
1773.269360917278
  0
LINE
  5
1B9
100
AcDbEntity
  8
0
  6
CONTINUOUS
 62
           7
100
AcDbLine
 10
43083.876699904897
 20
1773.269360917278
 11
43078.376715182872
 21
1773.269360917278
  0
LINE
  5
1B8
100
AcDbEntity
  8
0
  6
CONTINUOUS
 62
           7
100
AcDbLine
 10
43078.376715182872
 20
1773.269360917278
 11
43078.376715182872
 21
1653.269360917278
  0
LINE
  5
1B7
100
AcDbEntity
  8
0
  6
CONTINUOUS
 62
           7
100
AcDbLine
 10
43078.376715182872
 20
1653.269360917278
 11
43083.876699904897
 21
1653.269360917278
  0
LINE
  5
1B6
100
AcDbEntity
  8
0
  6
CONTINUOUS
 62
           7
100
AcDbLine
 10
43186.876715182872
 20
1798.269260917278
 11
43173.876702598151
 21
1798.269260917277
  0
LINE
  5
1B5
100
AcDbEntity
  8
0
  6
CONTINUOUS
 62
           7
100
AcDbLine
 10
43173.876702598151
 20
1810.269260917278
 11
43173.876702598151
 21
1798.269260917277
  0
LINE
  5
1B4
100
AcDbEntity
  8
0
  6
CONTINUOUS
 62
           7
100
AcDbLine
 10
43083.876699904897
 20
1773.269360917278
 11
43083.876699904897
 21
1798.269260917277
  0
LINE
  5
1B3
100
AcDbEntity
  8
0
  6
CONTINUOUS
 62
           7
100
AcDbLine
 10
43070.876715182872
 20
1813.269260917278
 11
43186.876715182872
 21
1813.269260917278
  0
LINE
  5
1B2
100
AcDbEntity
  8
0
  6
CONTINUOUS
 62
           7
100
AcDbLine
 10
43186.876715182872
 20
1813.269260917278
 11
43186.876715182872
 21
1798.269260917278
  0
LINE
  5
1B1
100
AcDbEntity
  8
0
  6
CONTINUOUS
 62
           7
100
AcDbLine
 10
43083.876699904897
 20
1798.269260917277
 11
43070.876715182872
 21
1798.269260917278
  0
LINE
  5
1B0
100
AcDbEntity
  8
0
  6
CONTINUOUS
 62
           7
100
AcDbLine
 10
43070.876715182872
 20
1798.269260917278
 11
43070.876715182872
 21
1813.269260917278
  0
LINE
  5
1AF
100
AcDbEntity
  8
0
  6
CONTINUOUS
 62
           7
100
AcDbLine
 10
43083.876699904897
 20
1810.269260917278
 11
43173.876702598151
 21
1810.269260917278
  0
LINE
  5
1AE
100
AcDbEntity
  8
0
  6
CONTINUOUS
 62
           7
100
AcDbLine
 10
43173.876702598151
 20
1653.269360917278
 11
43173.876702598151
 21
1651.269360917278
  0
LINE
  5
1AD
100
AcDbEntity
  8
0
  6
CONTINUOUS
 62
           7
100
AcDbLine
 10
43173.876702598151
 20
1651.269360917278
 11
43083.876699904897
 21
1651.269360917278
  0
LINE
  5
1AC
100
AcDbEntity
  8
0
  6
CONTINUOUS
 62
           7
100
AcDbLine
 10
43083.876699904897
 20
1798.269260917277
 11
43083.876699904897
 21
1810.269260917278
  0
ENDBLK
  5
1D6
100
AcDbEntity
  8
0
100
AcDbBlockEnd
  0
BLOCK
  5
3C
100
AcDbEntity
  8
0
100
AcDbBlockBegin
  2
E_MOTOR_DS
 70
           0
 10
4514.356628369576
 20
-3897.890667325853
 30
0.0
  3
E_MOTOR_DS
  1

  0
ARC
  5
1E6
100
AcDbEntity
  8
1
  6
CONTINUOUS
 62
           7
100
AcDbCircle
 10
43128.876718463129
 20
1713.269352415751
 40
82.999896165543
100
AcDbArc
 50
-40.620618742751
 51
-139.3793795502
  0
ARC
  5
1E5
100
AcDbEntity
  8
1
  6
CONTINUOUS
 62
           7
100
AcDbCircle
 10
43128.876712457182
 20
1713.269356181188
 40
87.99999015958
100
AcDbArc
 50
90.0
 51
-122.763871649811
  0
ARC
  5
1E4
100
AcDbEntity
  8
1
  6
CONTINUOUS
 62
           7
100
AcDbCircle
 10
43128.876712457182
 20
1713.269356181188
 40
87.999990159574
100
AcDbArc
 50
-57.23613542377
 51
0.0
  0
ARC
  5
1E3
100
AcDbEntity
  8
1
  6
CONTINUOUS
 62
           7
100
AcDbCircle
 10
43128.876712457182
 20
1713.269356181188
 40
87.99999015958
100
AcDbArc
 50
0.0
 51
90.0
  0
LINE
  5
1E2
100
AcDbEntity
  8
1
  6
CONTINUOUS
 62
           7
100
AcDbLine
 10
43117.231876874903
 20
1810.269259647748
 11
43136.876717333696
 21
1810.269259647748
  0
LINE
  5
1E1
100
AcDbEntity
  8
0
  6
CONTINUOUS
 62
           7
100
AcDbLine
 10
43191.876716238628
 20
1572.269353333513
 11
43065.87672229758
 21
1572.269359144154
  0
LINE
  5
1E0
100
AcDbEntity
  8
1
  6
CONTINUOUS
 62
           7
100
AcDbLine
 10
43191.876716238628
 20
1659.232484966037
 11
43191.876716238628
 21
1572.269353333513
  0
LINE
  5
1DF
100
AcDbEntity
  8
1
  6
CONTINUOUS
 62
           7
100
AcDbLine
 10
43193.876713770231
 20
1572.269353241283
 11
43193.876713770231
 21
1565.269353211233
  0
LINE
  5
1DE
100
AcDbEntity
  8
0
  6
CONTINUOUS
 62
           7
100
AcDbLine
 10
43193.876713770231
 20
1572.269353241283
 11
43191.876716238628
 21
1572.269353333513
  0
LINE
  5
1DD
100
AcDbEntity
  8
1
  6
CONTINUOUS
 62
           7
100
AcDbLine
 10
43065.87672229758
 20
1572.269359144154
 11
43065.87672229758
 21
1659.232483089036
  0
LINE
  5
1DC
100
AcDbEntity
  8
0
  6
CONTINUOUS
 62
           7
100
AcDbLine
 10
43081.253047088387
 20
1639.269459120924
 11
43176.50036869014
 21
1639.269453241453
  0
LINE
  5
1DB
100
AcDbEntity
  8
0
  6
CONTINUOUS
 62
           7
100
AcDbLine
 10
43065.87672229758
 20
1572.269359144154
 11
43063.87672229758
 21
1572.269359267609
  0
LINE
  5
1DA
100
AcDbEntity
  8
0
  6
CONTINUOUS
 62
           7
100
AcDbLine
 10
43063.876721865483
 20
1565.269359267609
 11
43193.876713770231
 21
1565.269353211233
  0
LINE
  5
1D9
100
AcDbEntity
  8
0
  6
CONTINUOUS
 62
           7
100
AcDbLine
 10
43063.87672229758
 20
1572.269359267609
 11
43063.876721865483
 21
1565.269359267609
  0
LINE
  5
1D8
100
AcDbEntity
  8
1
  6
DOT_CENTER
 62
           3
100
AcDbLine
 10
43219.876702616762
 20
1713.269356181188
 11
43037.876722297602
 21
1713.269356181188
  0
LINE
  5
1D7
100
AcDbEntity
  8
1
  6
DOT_CENTER
 62
           3
100
AcDbLine
 10
43128.876712457182
 20
1801.269346340768
 11
43128.876712457182
 21
1622.269366021603
  0
INSERT
  5
3D
100
AcDbEntity
  8
0
100
AcDbBlockReference
  2
GETRIEBE_DS
 10
4514.356628369576
 20
-3885.890669864913
  0
ENDBLK
  5
1E7
100
AcDbEntity
  8
0
100
AcDbBlockEnd
  0
BLOCK
  5
3F
100
AcDbEntity
  8
0
100
AcDbBlockBegin
  2
_MOTOR_DS
 70
           0
 10
4078.556628369577
 20
-4406.890666056323
 30
0.0
  3
_MOTOR_DS
  1

  0
INSERT
  5
40
100
AcDbEntity
  8
0
100
AcDbBlockReference
  2
E_MOTOR_DS
 10
4189.356628369576
 20
-4231.890666056323
  0
ENDBLK
  5
1E8
100
AcDbEntity
  8
0
100
AcDbBlockEnd
  0
BLOCK
  5
42
100
AcDbEntity
  8
0
100
AcDbBlockBegin
  2
_ANTRIEB_DS
 70
           0
 10
543.459974590814
 20
-3138.223710638835
 30
0.0
  3
_ANTRIEB_DS
  1

  0
INSERT
  5
43
100
AcDbEntity
  8
0
100
AcDbBlockReference
  2
_MOTOR_DS
 10
4078.556628369577
 20
-4406.890666056323
  0
ENDBLK
  5
1E9
100
AcDbEntity
  8
0
100
AcDbBlockEnd
  0
BLOCK
  5
45
100
AcDbEntity
  8
0
100
AcDbBlockBegin
  2
SEITENPROFIL_DS
 70
           0
 10
8128.528608788558
 20
-1321.124398798776
 30
0.0
  3
SEITENPROFIL_DS
  1

  0
HATCH
  5
2E3
100
AcDbEntity
  8
0
  6
CONTINUOUS
 62
           7
100
AcDbHatch
 10
0.0
 20
0.0
 30
0.0
210
0.0
220
0.0
230
1.0
  2
USER
 70
           0
 71
           1
 91
        1
 92
        1
 93
        5
 72
           1
 10
43004.177226311404
 20
1367.2693574507171
 11
43004.177226311404
 21
1452.0884751076601
 72
           1
 10
43004.177226311404
 20
1257.2693574507171
 11
43004.177226311404
 21
1367.2693574507171
 72
           1
 10
42884.177226311404
 20
1257.2693574507171
 11
43004.177226311404
 21
1257.2693574507171
 72
           1
 10
42884.177226311404
 20
1257.2693574507171
 11
42884.177226311404
 21
1452.0884751076601
 72
           1
 10
43004.177226311404
 20
1452.0884751076601
 11
42884.177226311404
 21
1452.0884751076601
 97
        5
330
234
330
232
330
233
330
206
330
235
 75
           1
 76
           0
 52
45.0
 41
30.0
 77
           0
 78
           2
 53
135.0
 43
0.0
 44
0.0
 45
-21.213203435596419
 46
-21.213203435596434
 79
           0
 53
45.0
 43
0.0
 44
0.0
 45
-21.213203435596427
 46
21.213203435596427
 79
           0
 98
        1
 10
0.0
 20
0.0
  0
HATCH
  5
2E2
100
AcDbEntity
  8
0
  6
CONTINUOUS
 62
           7
100
AcDbHatch
 10
0.0
 20
0.0
 30
0.0
210
0.0
220
0.0
230
1.0
  2
USER
 70
           0
 71
           1
 91
        1
 92
        1
 93
        6
 72
           1
 10
40404.177226311411
 20
1308.2693574507171
 11
40404.177226311411
 21
1464.0884751076601
 72
           1
 10
40404.177226311411
 20
1269.2693574507171
 11
40404.177226311411
 21
1308.2693574507171
 72
           1
 10
40354.177226311411
 20
1269.2693574507171
 11
40404.177226311411
 21
1269.2693574507171
 72
           1
 10
40354.177226311411
 20
1379.2693574507171
 11
40354.177226311411
 21
1269.2693574507171
 72
           1
 10
40354.177226311411
 20
1464.0884751076601
 11
40354.177226311411
 21
1379.2693574507171
 72
           1
 10
40404.177226311411
 20
1464.0884751076601
 11
40354.177226311411
 21
1464.0884751076601
 97
        6
330
208
330
246
330
269
330
26A
330
268
330
266
 75
           1
 76
           0
 52
45.0
 41
30.0
 77
           0
 78
           2
 53
135.0
 43
0.0
 44
0.0
 45
-21.213203435596419
 46
-21.213203435596434
 79
           0
 53
45.0
 43
0.0
 44
0.0
 45
-21.213203435596427
 46
21.213203435596427
 79
           0
 98
        1
 10
0.0
 20
0.0
  0
DIMENSION
  5
2E1
100
AcDbEntity
  8
0
100
AcDbDimension
  2
*D43
 10
40354.177226311411
 20
937.092162846797
 11
40109.728712715507
 21
1045.42549618013
 31
0.0
  1
<>
  3
ME10_DIM_12
100
AcDbAlignedDimension
 13
40404.177226311411
 23
1269.269357450717
 14
40354.177226311411
 24
1269.269357450717
100
AcDbRotatedDimension
  0
DIMENSION
  5
2D4
100
AcDbEntity
  8
0
100
AcDbDimension
  2
*D42
 10
38760.970790237101
 20
1565.698611025298
 11
38660.970790237101
 21
1468.32510562774
 31
0.0
 70
           1
  1
<>
  3
ME10_DIM_11
100
AcDbAlignedDimension
 13
38533.557747503743
 23
1365.698611025299
 14
38533.557747503743
 24
1565.698611025298
  0
DIMENSION
  5
2C9
100
AcDbEntity
  8
0
100
AcDbDimension
  2
*D41
 10
43004.177226311396
 20
464.91858932504
 11
43216.89211540742
 21
573.251922658373
 31
0.0
 70
           1
  1
<>
  3
ME10_DIM_10
100
AcDbAlignedDimension
 13
42884.177226311404
 23
1257.269357450717
 14
43004.177226311404
 24
1257.269357450717
  0
ARC
  5
2BC
100
AcDbEntity
  8
1
  6
CONTINUOUS
 62
           7
100
AcDbCircle
 10
38533.557747503743
 20
761.698611025298
 40
1.0
100
AcDbArc
 50
0.0
 51
90.0
  0
ARC
  5
2BB
100
AcDbEntity
  8
1
  6
CONTINUOUS
 62
           7
100
AcDbCircle
 10
38533.557747503743
 20
761.698611025298
 40
4.0
100
AcDbArc
 50
0.0
 51
90.0
  0
ARC
  5
2BA
100
AcDbEntity
  8
1
  6
CONTINUOUS
 62
           7
100
AcDbCircle
 10
38532.557747503743
 20
570.698611025299
 40
2.0
100
AcDbArc
 50
-90.0
 51
0.0
  0
ARC
  5
2B9
100
AcDbEntity
  8
1
  6
CONTINUOUS
 62
           7
100
AcDbCircle
 10
38533.557747503743
 20
569.698611025299
 40
4.0
100
AcDbArc
 50
-90.0
 51
0.0
  0
ARC
  5
2B8
100
AcDbEntity
  8
1
  6
CONTINUOUS
 62
           7
100
AcDbCircle
 10
38533.557747503743
 20
1369.698611025299
 40
4.0
100
AcDbArc
 50
-90.0
 51
0.0
  0
ARC
  5
2B7
100
AcDbEntity
  8
1
  6
CONTINUOUS
 62
           7
100
AcDbCircle
 10
38532.557747503743
 20
1370.698611025299
 40
2.0
100
AcDbArc
 50
-90.0
 51
0.0
  0
ARC
  5
2B6
100
AcDbEntity
  8
1
  6
CONTINUOUS
 62
           7
100
AcDbCircle
 10
38533.557747503743
 20
1561.698611025298
 40
4.0
100
AcDbArc
 50
0.0
 51
90.0
  0
ARC
  5
2B5
100
AcDbEntity
  8
1
  6
CONTINUOUS
 62
           7
100
AcDbCircle
 10
38533.557747503743
 20
1561.698611025298
 40
1.0
100
AcDbArc
 50
0.0
 51
90.0
  0
CIRCLE
  5
2B4
100
AcDbEntity
  8
1
  6
CONTINUOUS
 62
           7
100
AcDbCircle
 10
38371.0022940423
 20
617.499238022149
 40
19.0
  0
CIRCLE
  5
2B3
100
AcDbEntity
  8
1
  6
CONTINUOUS
 62
           7
100
AcDbCircle
 10
38371.0022940423
 20
617.499238022149
 40
25.0
  0
CIRCLE
  5
2B2
100
AcDbEntity
  8
1
  6
CONTINUOUS
 62
           7
100
AcDbCircle
 10
38491.0022940423
 20
617.499238022149
 40
25.0
  0
CIRCLE
  5
2B1
100
AcDbEntity
  8
1
  6
CONTINUOUS
 62
           7
100
AcDbCircle
 10
38431.0022940423
 20
617.499238022149
 40
25.0
  0
CIRCLE
  5
2B0
100
AcDbEntity
  8
1
  6
CONTINUOUS
 62
           7
100
AcDbCircle
 10
38431.0022940423
 20
617.499238022149
 40
19.0
  0
CIRCLE
  5
2AF
100
AcDbEntity
  8
1
  6
CONTINUOUS
 62
           7
100
AcDbCircle
 10
38491.0022940423
 20
617.499238022149
 40
19.0
  0
CIRCLE
  5
2AE
100
AcDbEntity
  8
1
  6
CONTINUOUS
 62
           7
100
AcDbCircle
 10
40447.822989266402
 20
1587.60561070831
 40
19.0
  0
CIRCLE
  5
2AD
100
AcDbEntity
  8
1
  6
CONTINUOUS
 62
           7
100
AcDbCircle
 10
40447.822989266402
 20
1517.605610708309
 40
19.0
  0
CIRCLE
  5
2AC
100
AcDbEntity
  8
1
  6
CONTINUOUS
 62
           7
100
AcDbCircle
 10
40447.822989266402
 20
1517.605610708309
 40
25.0
  0
CIRCLE
  5
2AB
100
AcDbEntity
  8
1
  6
CONTINUOUS
 62
           7
100
AcDbCircle
 10
40447.822989266402
 20
1587.60561070831
 40
25.0
  0
CIRCLE
  5
2AA
100
AcDbEntity
  8
1
  6
CONTINUOUS
 62
           7
100
AcDbCircle
 10
38491.0022940423
 20
1417.499238022149
 40
19.0
  0
CIRCLE
  5
2A9
100
AcDbEntity
  8
1
  6
CONTINUOUS
 62
           7
100
AcDbCircle
 10
38431.0022940423
 20
1417.499238022149
 40
19.0
  0
CIRCLE
  5
2A8
100
AcDbEntity
  8
1
  6
CONTINUOUS
 62
           7
100
AcDbCircle
 10
38431.0022940423
 20
1417.499238022149
 40
25.0
  0
CIRCLE
  5
2A7
100
AcDbEntity
  8
1
  6
CONTINUOUS
 62
           7
100
AcDbCircle
 10
38491.0022940423
 20
1417.499238022149
 40
25.0
  0
CIRCLE
  5
2A6
100
AcDbEntity
  8
1
  6
CONTINUOUS
 62
           7
100
AcDbCircle
 10
38371.0022940423
 20
1417.499238022149
 40
25.0
  0
CIRCLE
  5
2A5
100
AcDbEntity
  8
1
  6
CONTINUOUS
 62
           7
100
AcDbCircle
 10
38371.0022940423
 20
1417.499238022149
 40
19.0
  0
CIRCLE
  5
2A4
100
AcDbEntity
  8
1
  6
CONTINUOUS
 62
           7
100
AcDbCircle
 10
42660.53146335639
 20
1587.60561070831
 40
25.0
  0
CIRCLE
  5
2A3
100
AcDbEntity
  8
1
  6
CONTINUOUS
 62
           7
100
AcDbCircle
 10
42660.53146335639
 20
1517.605610708309
 40
25.0
  0
CIRCLE
  5
2A2
100
AcDbEntity
  8
1
  6
CONTINUOUS
 62
           7
100
AcDbCircle
 10
42660.53146335639
 20
1517.605610708309
 40
19.0
  0
CIRCLE
  5
2A1
100
AcDbEntity
  8
1
  6
CONTINUOUS
 62
           7
100
AcDbCircle
 10
42660.53146335639
 20
1587.60561070831
 40
19.0
  0
LINE
  5
2A0
100
AcDbEntity
  8
1
  6
CONTINUOUS
 62
           3
100
AcDbLine
 10
38426.557747503743
 20
875.909076033742
 11
38396.170286046021
 21
865.354763440489
  0
LINE
  5
29F
100
AcDbEntity
  8
1
  6
CONTINUOUS
 62
           3
100
AcDbLine
 10
38444.557747503743
 20
883.34497346964
 11
38426.557747503743
 21
875.909076033742
  0
LINE
  5
29E
100
AcDbEntity
  8
1
  6
CONTINUOUS
 62
           3
100
AcDbLine
 10
38474.170286046021
 20
894.354763440491
 11
38444.557747503743
 21
883.34497346964
  0
LINE
  5
29D
100
AcDbEntity
  8
1
  6
CONTINUOUS
 62
           7
100
AcDbLine
 10
38444.557747503743
 20
670.698611025302
 11
38426.557747503743
 21
670.698611025291
  0
LINE
  5
29C
100
AcDbEntity
  8
1
  6
CONTINUOUS
 62
           7
100
AcDbLine
 10
38426.557747503743
 20
670.698611025291
 11
38426.557747503743
 21
875.909076033742
  0
LINE
  5
29B
100
AcDbEntity
  8
1
  6
CONTINUOUS
 62
           7
100
AcDbLine
 10
38533.557747503743
 20
565.698611025299
 11
38360.598845213222
 21
565.698611025299
  0
LINE
  5
29A
100
AcDbEntity
  8
1
  6
CONTINUOUS
 62
           7
100
AcDbLine
 10
38537.557747503743
 20
761.698611025298
 11
38537.557747503743
 21
731.03021188516
  0
LINE
  5
299
100
AcDbEntity
  8
1
  6
CONTINUOUS
 62
           7
100
AcDbLine
 10
38445.557747503743
 20
765.698611025299
 11
38533.557747503743
 21
765.698611025298
  0
LINE
  5
298
100
AcDbEntity
  8
1
  6
CONTINUOUS
 62
           7
100
AcDbLine
 10
38445.557747503743
 20
762.698611025298
 11
38533.557747503743
 21
762.698611025298
  0
LINE
  5
297
100
AcDbEntity
  8
1
  6
CONTINUOUS
 62
           7
100
AcDbLine
 10
38534.557747503743
 20
761.698611025298
 11
38534.557747503743
 21
570.698611025299
  0
LINE
  5
296
100
AcDbEntity
  8
1
  6
CONTINUOUS
 62
           7
100
AcDbLine
 10
38444.557747503743
 20
670.698611025302
 11
38426.557747503743
 21
670.698611025291
  0
LINE
  5
295
100
AcDbEntity
  8
1
  6
CONTINUOUS
 62
           7
100
AcDbLine
 10
38444.557747503743
 20
754.698611025298
 11
38444.557747503743
 21
770.698611025299
  0
LINE
  5
294
100
AcDbEntity
  8
1
  6
CONTINUOUS
 62
           7
100
AcDbLine
 10
38426.557747503743
 20
720.698611025298
 11
38426.557747503743
 21
707.698611025298
  0
LINE
  5
293
100
AcDbEntity
  8
1
  6
CONTINUOUS
 62
           7
100
AcDbLine
 10
38327.55774750375
 20
765.698611025294
 11
38425.557747503743
 21
765.6986110253
  0
LINE
  5
292
100
AcDbEntity
  8
1
  6
CONTINUOUS
 62
           7
100
AcDbLine
 10
38445.557747503743
 20
765.698611025299
 11
38445.557747503743
 21
762.698611025298
  0
LINE
  5
291
100
AcDbEntity
  8
1
  6
CONTINUOUS
 62
           7
100
AcDbLine
 10
38425.557747503743
 20
765.6986110253
 11
38425.557747503743
 21
763.698611025298
  0
LINE
  5
290
100
AcDbEntity
  8
1
  6
CONTINUOUS
 62
           7
100
AcDbLine
 10
38444.557747503743
 20
883.34497346964
 11
38444.557747503743
 21
670.698611025302
  0
LINE
  5
28F
100
AcDbEntity
  8
1
  6
CONTINUOUS
 62
           7
100
AcDbLine
 10
38330.55774750375
 20
655.698611025299
 11
38330.55774750375
 21
657.698611025299
  0
LINE
  5
28E
100
AcDbEntity
  8
1
  6
CONTINUOUS
 62
           7
100
AcDbLine
 10
38330.55774750375
 20
655.698611025299
 11
38534.557747503743
 21
655.698611025299
  0
LINE
  5
28D
100
AcDbEntity
  8
1
  6
CONTINUOUS
 62
           7
100
AcDbLine
 10
38330.55774750375
 20
657.698611025299
 11
38534.557747503743
 21
657.698611025299
  0
LINE
  5
28C
100
AcDbEntity
  8
1
  6
CONTINUOUS
 62
           7
100
AcDbLine
 10
38330.55774750375
 20
568.698611025299
 11
38330.55774750375
 21
565.698611025299
  0
LINE
  5
28B
100
AcDbEntity
  8
1
  6
CONTINUOUS
 62
           7
100
AcDbLine
 10
38330.55774750375
 20
568.698611025299
 11
38532.557747503743
 21
568.698611025299
  0
LINE
  5
28A
100
AcDbEntity
  8
1
  6
CONTINUOUS
 62
           7
100
AcDbLine
 10
38537.557747503743
 20
731.03021188516
 11
38539.057747503743
 21
731.03021188516
  0
LINE
  5
289
100
AcDbEntity
  8
1
  6
CONTINUOUS
 62
           7
100
AcDbLine
 10
38537.557747503743
 20
731.03021188516
 11
38537.557747503743
 21
569.698611025299
  0
LINE
  5
288
100
AcDbEntity
  8
1
  6
CONTINUOUS
 62
           7
100
AcDbLine
 10
38425.557747503743
 20
763.698611025298
 11
38329.55774750375
 21
763.698611025298
  0
LINE
  5
287
100
AcDbEntity
  8
1
  6
CONTINUOUS
 62
           7
100
AcDbLine
 10
38327.55774750375
 20
765.698611025294
 11
38327.55774750375
 21
563.698611025299
  0
LINE
  5
286
100
AcDbEntity
  8
1
  6
CONTINUOUS
 62
           7
100
AcDbLine
 10
38327.55774750375
 20
563.698611025299
 11
38360.598845213222
 21
563.698611025299
  0
LINE
  5
285
100
AcDbEntity
  8
1
  6
CONTINUOUS
 62
           7
100
AcDbLine
 10
38329.55774750375
 20
565.698611025299
 11
38329.55774750375
 21
763.698611025298
  0
LINE
  5
284
100
AcDbEntity
  8
1
  6
CONTINUOUS
 62
           7
100
AcDbLine
 10
38329.55774750375
 20
565.698611025299
 11
38360.55774750375
 21
565.698611025299
  0
LINE
  5
283
100
AcDbEntity
  8
1
  6
CONTINUOUS
 62
           7
100
AcDbLine
 10
38360.55774750375
 20
565.698611025299
 11
38330.55774750375
 21
565.698611025299
  0
LINE
  5
282
100
AcDbEntity
  8
1
  6
CONTINUOUS
 62
           7
100
AcDbLine
 10
38360.598845213222
 20
563.698611025299
 11
38360.598845213222
 21
565.698611025299
  0
LINE
  5
281
100
AcDbEntity
  8
1
  6
CONTINUOUS
 62
           7
100
AcDbLine
 10
38360.598845213222
 20
565.698611025299
 11
38360.55774750375
 21
565.698611025299
  0
LINE
  5
280
100
AcDbEntity
  8
1
  6
CONTINUOUS
 62
           7
100
AcDbLine
 10
38360.598845213222
 20
1365.698611025299
 11
38360.55774750375
 21
1365.698611025299
  0
LINE
  5
27F
100
AcDbEntity
  8
1
  6
CONTINUOUS
 62
           7
100
AcDbLine
 10
38360.598845213222
 20
1363.698611025299
 11
38360.598845213222
 21
1365.698611025299
  0
LINE
  5
27E
100
AcDbEntity
  8
1
  6
CONTINUOUS
 62
           7
100
AcDbLine
 10
38360.55774750375
 20
1365.698611025299
 11
38330.55774750375
 21
1365.698611025299
  0
LINE
  5
27D
100
AcDbEntity
  8
1
  6
CONTINUOUS
 62
           7
100
AcDbLine
 10
38329.55774750375
 20
1365.698611025299
 11
38360.55774750375
 21
1365.698611025299
  0
LINE
  5
27C
100
AcDbEntity
  8
1
  6
CONTINUOUS
 62
           7
100
AcDbLine
 10
38329.55774750375
 20
1365.698611025299
 11
38329.55774750375
 21
1563.698611025298
  0
LINE
  5
27B
100
AcDbEntity
  8
1
  6
CONTINUOUS
 62
           7
100
AcDbLine
 10
38327.55774750375
 20
1363.698611025299
 11
38360.598845213222
 21
1363.698611025299
  0
LINE
  5
27A
100
AcDbEntity
  8
1
  6
CONTINUOUS
 62
           7
100
AcDbLine
 10
38327.55774750375
 20
1565.698611025294
 11
38327.55774750375
 21
1363.698611025299
  0
LINE
  5
279
100
AcDbEntity
  8
1
  6
CONTINUOUS
 62
           7
100
AcDbLine
 10
38425.557747503743
 20
1563.698611025298
 11
38329.55774750375
 21
1563.698611025298
  0
LINE
  5
278
100
AcDbEntity
  8
1
  6
CONTINUOUS
 62
           7
100
AcDbLine
 10
38537.557747503743
 20
1531.03021188516
 11
38537.557747503743
 21
1369.698611025299
  0
LINE
  5
277
100
AcDbEntity
  8
1
  6
CONTINUOUS
 62
           7
100
AcDbLine
 10
38537.557747503743
 20
1531.03021188516
 11
38539.057747503743
 21
1531.03021188516
  0
LINE
  5
276
100
AcDbEntity
  8
1
  6
CONTINUOUS
 62
           7
100
AcDbLine
 10
38330.55774750375
 20
1368.698611025299
 11
38532.557747503743
 21
1368.698611025299
  0
LINE
  5
275
100
AcDbEntity
  8
1
  6
CONTINUOUS
 62
           7
100
AcDbLine
 10
38330.55774750375
 20
1368.698611025299
 11
38330.55774750375
 21
1365.698611025299
  0
LINE
  5
274
100
AcDbEntity
  8
1
  6
CONTINUOUS
 62
           7
100
AcDbLine
 10
38330.55774750375
 20
1457.698611025299
 11
38534.557747503743
 21
1457.698611025299
  0
LINE
  5
273
100
AcDbEntity
  8
1
  6
CONTINUOUS
 62
           7
100
AcDbLine
 10
38330.55774750375
 20
1455.698611025299
 11
38534.557747503743
 21
1455.698611025299
  0
LINE
  5
272
100
AcDbEntity
  8
1
  6
CONTINUOUS
 62
           7
100
AcDbLine
 10
38330.55774750375
 20
1455.698611025299
 11
38330.55774750375
 21
1457.698611025299
  0
LINE
  5
271
100
AcDbEntity
  8
1
  6
CONTINUOUS
 62
           7
100
AcDbLine
 10
38444.557747503743
 20
1683.34497346964
 11
38444.557747503743
 21
1470.698611025302
  0
LINE
  5
270
100
AcDbEntity
  8
1
  6
CONTINUOUS
 62
           7
100
AcDbLine
 10
38425.557747503743
 20
1565.6986110253
 11
38425.557747503743
 21
1563.698611025298
  0
LINE
  5
26F
100
AcDbEntity
  8
1
  6
CONTINUOUS
 62
           7
100
AcDbLine
 10
38445.557747503743
 20
1565.698611025299
 11
38445.557747503743
 21
1562.698611025298
  0
LINE
  5
26E
100
AcDbEntity
  8
1
  6
CONTINUOUS
 62
           7
100
AcDbLine
 10
40521.177226311411
 20
1433.269357450717
 11
40521.177226311411
 21
1432.269357450717
  0
LINE
  5
26D
100
AcDbEntity
  8
1
  6
CONTINUOUS
 62
           7
100
AcDbLine
 10
40521.177226311411
 20
1433.269357450717
 11
40601.177226311433
 21
1433.269357450717
  0
LINE
  5
26C
100
AcDbEntity
  8
1
  6
DOT_CENTER
 62
           3
100
AcDbLine
 10
41554.177226311404
 20
1313.269357450717
 11
41554.177226311404
 21
1091.3480557906
  0
LINE
  5
26B
100
AcDbEntity
  8
1
  6
CONTINUOUS
 62
           7
100
AcDbLine
 10
42587.177226311367
 20
1325.269357450717
 11
41554.177226311404
 21
1325.269357450717
  0
LINE
  5
26A
100
AcDbEntity
  8
1
  6
DOT_CENTER
 62
           3
100
AcDbLine
 10
40354.177226311411
 20
1379.269357450717
 11
40354.177226311411
 21
1269.269357450717
  0
LINE
  5
269
100
AcDbEntity
  8
1
  6
DOT_CENTER
 62
           3
100
AcDbLine
 10
40354.177226311411
 20
1269.269357450717
 11
40404.177226311411
 21
1269.269357450717
  0
LINE
  5
268
100
AcDbEntity
  8
1
  6
DOT_CENTER
 62
           3
100
AcDbLine
 10
40354.177226311411
 20
1464.08847510766
 11
40354.177226311411
 21
1379.269357450717
  0
LINE
  5
267
100
AcDbEntity
  8
1
  6
CONTINUOUS
 62
           7
100
AcDbLine
 10
40404.177226311411
 20
1362.08847510766
 11
40404.177226311411
 21
1642.269357450717
  0
LINE
  5
266
100
AcDbEntity
  8
1
  6
DOT_CENTER
 62
           3
100
AcDbLine
 10
40404.177226311411
 20
1464.08847510766
 11
40354.177226311411
 21
1464.08847510766
  0
LINE
  5
265
100
AcDbEntity
  8
1
  6
CONTINUOUS
 62
           7
100
AcDbLine
 10
42567.177226311404
 20
1529.269357450717
 11
42567.177226311404
 21
1514.269357450717
  0
LINE
  5
264
100
AcDbEntity
  8
1
  6
CONTINUOUS
 62
           7
100
AcDbLine
 10
42567.177226311404
 20
1514.269357450717
 11
42554.177226311404
 21
1514.269357450717
  0
LINE
  5
263
100
AcDbEntity
  8
1
  6
CONTINUOUS
 62
           7
100
AcDbLine
 10
42554.177226311404
 20
1514.269357450717
 11
42554.177226311404
 21
1529.269357450717
  0
LINE
  5
262
100
AcDbEntity
  8
1
  6
CONTINUOUS
 62
           7
100
AcDbLine
 10
42554.177226311404
 20
1529.269357450717
 11
42567.177226311404
 21
1529.269357450717
  0
LINE
  5
261
100
AcDbEntity
  8
1
  6
CONTINUOUS
 62
           7
100
AcDbLine
 10
42562.177226311404
 20
1433.269357450717
 11
42562.177226311404
 21
1514.269357450717
  0
LINE
  5
260
100
AcDbEntity
  8
1
  6
CONTINUOUS
 62
           7
100
AcDbLine
 10
42559.177226311404
 20
1433.269357450718
 11
42559.177226311404
 21
1514.269357450717
  0
LINE
  5
25F
100
AcDbEntity
  8
1
  6
CONTINUOUS
 62
           7
100
AcDbLine
 10
42587.177226311367
 20
1387.269357450718
 11
42587.17722631136
 21
1347.269357450718
  0
LINE
  5
25E
100
AcDbEntity
  8
1
  6
CONTINUOUS
 62
           7
100
AcDbLine
 10
42587.177226311389
 20
1433.269357450717
 11
42587.177226311367
 21
1325.269357450717
  0
LINE
  5
25D
100
AcDbEntity
  8
1
  6
CONTINUOUS
 62
           7
100
AcDbLine
 10
41554.177226311404
 20
1433.269357450717
 11
42587.177226311389
 21
1433.269357450717
  0
LINE
  5
25C
100
AcDbEntity
  8
1
  6
CONTINUOUS
 62
           7
100
AcDbLine
 10
42609.177226311404
 20
1549.269357450717
 11
42609.177226311411
 21
1529.269357450717
  0
LINE
  5
25B
100
AcDbEntity
  8
1
  6
CONTINUOUS
 62
           7
100
AcDbLine
 10
42609.177226311411
 20
1529.269357450717
 11
41554.177226311404
 21
1529.269357450717
  0
LINE
  5
25A
100
AcDbEntity
  8
1
  6
CONTINUOUS
 62
           7
100
AcDbLine
 10
41554.177226311404
 20
1549.269357450717
 11
42609.177226311404
 21
1549.269357450717
  0
LINE
  5
259
100
AcDbEntity
  8
1
  6
CONTINUOUS
 62
           7
100
AcDbLine
 10
40494.177226311411
 20
1639.269357450717
 11
40494.177226311411
 21
1433.269357450717
  0
LINE
  5
258
100
AcDbEntity
  8
1
  6
CONTINUOUS
 62
           7
100
AcDbLine
 10
40497.177226311411
 20
1639.269357450717
 11
40497.177226311411
 21
1433.269357450717
  0
LINE
  5
257
100
AcDbEntity
  8
1
  6
CONTINUOUS
 62
           7
100
AcDbLine
 10
40541.177226311411
 20
1514.269357450717
 11
40541.177226311411
 21
1529.269357450717
  0
LINE
  5
256
100
AcDbEntity
  8
1
  6
CONTINUOUS
 62
           7
100
AcDbLine
 10
40554.177226311411
 20
1514.269357450717
 11
40541.177226311411
 21
1514.269357450717
  0
LINE
  5
255
100
AcDbEntity
  8
1
  6
CONTINUOUS
 62
           7
100
AcDbLine
 10
40554.177226311411
 20
1529.269357450717
 11
40554.177226311411
 21
1514.269357450717
  0
LINE
  5
254
100
AcDbEntity
  8
1
  6
CONTINUOUS
 62
           7
100
AcDbLine
 10
40541.177226311411
 20
1529.269357450717
 11
40554.177226311411
 21
1529.269357450717
  0
LINE
  5
253
100
AcDbEntity
  8
1
  6
CONTINUOUS
 62
           7
100
AcDbLine
 10
40546.177226311411
 20
1514.269357450717
 11
40546.177226311411
 21
1433.269357450717
  0
LINE
  5
252
100
AcDbEntity
  8
1
  6
CONTINUOUS
 62
           7
100
AcDbLine
 10
40521.177226311411
 20
1359.269357450718
 11
40521.177226311411
 21
1364.269357450717
  0
LINE
  5
251
100
AcDbEntity
  8
1
  6
DOT_CENTER
 62
           3
100
AcDbLine
 10
41554.177226311404
 20
1758.074403565441
 11
41554.177226311404
 21
1313.269357450717
  0
LINE
  5
250
100
AcDbEntity
  8
1
  6
CONTINUOUS
 62
           7
100
AcDbLine
 10
41554.177226311404
 20
1325.269357450717
 11
40521.177226311411
 21
1325.269357450717
  0
LINE
  5
24F
100
AcDbEntity
  8
1
  6
CONTINUOUS
 62
           7
100
AcDbLine
 10
40509.177226311411
 20
1529.269357450717
 11
40509.177226311411
 21
1549.269357450717
  0
LINE
  5
24E
100
AcDbEntity
  8
1
  6
CONTINUOUS
 62
           7
100
AcDbLine
 10
41554.177226311404
 20
1529.269357450717
 11
40509.177226311411
 21
1529.269357450717
  0
LINE
  5
24D
100
AcDbEntity
  8
1
  6
CONTINUOUS
 62
           7
100
AcDbLine
 10
40509.177226311411
 20
1549.269357450717
 11
41554.177226311404
 21
1549.269357450717
  0
LINE
  5
24C
100
AcDbEntity
  8
1
  6
CONTINUOUS
 62
           7
100
AcDbLine
 10
40407.177226311411
 20
1639.269357450717
 11
40601.177226311411
 21
1639.269357450717
  0
LINE
  5
24B
100
AcDbEntity
  8
1
  6
CONTINUOUS
 62
           7
100
AcDbLine
 10
40601.177226311411
 20
1639.269357450717
 11
40601.177226311411
 21
1551.269357450717
  0
LINE
  5
24A
100
AcDbEntity
  8
1
  6
CONTINUOUS
 62
           7
100
AcDbLine
 10
40604.177226311411
 20
1642.269357450717
 11
40604.177226311411
 21
1551.269357450717
  0
LINE
  5
249
100
AcDbEntity
  8
1
  6
DOT_CENTER
 62
           3
100
AcDbLine
 10
40376.177226311411
 20
1379.269357450717
 11
41487.322867868759
 21
1379.269357450717
  0
LINE
  5
248
100
AcDbEntity
  8
1
  6
CONTINUOUS
 62
           7
100
AcDbLine
 10
40404.177226311411
 20
1642.269357450717
 11
40604.177226311411
 21
1642.269357450717
  0
LINE
  5
247
100
AcDbEntity
  8
1
  6
CONTINUOUS
 62
           7
100
AcDbLine
 10
40407.177226311411
 20
1639.269357450717
 11
40407.177226311411
 21
1432.269357450717
  0
LINE
  5
246
100
AcDbEntity
  8
1
  6
CONTINUOUS
 62
           7
100
AcDbLine
 10
40404.177226311411
 20
1269.269357450717
 11
40404.177226311411
 21
1308.269357450717
  0
LINE
  5
245
100
AcDbEntity
  8
1
  6
CONTINUOUS
 62
           7
100
AcDbLine
 10
38327.55774750375
 20
1565.698611025294
 11
38425.557747503743
 21
1565.6986110253
  0
LINE
  5
244
100
AcDbEntity
  8
1
  6
CONTINUOUS
 62
           7
100
AcDbLine
 10
38426.557747503743
 20
1520.698611025298
 11
38426.557747503743
 21
1507.698611025298
  0
LINE
  5
243
100
AcDbEntity
  8
1
  6
CONTINUOUS
 62
           7
100
AcDbLine
 10
38444.557747503743
 20
1554.698611025298
 11
38444.557747503743
 21
1570.698611025299
  0
LINE
  5
242
100
AcDbEntity
  8
1
  6
CONTINUOUS
 62
           7
100
AcDbLine
 10
38444.557747503743
 20
1470.698611025302
 11
38426.557747503743
 21
1470.698611025291
  0
LINE
  5
241
100
AcDbEntity
  8
1
  6
CONTINUOUS
 62
           7
100
AcDbLine
 10
38534.557747503743
 20
1561.698611025298
 11
38534.557747503743
 21
1370.698611025299
  0
LINE
  5
240
100
AcDbEntity
  8
1
  6
CONTINUOUS
 62
           7
100
AcDbLine
 10
38445.557747503743
 20
1562.698611025298
 11
38533.557747503743
 21
1562.698611025298
  0
LINE
  5
23F
100
AcDbEntity
  8
1
  6
CONTINUOUS
 62
           7
100
AcDbLine
 10
38445.557747503743
 20
1565.698611025299
 11
38533.557747503743
 21
1565.698611025298
  0
LINE
  5
23E
100
AcDbEntity
  8
1
  6
CONTINUOUS
 62
           7
100
AcDbLine
 10
38537.557747503743
 20
1561.698611025298
 11
38537.557747503743
 21
1531.03021188516
  0
LINE
  5
23D
100
AcDbEntity
  8
1
  6
CONTINUOUS
 62
           7
100
AcDbLine
 10
38533.557747503743
 20
1365.698611025299
 11
38360.598845213222
 21
1365.698611025299
  0
LINE
  5
23C
100
AcDbEntity
  8
1
  6
CONTINUOUS
 62
           7
100
AcDbLine
 10
38426.557747503743
 20
1470.698611025291
 11
38426.557747503743
 21
1675.909076033742
  0
LINE
  5
23B
100
AcDbEntity
  8
1
  6
CONTINUOUS
 62
           7
100
AcDbLine
 10
38444.557747503743
 20
1470.698611025302
 11
38426.557747503743
 21
1470.698611025291
  0
LINE
  5
23A
100
AcDbEntity
  8
1
  6
CONTINUOUS
 62
           3
100
AcDbLine
 10
38474.170286046021
 20
1694.354763440491
 11
38444.557747503743
 21
1683.34497346964
  0
LINE
  5
239
100
AcDbEntity
  8
1
  6
CONTINUOUS
 62
           3
100
AcDbLine
 10
38444.557747503743
 20
1683.34497346964
 11
38426.557747503743
 21
1675.909076033742
  0
LINE
  5
238
100
AcDbEntity
  8
1
  6
CONTINUOUS
 62
           3
100
AcDbLine
 10
38426.557747503743
 20
1675.909076033742
 11
38396.170286046021
 21
1665.354763440489
  0
LINE
  5
237
100
AcDbEntity
  8
1
  6
DOT_CENTER
 62
           3
100
AcDbLine
 10
40404.177226311411
 20
1464.08847510766
 11
40404.177226311411
 21
1308.269357450717
  0
LINE
  5
236
100
AcDbEntity
  8
1
  6
CONTINUOUS
 62
           7
100
AcDbLine
 10
42884.177226311404
 20
1452.08847510766
 11
42884.177226311404
 21
1257.269357450717
  0
LINE
  5
235
100
AcDbEntity
  8
1
  6
DOT_CENTER
 62
           3
100
AcDbLine
 10
43004.177226311404
 20
1452.08847510766
 11
42884.177226311404
 21
1452.08847510766
  0
LINE
  5
234
100
AcDbEntity
  8
1
  6
DOT_CENTER
 62
           3
100
AcDbLine
 10
43004.177226311404
 20
1367.269357450717
 11
43004.177226311404
 21
1452.08847510766
  0
LINE
  5
233
100
AcDbEntity
  8
1
  6
DOT_CENTER
 62
           3
100
AcDbLine
 10
42884.177226311404
 20
1257.269357450717
 11
43004.177226311404
 21
1257.269357450717
  0
LINE
  5
232
100
AcDbEntity
  8
1
  6
DOT_CENTER
 62
           3
100
AcDbLine
 10
43004.177226311404
 20
1257.269357450717
 11
43004.177226311404
 21
1367.269357450717
  0
LINE
  5
231
100
AcDbEntity
  8
1
  6
CONTINUOUS
 62
           7
100
AcDbLine
 10
40601.177226311411
 20
1551.269357450717
 11
40604.177226311411
 21
1551.269357450717
  0
LINE
  5
230
100
AcDbEntity
  8
1
  6
CONTINUOUS
 62
           7
100
AcDbLine
 10
40601.177226311433
 20
1527.269357450717
 11
40604.177226311411
 21
1527.269357450717
  0
LINE
  5
22F
100
AcDbEntity
  8
1
  6
CONTINUOUS
 62
           7
100
AcDbLine
 10
40604.177226311411
 20
1527.269357450717
 11
40604.177226311411
 21
1433.269357450717
  0
LINE
  5
22E
100
AcDbEntity
  8
1
  6
CONTINUOUS
 62
           7
100
AcDbLine
 10
40604.177226311411
 20
1433.269357450717
 11
41554.177226311404
 21
1433.269357450717
  0
LINE
  5
22D
100
AcDbEntity
  8
1
  6
CONTINUOUS
 62
           7
100
AcDbLine
 10
40601.177226311433
 20
1527.269357450717
 11
40601.177226311433
 21
1433.269357450717
  0
LINE
  5
22C
100
AcDbEntity
  8
1
  6
CONTINUOUS
 62
           7
100
AcDbLine
 10
40601.177226311433
 20
1433.269357450717
 11
40604.177226311411
 21
1433.269357450717
  0
LINE
  5
22B
100
AcDbEntity
  8
1
  6
CONTINUOUS
 62
           7
100
AcDbLine
 10
40494.177226311411
 20
1433.269357450717
 11
40497.177226311411
 21
1433.269357450717
  0
LINE
  5
22A
100
AcDbEntity
  8
1
  6
CONTINUOUS
 62
           7
100
AcDbLine
 10
40549.177226311411
 20
1514.269357450717
 11
40549.177226311411
 21
1433.269357450717
  0
LINE
  5
229
100
AcDbEntity
  8
1
  6
CONTINUOUS
 62
           7
100
AcDbLine
 10
40549.177226311411
 20
1325.269357450717
 11
40549.177226311411
 21
1244.269357450718
  0
LINE
  5
228
100
AcDbEntity
  8
1
  6
CONTINUOUS
 62
           7
100
AcDbLine
 10
40509.177226311411
 20
1209.269357450718
 11
40509.177226311411
 21
1229.269357450718
  0
LINE
  5
227
100
AcDbEntity
  8
1
  6
CONTINUOUS
 62
           7
100
AcDbLine
 10
40546.177226311411
 20
1325.269357450717
 11
40546.177226311411
 21
1244.269357450718
  0
LINE
  5
226
100
AcDbEntity
  8
1
  6
CONTINUOUS
 62
           7
100
AcDbLine
 10
40554.177226311411
 20
1229.269357450718
 11
40541.177226311411
 21
1229.269357450718
  0
LINE
  5
225
100
AcDbEntity
  8
1
  6
CONTINUOUS
 62
           7
100
AcDbLine
 10
40554.177226311411
 20
1244.269357450718
 11
40554.177226311411
 21
1229.269357450718
  0
LINE
  5
224
100
AcDbEntity
  8
1
  6
CONTINUOUS
 62
           7
100
AcDbLine
 10
40541.177226311411
 20
1244.269357450718
 11
40554.177226311411
 21
1244.269357450718
  0
LINE
  5
223
100
AcDbEntity
  8
1
  6
CONTINUOUS
 62
           7
100
AcDbLine
 10
40541.177226311411
 20
1229.269357450718
 11
40541.177226311411
 21
1244.269357450718
  0
LINE
  5
222
100
AcDbEntity
  8
1
  6
CONTINUOUS
 62
           7
100
AcDbLine
 10
40549.177226311411
 20
1325.269357450717
 11
40546.177226311411
 21
1325.269357450717
  0
LINE
  5
221
100
AcDbEntity
  8
1
  6
CONTINUOUS
 62
           7
100
AcDbLine
 10
40509.177226311411
 20
1229.269357450718
 11
41554.177226311404
 21
1229.269357450718
  0
LINE
  5
220
100
AcDbEntity
  8
1
  6
CONTINUOUS
 62
           7
100
AcDbLine
 10
41554.177226311404
 20
1209.269357450718
 11
40509.177226311411
 21
1209.269357450718
  0
LINE
  5
21F
100
AcDbEntity
  8
1
  6
CONTINUOUS
 62
           7
100
AcDbLine
 10
40509.177226311411
 20
1209.269357450718
 11
40509.177226311411
 21
1229.269357450718
  0
LINE
  5
21E
100
AcDbEntity
  8
1
  6
CONTINUOUS
 62
           7
100
AcDbLine
 10
41554.177226311404
 20
1229.269357450718
 11
42609.177226311411
 21
1229.269357450718
  0
LINE
  5
21D
100
AcDbEntity
  8
1
  6
CONTINUOUS
 62
           7
100
AcDbLine
 10
42609.177226311404
 20
1209.269357450718
 11
41554.177226311404
 21
1209.269357450718
  0
LINE
  5
21C
100
AcDbEntity
  8
1
  6
CONTINUOUS
 62
           7
100
AcDbLine
 10
42559.177226311404
 20
1244.269357450718
 11
42559.177226311404
 21
1325.269357450717
  0
LINE
  5
21B
100
AcDbEntity
  8
1
  6
CONTINUOUS
 62
           7
100
AcDbLine
 10
42562.177226311404
 20
1244.269357450718
 11
42562.177226311404
 21
1325.269357450717
  0
LINE
  5
21A
100
AcDbEntity
  8
1
  6
CONTINUOUS
 62
           7
100
AcDbLine
 10
42567.177226311404
 20
1229.269357450718
 11
42554.177226311404
 21
1229.269357450718
  0
LINE
  5
219
100
AcDbEntity
  8
1
  6
CONTINUOUS
 62
           7
100
AcDbLine
 10
42554.177226311404
 20
1229.269357450718
 11
42554.177226311404
 21
1244.269357450718
  0
LINE
  5
218
100
AcDbEntity
  8
1
  6
CONTINUOUS
 62
           7
100
AcDbLine
 10
42554.177226311404
 20
1244.269357450718
 11
42567.177226311404
 21
1244.269357450718
  0
LINE
  5
217
100
AcDbEntity
  8
1
  6
CONTINUOUS
 62
           7
100
AcDbLine
 10
42567.177226311404
 20
1244.269357450718
 11
42567.177226311404
 21
1229.269357450718
  0
LINE
  5
216
100
AcDbEntity
  8
1
  6
CONTINUOUS
 62
           7
100
AcDbLine
 10
42609.177226311404
 20
1209.269357450718
 11
41554.177226311404
 21
1209.269357450718
  0
LINE
  5
215
100
AcDbEntity
  8
1
  6
CONTINUOUS
 62
           7
100
AcDbLine
 10
42609.177226311411
 20
1229.269357450718
 11
42609.177226311404
 21
1209.269357450718
  0
LINE
  5
214
100
AcDbEntity
  8
1
  6
CONTINUOUS
 62
           7
100
AcDbLine
 10
40521.177226311411
 20
1394.269357450717
 11
40407.177226311411
 21
1394.269357450717
  0
LINE
  5
213
100
AcDbEntity
  8
1
  6
CONTINUOUS
 62
           7
100
AcDbLine
 10
40521.177226311411
 20
1394.269357450717
 11
40521.177226311411
 21
1364.269357450717
  0
LINE
  5
212
100
AcDbEntity
  8
1
  6
CONTINUOUS
 62
           7
100
AcDbLine
 10
40521.177226311411
 20
1394.269357450717
 11
40521.177226311411
 21
1399.269357450718
  0
LINE
  5
211
100
AcDbEntity
  8
1
  6
CONTINUOUS
 62
           7
100
AcDbLine
 10
40407.177226311411
 20
1394.269357450717
 11
40407.177226311411
 21
1364.269357450717
  0
LINE
  5
210
100
AcDbEntity
  8
1
  6
CONTINUOUS
 62
           7
100
AcDbLine
 10
40521.177226311411
 20
1364.269357450717
 11
40407.177226311411
 21
1364.269357450717
  0
LINE
  5
20F
100
AcDbEntity
  8
1
  6
CONTINUOUS
 62
           7
100
AcDbLine
 10
40521.177226311411
 20
1364.269357450717
 11
40521.177226311411
 21
1394.269357450717
  0
LINE
  5
20E
100
AcDbEntity
  8
1
  6
CONTINUOUS
 62
           7
100
AcDbLine
 10
40521.177226311411
 20
1364.269357450717
 11
40521.177226311411
 21
1325.269357450717
  0
LINE
  5
20D
100
AcDbEntity
  8
1
  6
CONTINUOUS
 62
           7
100
AcDbLine
 10
40407.177226311411
 20
1364.269357450717
 11
40407.177226311411
 21
1308.269357450717
  0
LINE
  5
20C
100
AcDbEntity
  8
1
  6
CONTINUOUS
 62
           7
100
AcDbLine
 10
40521.177226311411
 20
1432.269357450717
 11
40407.177226311411
 21
1432.269357450717
  0
LINE
  5
20B
100
AcDbEntity
  8
1
  6
CONTINUOUS
 62
           7
100
AcDbLine
 10
40521.177226311411
 20
1432.269357450717
 11
40521.177226311411
 21
1394.269357450717
  0
LINE
  5
20A
100
AcDbEntity
  8
1
  6
CONTINUOUS
 62
           7
100
AcDbLine
 10
40407.177226311411
 20
1432.269357450717
 11
40407.177226311411
 21
1394.269357450717
  0
LINE
  5
209
100
AcDbEntity
  8
1
  6
CONTINUOUS
 62
           7
100
AcDbLine
 10
40407.177226311411
 20
1308.269357450717
 11
40404.177226311411
 21
1308.269357450717
  0
LINE
  5
208
100
AcDbEntity
  8
1
  6
CONTINUOUS
 62
           7
100
AcDbLine
 10
40404.177226311411
 20
1308.269357450717
 11
40404.177226311411
 21
1464.08847510766
  0
LINE
  5
207
100
AcDbEntity
  8
1
  6
DOT_CENTER
 62
           3
100
AcDbLine
 10
40404.177226311411
 20
1308.269357450717
 11
40404.177226311411
 21
1269.269357450717
  0
LINE
  5
206
100
AcDbEntity
  8
1
  6
DOT_CENTER
 62
           3
100
AcDbLine
 10
42884.177226311404
 20
1257.269357450717
 11
42884.177226311404
 21
1452.08847510766
  0
LINE
  5
205
100
AcDbEntity
  8
1
  6
CONTINUOUS
 62
           7
100
AcDbLine
 10
42504.177226311382
 20
1551.269357450717
 11
42507.177226311382
 21
1551.269357450717
  0
LINE
  5
204
100
AcDbEntity
  8
1
  6
CONTINUOUS
 62
           7
100
AcDbLine
 10
42504.177226311382
 20
1551.269357450717
 11
42504.177226311382
 21
1642.269357450717
  0
LINE
  5
203
100
AcDbEntity
  8
1
  6
CONTINUOUS
 62
           7
100
AcDbLine
 10
42507.177226311382
 20
1551.269357450717
 11
42507.177226311382
 21
1639.269357450717
  0
LINE
  5
202
100
AcDbEntity
  8
1
  6
CONTINUOUS
 62
           7
100
AcDbLine
 10
42704.177226311382
 20
1464.08847510766
 11
42704.177226311382
 21
1308.269357450717
  0
LINE
  5
201
100
AcDbEntity
  8
1
  6
CONTINUOUS
 62
           7
100
AcDbLine
 10
42704.177226311382
 20
1308.269357450717
 11
42701.177226311382
 21
1308.269357450717
  0
LINE
  5
200
100
AcDbEntity
  8
1
  6
CONTINUOUS
 62
           7
100
AcDbLine
 10
42701.177226311382
 20
1394.269357450717
 11
42701.177226311382
 21
1432.269357450717
  0
LINE
  5
1FF
100
AcDbEntity
  8
1
  6
CONTINUOUS
 62
           7
100
AcDbLine
 10
42701.177226311382
 20
1308.269357450717
 11
42701.177226311382
 21
1364.269357450717
  0
LINE
  5
1FE
100
AcDbEntity
  8
1
  6
CONTINUOUS
 62
           7
100
AcDbLine
 10
42701.177226311382
 20
1364.269357450717
 11
42701.177226311382
 21
1394.269357450717
  0
LINE
  5
1FD
100
AcDbEntity
  8
1
  6
CONTINUOUS
 62
           7
100
AcDbLine
 10
42611.177226311382
 20
1433.269357450717
 11
42614.177226311382
 21
1433.269357450717
  0
LINE
  5
1FC
100
AcDbEntity
  8
1
  6
DOT_CENTER
 62
           3
100
AcDbLine
 10
42704.177226311382
 20
1308.269357450717
 11
42704.177226311382
 21
1464.08847510766
  0
LINE
  5
1FB
100
AcDbEntity
  8
1
  6
CONTINUOUS
 62
           7
100
AcDbLine
 10
42701.177226311382
 20
1432.269357450717
 11
42701.177226311382
 21
1433.269357450717
  0
LINE
  5
1FA
100
AcDbEntity
  8
1
  6
CONTINUOUS
 62
           7
100
AcDbLine
 10
42611.177226311382
 20
1433.269357450717
 11
42611.177226311382
 21
1639.269357450717
  0
LINE
  5
1F9
100
AcDbEntity
  8
1
  6
CONTINUOUS
 62
           7
100
AcDbLine
 10
42614.177226311382
 20
1433.269357450717
 11
42614.177226311382
 21
1639.269357450717
  0
LINE
  5
1F8
100
AcDbEntity
  8
1
  6
CONTINUOUS
 62
           7
100
AcDbLine
 10
42704.177226311382
 20
1642.269357450717
 11
42704.177226311382
 21
1362.08847510766
  0
LINE
  5
1F7
100
AcDbEntity
  8
1
  6
CONTINUOUS
 62
           7
100
AcDbLine
 10
42701.177226311382
 20
1394.269357450717
 11
42587.177226311382
 21
1394.269357450717
  0
LINE
  5
1F6
100
AcDbEntity
  8
1
  6
CONTINUOUS
 62
           7
100
AcDbLine
 10
42701.177226311382
 20
1364.269357450717
 11
42587.177226311382
 21
1364.269357450717
  0
LINE
  5
1F5
100
AcDbEntity
  8
1
  6
CONTINUOUS
 62
           7
100
AcDbLine
 10
42504.177226311382
 20
1642.269357450717
 11
42704.177226311382
 21
1642.269357450717
  0
LINE
  5
1F4
100
AcDbEntity
  8
1
  6
CONTINUOUS
 62
           7
100
AcDbLine
 10
42507.177226311382
 20
1639.269357450717
 11
42701.177226311382
 21
1639.269357450717
  0
LINE
  5
1F3
100
AcDbEntity
  8
1
  6
DOT_CENTER
 62
           3
100
AcDbLine
 10
41487.322867868759
 20
1379.269357450717
 11
42967.006560939793
 21
1379.269357450717
  0
LINE
  5
1F2
100
AcDbEntity
  8
1
  6
CONTINUOUS
 62
           7
100
AcDbLine
 10
42599.177226311389
 20
1529.269357450717
 11
41554.177226311404
 21
1529.269357450717
  0
LINE
  5
1F1
100
AcDbEntity
  8
1
  6
CONTINUOUS
 62
           7
100
AcDbLine
 10
42504.177226311389
 20
1433.269357450717
 11
42507.177226311382
 21
1433.269357450717
  0
LINE
  5
1F0
100
AcDbEntity
  8
1
  6
CONTINUOUS
 62
           7
100
AcDbLine
 10
42507.177226311382
 20
1433.269357450717
 11
42507.177226311382
 21
1527.269357450717
  0
LINE
  5
1EF
100
AcDbEntity
  8
1
  6
CONTINUOUS
 62
           7
100
AcDbLine
 10
42504.177226311389
 20
1433.269357450717
 11
42504.177226311389
 21
1527.269357450717
  0
LINE
  5
1EE
100
AcDbEntity
  8
1
  6
CONTINUOUS
 62
           7
100
AcDbLine
 10
42504.177226311389
 20
1527.269357450717
 11
42507.177226311382
 21
1527.269357450717
  0
LINE
  5
1ED
100
AcDbEntity
  8
1
  6
CONTINUOUS
 62
           7
100
AcDbLine
 10
42587.177226311389
 20
1433.269357450717
 11
42701.177226311382
 21
1433.269357450717
  0
LINE
  5
1EC
100
AcDbEntity
  8
1
  6
CONTINUOUS
 62
           7
100
AcDbLine
 10
42701.177226311382
 20
1433.269357450717
 11
42701.177226311382
 21
1639.269357450717
  0
LINE
  5
1EB
100
AcDbEntity
  8
1
  6
CONTINUOUS
 62
           7
100
AcDbLine
 10
42587.177226311389
 20
1431.269357450717
 11
42701.177226311382
 21
1431.269357450717
  0
LINE
  5
1EA
100
AcDbEntity
  8
1
  6
CONTINUOUS
 62
           7
100
AcDbLine
 10
40521.177226311411
 20
1430.269357450717
 11
40407.177226311411
 21
1430.269357450717
  0
ENDBLK
  5
2E4
100
AcDbEntity
  8
0
100
AcDbBlockEnd
  0
BLOCK
  5
47
100
AcDbEntity
  8
0
100
AcDbBlockBegin
  2
_SEITENTEILE_DS
 70
           0
 10
9516.618349201362
 20
-797.513018161186
 30
0.0
  3
_SEITENTEILE_DS
  1

  0
INSERT
  5
48
100
AcDbEntity
  8
0
100
AcDbBlockReference
  2
SEITENPROFIL_DS
 10
8128.528608788558
 20
-1321.124398798776
  0
ENDBLK
  5
2E5
100
AcDbEntity
  8
0
100
AcDbBlockEnd
  0
BLOCK
  5
4A
100
AcDbEntity
  8
0
100
AcDbBlockBegin
  2
MAUER
 70
           0
 10
1622.323087333471
 20
828.269357450718
 30
0.0
  3
MAUER
  1

  0
HATCH
  5
2FA
100
AcDbEntity
  8
0
  6
CONTINUOUS
 62
           6
100
AcDbHatch
 10
0.0
 20
0.0
 30
0.0
210
0.0
220
0.0
230
1.0
  2
USER
 70
           0
 71
           1
 91
        1
 92
        1
 93
        4
 72
           1
 10
43012.6890898739
 20
1792.2693574507159
 11
42504.177226311404
 21
1792.2693574507171
 72
           1
 10
43012.6890898739
 20
1642.2693574507171
 11
43012.6890898739
 21
1792.2693574507159
 72
           1
 10
42504.177226311404
 20
1642.2693574507171
 11
43012.6890898739
 21
1642.2693574507171
 72
           1
 10
42504.177226311404
 20
1792.2693574507171
 11
42504.177226311404
 21
1642.2693574507171
 97
        4
330
2E8
330
2E9
330
2E6
330
2E7
 75
           1
 76
           0
 52
45.0
 41
50.0
 77
           0
 78
           1
 53
45.0
 43
0.0
 44
0.0
 45
-35.355339059327378
 46
35.355339059327378
 79
           0
 98
        1
 10
0.0
 20
0.0
  0
HATCH
  5
2F9
100
AcDbEntity
  8
0
  6
CONTINUOUS
 62
           6
100
AcDbHatch
 10
0.0
 20
0.0
 30
0.0
210
0.0
220
0.0
230
1.0
  2
USER
 70
           0
 71
           1
 91
        1
 92
        1
 93
        4
 72
           1
 10
40604.177226311411
 20
1792.2693574507159
 11
40204.177226311404
 21
1792.2693574507171
 72
           1
 10
40204.177226311404
 20
1792.2693574507171
 11
40204.177226311404
 21
1642.2693574507171
 72
           1
 10
40204.177226311404
 20
1642.2693574507171
 11
40604.177226311411
 21
1642.2693574507171
 72
           1
 10
40604.177226311411
 20
1642.2693574507171
 11
40604.177226311411
 21
1792.2693574507159
 97
        4
330
2EC
330
2ED
330
2EA
330
2EB
 75
           1
 76
           0
 52
45.0
 41
50.0
 77
           0
 78
           1
 53
45.0
 43
0.0
 44
0.0
 45
-35.355339059327378
 46
35.355339059327378
 79
           0
 98
        1
 10
0.0
 20
0.0
  0
DIMENSION
  5
2F8
100
AcDbEntity
  8
0
100
AcDbDimension
  2
*D44
 10
42504.177226311411
 20
1860.428265145567
 11
41543.480726291622
 21
1968.7615984789
 31
0.0
  1
<>
  3
ME10_DIM_13
100
AcDbAlignedDimension
 13
40604.177226311411
 23
1792.269357450716
 14
42504.177226311404
 24
1792.269357450717
100
AcDbRotatedDimension
  0
LINE
  5
2ED
100
AcDbEntity
  8
1
  6
CONTINUOUS
 62
         250
100
AcDbLine
 10
40204.177226311404
 20
1792.269357450717
 11
40204.177226311404
 21
1642.269357450717
  0
LINE
  5
2EC
100
AcDbEntity
  8
1
  6
CONTINUOUS
 62
           7
100
AcDbLine
 10
40604.177226311411
 20
1792.269357450716
 11
40204.177226311404
 21
1792.269357450717
  0
LINE
  5
2EB
100
AcDbEntity
  8
1
  6
CONTINUOUS
 62
           7
100
AcDbLine
 10
40604.177226311411
 20
1642.269357450717
 11
40604.177226311411
 21
1792.269357450716
  0
LINE
  5
2EA
100
AcDbEntity
  8
1
  6
CONTINUOUS
 62
           7
100
AcDbLine
 10
40204.177226311404
 20
1642.269357450717
 11
40604.177226311411
 21
1642.269357450717
  0
LINE
  5
2E9
100
AcDbEntity
  8
1
  6
CONTINUOUS
 62
         250
100
AcDbLine
 10
43012.6890898739
 20
1642.269357450717
 11
43012.6890898739
 21
1792.269357450716
  0
LINE
  5
2E8
100
AcDbEntity
  8
1
  6
CONTINUOUS
 62
           7
100
AcDbLine
 10
43012.6890898739
 20
1792.269357450716
 11
42504.177226311404
 21
1792.269357450717
  0
LINE
  5
2E7
100
AcDbEntity
  8
1
  6
CONTINUOUS
 62
           7
100
AcDbLine
 10
42504.177226311404
 20
1792.269357450717
 11
42504.177226311404
 21
1642.269357450717
  0
LINE
  5
2E6
100
AcDbEntity
  8
1
  6
CONTINUOUS
 62
           7
100
AcDbLine
 10
42504.177226311404
 20
1642.269357450717
 11
43012.6890898739
 21
1642.269357450717
  0
ENDBLK
  5
2FB
100
AcDbEntity
  8
0
100
AcDbBlockEnd
  0
BLOCK
  5
4C
100
AcDbEntity
  8
0
100
AcDbBlockBegin
  2
DRAUFSICHT_PRINZIPZG
 70
           0
 10
16970.0
 20
20430.940657297469
 30
0.0
  3
DRAUFSICHT_PRINZIPZG
  1

  0
INSERT
  5
4D
100
AcDbEntity
  8
0
100
AcDbBlockReference
  2
VERBINDUNGSPROFIL_DS
 10
10097.729251104291
 20
5463.978888788721
  0
INSERT
  5
4E
100
AcDbEntity
  8
0
100
AcDbBlockReference
  2
_ANTRIEB_DS
 10
543.459974590814
 20
-3138.223710638835
  0
INSERT
  5
4F
100
AcDbEntity
  8
0
100
AcDbBlockReference
  2
_SEITENTEILE_DS
 10
9516.618349201362
 20
-797.513018161186
  0
INSERT
  5
50
100
AcDbEntity
  8
0
100
AcDbBlockReference
  2
MAUER
 10
1622.323087333471
 20
828.269357450718
  0
ENDBLK
  5
2FC
100
AcDbEntity
  8
0
100
AcDbBlockEnd
  0
BLOCK
  5
52
100
AcDbEntity
  8
0
100
AcDbBlockBegin
  2
_TABELLE
 70
           0
 10
8160.006737285327
 20
10095.57096052946
 30
0.0
  3
_TABELLE
  1

  0
MTEXT
  5
2FE
100
AcDbEntity
  8
1
 62
           3
100
AcDbMText
 10
-3064.276554627088
 20
-2467.29024522715
 30
0.0
 40
2.5
 41
0.0
 71
           7
 72
           1
  1
Draufsicht ohne Motor- u. Wellenverkleidung\PTop view without motor- and top roll cover
  7
CONVERTER_2
  0
ENDBLK
  5
2FF
100
AcDbEntity
  8
0
100
AcDbBlockEnd
  0
BLOCK
  5
54
100
AcDbEntity
  8
0
100
AcDbBlockBegin
  2
_RAHMEN
 70
           0
 10
-4378.196350622077
 20
-2534.429039470544
 30
0.0
  3
_RAHMEN
  1

  0
LINE
  5
304
100
AcDbEntity
  8
1
  6
CONTINUOUS
 62
         250
100
AcDbLine
 10
-2974.517945925331
 20
-2231.429039470544
 11
-2974.517945925331
 21
-2516.429039470544
  0
LINE
  5
303
100
AcDbEntity
  8
1
  6
CONTINUOUS
 62
         250
100
AcDbLine
 10
-3159.517945925331
 20
-2516.429039470544
 11
-2974.517945925331
 21
-2516.429039470544
  0
LINE
  5
302
100
AcDbEntity
  8
1
  6
CONTINUOUS
 62
         250
100
AcDbLine
 10
-3159.517945925331
 20
-2231.429039470544
 11
-3159.517945925331
 21
-2516.429039470544
  0
LINE
  5
301
100
AcDbEntity
  8
1
  6
CONTINUOUS
 62
         250
100
AcDbLine
 10
-3162.721033832735
 20
-2375.407415101733
 11
-3169.721033832735
 21
-2375.407415101733
  0
LINE
  5
300
100
AcDbEntity
  8
1
  6
CONTINUOUS
 62
         250
100
AcDbLine
 10
-2974.517945925331
 20
-2231.429039470544
 11
-3159.517945925331
 21
-2231.429039470544
  0
ENDBLK
  5
305
100
AcDbEntity
  8
0
100
AcDbBlockEnd
  0
BLOCK
  5
56
100
AcDbEntity
  8
0
100
AcDbBlockBegin
  2
_ZEICHNUNGSNUMMER
 70
           0
 10
-4207.208625843153
 20
-2531.638536677262
 30
0.0
  3
_ZEICHNUNGSNUMMER
  1

  0
MTEXT
  5
306
100
AcDbEntity
  8
0
 62
           3
100
AcDbMText
 10
-3008.733309053811
 20
-2512.888536677262
 30
0.0
 40
2.5
 41
0.0
 71
           7
 72
           1
  1
Zg.-Nr.8300R0031/ Rev.c\PStand: 2010-02-05
  7
CONVERTER_2
  0
ENDBLK
  5
307
100
AcDbEntity
  8
0
100
AcDbBlockEnd
  0
BLOCK
  5
58
100
AcDbEntity
  8
0
100
AcDbBlockBegin
  2
__BERSCHRIFT
 70
           0
 10
-4365.471175383441
 20
-2293.637303215475
 30
0.0
  3
__BERSCHRIFT
  1

  0
TEXT
  5
30B
100
AcDbEntity
  8
0
 62
           1
100
AcDbText
 10
-3156.995858594203
 20
-2269.887303215563
 40
3.8
  1
General Drawing, External High Speed Industrial Door RapidProtect 2000
 41
0.608
  7
CONVERTER_4
100
AcDbText
  0
MTEXT
  5
309
100
AcDbEntity
  8
0
 62
           7
100
AcDbMText
 10
-3156.782450772862
 20
-2261.484230589794
 30
0.0
 40
5.0
 41
0.0
 71
           7
 72
           1
  1
Prinzipzeichnung\PAluminiumrolltor RapidProtect 2000
  7
CONVERTER_3
  0
ENDBLK
  5
30C
100
AcDbEntity
  8
0
100
AcDbBlockEnd
  0
BLOCK
  5
5A
100
AcDbEntity
  8
0
100
AcDbBlockBegin
  2
VORLAGE__3
 70
           0
 10
-2436.797453591143
 20
-912.13511450995
 30
0.0
  3
VORLAGE__3
  1

  0
INSERT
  5
5B
100
AcDbEntity
  8
0
100
AcDbBlockReference
  2
_TABELLE
 10
8160.006737285327
 20
10095.57096052946
  0
INSERT
  5
5C
100
AcDbEntity
  8
0
100
AcDbBlockReference
  2
_RAHMEN
 10
-4378.196350622077
 20
-2534.429039470544
  0
INSERT
  5
5D
100
AcDbEntity
  8
0
100
AcDbBlockReference
  2
_ZEICHNUNGSNUMMER
 10
-4207.208625843153
 20
-2531.638536677262
  0
INSERT
  5
5E
100
AcDbEntity
  8
0
100
AcDbBlockReference
  2
__BERSCHRIFT
 10
-4365.471175383441
 20
-2293.637303215475
  0
ENDBLK
  5
30D
100
AcDbEntity
  8
0
100
AcDbBlockEnd
  0
BLOCK
  5
60
100
AcDbEntity
  8
0
100
AcDbBlockBegin
  2
_LOGO
 70
           0
 10
1619.142938593877
 20
-2841.727337345499
 30
0.0
  3
_LOGO
  1

  0
HATCH
  5
40F
100
AcDbEntity
  8
0
  6
CONTINUOUS
 62
           6
100
AcDbHatch
 10
0.0
 20
0.0
 30
0.0
210
0.0
220
0.0
230
1.0
  2
USER
 70
           0
 71
           1
 91
        1
 92
        1
 93
       10
 72
           1
 10
3110.2863673791799
 20
-2820.2438792120688
 11
3113.995458288292
 21
-2820.2438792120688
 72
           1
 10
3110.2863673791799
 20
-2820.2438792120688
 11
3110.2863673791799
 21
-2828.098424666598
 72
           1
 10
3110.2863673791799
 20
-2828.098424666598
 11
3112.6863673792
 21
-2828.098424666598
 72
           1
 10
3112.6863673792
 20
-2828.098424666598
 11
3112.6863673792
 21
-2823.298424666621
 72
           1
 10
3112.6863673792
 20
-2823.298424666621
 11
3114.4318219246279
 21
-2828.098424666598
 72
           1
 10
3114.4318219246279
 20
-2828.098424666598
 11
3118.14091283374
 21
-2828.098424666598
 72
           1
 10
3118.14091283374
 20
-2828.098424666598
 11
3118.14091283374
 21
-2820.2438792120688
 72
           1
 10
3115.7409128337199
 20
-2820.2438792120688
 11
3118.14091283374
 21
-2820.2438792120688
 72
           1
 10
3115.7409128337199
 20
-2820.2438792120688
 11
3115.7409128337199
 21
-2825.0438792120781
 72
           1
 10
3115.7409128337199
 20
-2825.0438792120781
 11
3113.995458288292
 21
-2820.2438792120688
 97
       10
330
38F
330
395
330
3C4
330
392
330
391
330
38E
330
394
330
38D
330
393
330
390
 75
           1
 76
           0
 52
45.0
 41
0.109090909091
 77
           0
 78
           1
 53
45.0
 43
-1527.713539482904
 44
-1255.429565355026
 45
-0.077138921583987
 46
0.077138921583987
 79
           0
 98
        1
 10
0.0
 20
0.0
  0
HATCH
  5
40E
100
AcDbEntity
  8
0
  6
CONTINUOUS
 62
           6
100
AcDbHatch
 10
0.0
 20
0.0
 30
0.0
210
0.0
220
0.0
230
1.0
  2
USER
 70
           0
 71
           1
 91
        2
 92
        1
 93
        8
 72
           1
 10
3103.3045491973512
 20
-2820.2438792120688
 11
3107.0136401064628
 21
-2820.2438792120688
 72
           1
 10
3103.3045491973512
 20
-2820.2438792120688
 11
3100.6863673791649
 21
-2828.098424666598
 72
           1
 10
3103.5227310155478
 20
-2828.098424666598
 11
3100.6863673791649
 21
-2828.098424666598
 72
           1
 10
3103.5227310155478
 20
-2828.098424666598
 11
3103.8560643489
 21
-2826.8984246666041
 72
           1
 10
3103.8560643489
 20
-2826.8984246666041
 11
3106.4621249548882
 21
-2826.8984246666041
 72
           1
 10
3106.4621249548882
 20
-2826.8984246666041
 11
3106.7954582882362
 21
-2828.098424666598
 72
           1
 10
3106.7954582882362
 20
-2828.098424666598
 11
3109.63182192459
 21
-2828.098424666598
 72
           1
 10
3107.0136401064628
 20
-2820.2438792120688
 11
3109.63182192459
 21
-2828.098424666598
 97
        8
330
39E
330
39D
330
3A0
330
399
330
39B
330
396
330
39F
330
39C
 92
       16
 93
        3
 72
           1
 10
3104.340912833728
 20
-2825.1529701211471
 11
3105.977276470087
 21
-2825.1529701211471
 72
           1
 10
3105.1590946518781
 20
-2822.2075155756938
 11
3105.977276470087
 21
-2825.1529701211471
 72
           1
 10
3104.340912833728
 20
-2825.1529701211471
 11
3105.1590946518781
 21
-2822.2075155756938
 97
        3
330
39A
330
398
330
397
 75
           1
 76
           0
 52
45.0
 41
0.109090909091
 77
           0
 78
           1
 53
45.0
 43
-1527.713539482904
 44
-1255.429565355026
 45
-0.077138921583987
 46
0.077138921583987
 79
           0
 98
        1
 10
0.0
 20
0.0
  0
HATCH
  5
40D
100
AcDbEntity
  8
0
  6
CONTINUOUS
 62
           6
100
AcDbHatch
 10
0.0
 20
0.0
 30
0.0
210
0.0
220
0.0
230
1.0
  2
USER
 70
           0
 71
           1
 91
        1
 92
        1
 93
        6
 72
           1
 10
3086.2863673791421
 20
-2820.2438792120688
 11
3089.3409128337512
 21
-2820.2438792120688
 72
           1
 10
3086.2863673791421
 20
-2828.098424666598
 11
3086.2863673791421
 21
-2820.2438792120688
 72
           1
 10
3092.177276470105
 20
-2828.098424666598
 11
3086.2863673791421
 21
-2828.098424666598
 72
           1
 10
3092.177276470105
 20
-2826.134788302973
 11
3092.177276470105
 21
-2828.098424666598
 72
           1
 10
3089.3409128337512
 20
-2826.134788302973
 11
3092.177276470105
 21
-2826.134788302973
 72
           1
 10
3089.3409128337512
 20
-2820.2438792120688
 11
3089.3409128337512
 21
-2826.134788302973
 97
        6
330
3AF
330
3AA
330
3AB
330
3AC
330
3AD
330
3AE
 75
           1
 76
           0
 52
45.0
 41
0.109090909091
 77
           0
 78
           1
 53
45.0
 43
-1527.713539482904
 44
-1255.429565355026
 45
-0.077138921583987
 46
0.077138921583987
 79
           0
 98
        1
 10
0.0
 20
0.0
  0
HATCH
  5
40C
100
AcDbEntity
  8
0
  6
CONTINUOUS
 62
           6
100
AcDbHatch
 10
0.0
 20
0.0
 30
0.0
210
0.0
220
0.0
230
1.0
  2
USER
 70
           0
 71
           1
 91
        2
 92
        1
 93
        8
 72
           1
 10
3082.861543583354
 20
-2820.2438792120688
 11
3087.6025973696542
 21
-2834.835342398791
 72
           1
 10
3076.3160890378881
 20
-2820.2438792120688
 11
3082.861543583354
 21
-2820.2438792120688
 72
           1
 10
3072.2043779727951
 20
-2832.898424666605
 11
3076.3160890378881
 21
-2820.2438792120688
 72
           1
 10
3072.2043779727951
 20
-2832.898424666605
 11
3077.0043779728039
 21
-2832.898424666605
 72
           1
 10
3077.0043779728039
 20
-2832.898424666605
 11
3077.4678566490952
 21
-2830.9347883029509
 72
           1
 10
3077.4678566490952
 20
-2830.9347883029509
 11
3081.416923180273
 21
-2830.9347883029509
 72
           1
 10
3081.416923180273
 20
-2830.9347883029509
 11
3084.3850549342701
 21
-2842.0620610302581
 72
           1
 10
3084.3850549342701
 20
-2842.0620610302581
 11
3087.6025973696542
 21
-2834.835342398791
 97
        8
330
3B0
330
3B2
330
3B1
330
3B3
330
3B4
330
3B9
330
3BA
330
3B6
 92
       16
 93
        3
 72
           1
 10
3078.1373258480121
 20
-2828.098424666598
 11
3079.3217713540898
 21
-2823.080242848423
 72
           1
 10
3079.3217713540898
 20
-2823.080242848423
 11
3080.6603405763299
 21
-2828.098424666598
 72
           1
 10
3078.1373258480121
 20
-2828.098424666598
 11
3080.6603405763299
 21
-2828.098424666598
 97
        3
330
3B8
330
3B5
330
3B7
 75
           1
 76
           0
 52
45.0
 41
0.109090909091
 77
           0
 78
           1
 53
45.0
 43
-1527.713539482904
 44
-1255.429565355026
 45
-0.077138921583987
 46
0.077138921583987
 79
           0
 98
        1
 10
0.0
 20
0.0
  0
HATCH
  5
40B
100
AcDbEntity
  8
0
  6
CONTINUOUS
 62
           6
100
AcDbHatch
 10
0.0
 20
0.0
 30
0.0
210
0.0
220
0.0
230
1.0
  2
USER
 70
           0
 71
           1
 91
        1
 92
        1
 93
        9
 72
           1
 10
3122.940912833717
 20
-2823.5166064847881
 11
3122.0681855610192
 21
-2820.2438792120688
 72
           1
 10
3118.7954582882421
 20
-2820.2438792120688
 11
3122.0681855610192
 21
-2820.2438792120688
 72
           1
 10
3118.7954582882421
 20
-2820.2438792120688
 11
3121.4136401065462
 21
-2825.4802428484131
 72
           1
 10
3121.4136401065462
 20
-2825.4802428484131
 11
3121.4136401065462
 21
-2828.098424666598
 72
           1
 10
3121.4136401065462
 20
-2828.098424666598
 11
3124.4681855609779
 21
-2828.098424666598
 72
           1
 10
3124.4681855609779
 20
-2828.098424666598
 11
3124.4681855609779
 21
-2825.4802428484131
 72
           1
 10
3124.4681855609779
 20
-2825.4802428484131
 11
3127.0863673791632
 21
-2820.2438792120688
 72
           1
 10
3123.8136401064462
 20
-2820.2438792120688
 11
3127.0863673791632
 21
-2820.2438792120688
 72
           1
 10
3122.940912833717
 20
-2823.5166064847881
 11
3123.8136401064462
 21
-2820.2438792120688
 97
        9
330
3C1
330
3BB
330
3C2
330
3BE
330
3BF
330
3BD
330
3C3
330
3BC
330
3C0
 75
           1
 76
           0
 52
45.0
 41
0.109090909091
 77
           0
 78
           1
 53
45.0
 43
-1527.713539482904
 44
-1255.429565355026
 45
-0.077138921583987
 46
0.077138921583987
 79
           0
 98
        1
 10
0.0
 20
0.0
  0
ARC
  5
40A
100
AcDbEntity
  8
1
  6
CONTINUOUS
 62
           3
100
AcDbCircle
 10
3121.456124660266
 20
-2832.41842466662
 40
0.218181818306
100
AcDbArc
 50
154.999999989757
 51
-90.0
  0
ARC
  5
409
100
AcDbEntity
  8
1
  6
CONTINUOUS
 62
           3
100
AcDbCircle
 10
3121.387629289521
 20
-2832.462061030271
 40
0.436363636411
100
AcDbArc
 50
154.999999990425
 51
-90.0
  0
ARC
  5
408
100
AcDbEntity
  8
1
  6
CONTINUOUS
 62
           3
100
AcDbCircle
 10
3122.387260419509
 20
-2831.763879212058
 40
0.87272727273
100
AcDbArc
 50
-90.0
 51
-24.99999999925
  0
ARC
  5
407
100
AcDbEntity
  8
1
  6
CONTINUOUS
 62
           3
100
AcDbCircle
 10
3122.276062701234
 20
-2831.589333757513
 40
1.309090909092
100
AcDbArc
 50
-90.0
 51
-24.999999997966
  0
ARC
  5
406
100
AcDbEntity
  8
1
  6
CONTINUOUS
 62
           3
100
AcDbCircle
 10
3123.282429170634
 20
-2831.392970121171
 40
0.218181818067
100
AcDbArc
 50
-25.00000000495
 51
90.0
  0
ARC
  5
405
100
AcDbEntity
  8
1
  6
CONTINUOUS
 62
           3
100
AcDbCircle
 10
3123.350924541289
 20
-2831.349333757521
 40
0.436363636309
100
AcDbArc
 50
-24.999999998763
 51
90.0
  0
ARC
  5
404
100
AcDbEntity
  8
1
  6
CONTINUOUS
 62
           3
100
AcDbCircle
 10
3122.259869496448
 20
-2830.694788302958
 40
0.218181818184
100
AcDbArc
 50
154.999999983901
 51
-90.0
  0
ARC
  5
403
100
AcDbEntity
  8
1
  6
CONTINUOUS
 62
           3
100
AcDbCircle
 10
3122.191374125821
 20
-2830.738424666611
 40
0.43636363632
100
AcDbArc
 50
154.999999988906
 51
-90.0
  0
ARC
  5
402
100
AcDbEntity
  8
1
  6
CONTINUOUS
 62
           3
100
AcDbCircle
 10
3123.053298394818
 20
-2830.542061030239
 40
0.87272727273
100
AcDbArc
 50
90.0
 51
155.000000000052
  0
ARC
  5
401
100
AcDbEntity
  8
1
  6
CONTINUOUS
 62
           3
100
AcDbCircle
 10
3123.164496113094
 20
-2830.716606484784
 40
1.309090909093
100
AcDbArc
 50
90.0
 51
154.999999999897
  0
ARC
  5
400
100
AcDbEntity
  8
1
  6
CONTINUOUS
 62
           3
100
AcDbCircle
 10
3124.052929524806
 20
-2829.843879212086
 40
0.436363636377
100
AcDbArc
 50
-24.999999990379
 51
90.0
  0
ARC
  5
3FF
100
AcDbEntity
  8
1
  6
CONTINUOUS
 62
           3
100
AcDbCircle
 10
3123.984434154179
 20
-2829.887515575677
 40
0.218181818162
100
AcDbArc
 50
-25.000000002101
 51
90.0
  0
ARC
  5
3FE
100
AcDbEntity
  8
1
  6
CONTINUOUS
 62
           3
100
AcDbCircle
 10
3109.025115781278
 20
-2832.462061030271
 40
0.436363636439
100
AcDbArc
 50
154.999999992166
 51
-90.0
  0
ARC
  5
3FD
100
AcDbEntity
  8
1
  6
CONTINUOUS
 62
           3
100
AcDbCircle
 10
3109.093611151903
 20
-2832.41842466662
 40
0.21818181825
100
AcDbArc
 50
154.999999982894
 51
-90.0
  0
ARC
  5
3FC
100
AcDbEntity
  8
1
  6
CONTINUOUS
 62
           3
100
AcDbCircle
 10
3110.024746911266
 20
-2831.763879212058
 40
0.87272727273
100
AcDbArc
 50
-90.0
 51
-25.000000000108
  0
ARC
  5
3FB
100
AcDbEntity
  8
1
  6
CONTINUOUS
 62
           3
100
AcDbCircle
 10
3109.91354919299
 20
-2831.589333757513
 40
1.309090909092
100
AcDbArc
 50
-90.0
 51
-25.000000000144
  0
ARC
  5
3FA
100
AcDbEntity
  8
1
  6
CONTINUOUS
 62
           3
100
AcDbCircle
 10
3110.919915662331
 20
-2831.392970121171
 40
0.218181818121
100
AcDbArc
 50
-24.999999998389
 51
90.0
  0
ARC
  5
3F9
100
AcDbEntity
  8
1
  6
CONTINUOUS
 62
           3
100
AcDbCircle
 10
3110.988411032957
 20
-2831.349333757521
 40
0.436363636281
100
AcDbArc
 50
-25.000000000454
 51
90.0
  0
ARC
  5
3F8
100
AcDbEntity
  8
1
  6
CONTINUOUS
 62
           3
100
AcDbCircle
 10
3109.828860617547
 20
-2830.738424666611
 40
0.436363636398
100
AcDbArc
 50
154.999999993676
 51
-90.0
  0
ARC
  5
3F7
100
AcDbEntity
  8
1
  6
CONTINUOUS
 62
           3
100
AcDbCircle
 10
3109.897355988203
 20
-2830.694788302958
 40
0.218181818263
100
AcDbArc
 50
154.999999993642
 51
-90.0
  0
ARC
  5
3F6
100
AcDbEntity
  8
1
  6
CONTINUOUS
 62
           3
100
AcDbCircle
 10
3110.690784886515
 20
-2830.542061030239
 40
0.87272727273
100
AcDbArc
 50
90.0
 51
154.999999998386
  0
ARC
  5
3F5
100
AcDbEntity
  8
1
  6
CONTINUOUS
 62
           3
100
AcDbCircle
 10
3110.80198260479
 20
-2830.716606484784
 40
1.309090909093
100
AcDbArc
 50
90.0
 51
155.00000000094
  0
ARC
  5
3F4
100
AcDbEntity
  8
1
  6
CONTINUOUS
 62
           3
100
AcDbCircle
 10
3111.690416016563
 20
-2829.843879212086
 40
0.436363636268
100
AcDbArc
 50
-24.999999997041
 51
90.0
  0
ARC
  5
3F3
100
AcDbEntity
  8
1
  6
CONTINUOUS
 62
           3
100
AcDbCircle
 10
3111.621920645906
 20
-2829.887515575677
 40
0.218181818082
100
AcDbArc
 50
-25.000000011891
 51
90.0
  0
ARC
  5
3F2
100
AcDbEntity
  8
1
  6
CONTINUOUS
 62
           3
100
AcDbCircle
 10
3104.352019638558
 20
-2831.763879212058
 40
0.87272727273
100
AcDbArc
 50
-90.0
 51
-25.000000001711
  0
ARC
  5
3F1
100
AcDbEntity
  8
1
  6
CONTINUOUS
 62
           3
100
AcDbCircle
 10
3105.01805761369
 20
-2830.542061030239
 40
0.87272727273
100
AcDbArc
 50
90.0
 51
154.999999995976
  0
ARC
  5
3F0
100
AcDbEntity
  8
1
  6
CONTINUOUS
 62
           3
100
AcDbCircle
 10
3105.315683760251
 20
-2831.349333757521
 40
0.43636363628
100
AcDbArc
 50
-25.000000000504
 51
90.0
  0
ARC
  5
3EF
100
AcDbEntity
  8
1
  6
CONTINUOUS
 62
           3
100
AcDbCircle
 10
3104.156133344724
 20
-2830.738424666611
 40
0.436363636321
100
AcDbArc
 50
154.999999988957
 51
-90.0
  0
ARC
  5
3EE
100
AcDbEntity
  8
1
  6
CONTINUOUS
 62
           3
100
AcDbCircle
 10
3103.420883879197
 20
-2832.41842466662
 40
0.218181818252
100
AcDbArc
 50
154.999999983095
 51
-90.0
  0
ARC
  5
3ED
100
AcDbEntity
  8
1
  6
CONTINUOUS
 62
           3
100
AcDbCircle
 10
3105.247188389624
 20
-2831.392970121171
 40
0.218181818094
100
AcDbArc
 50
-25.00000000167
 51
90.0
  0
ARC
  5
3EC
100
AcDbEntity
  8
1
  6
CONTINUOUS
 62
           3
100
AcDbCircle
 10
3104.224628715409
 20
-2830.694788302958
 40
0.218181818186
100
AcDbArc
 50
154.999999984103
 51
-90.0
  0
ARC
  5
3EB
100
AcDbEntity
  8
1
  6
CONTINUOUS
 62
           3
100
AcDbCircle
 10
3105.94919337314
 20
-2829.887515575677
 40
0.218181818134
100
AcDbArc
 50
-25.000000005482
 51
90.0
  0
ARC
  5
3EA
100
AcDbEntity
  8
1
  6
CONTINUOUS
 62
           3
100
AcDbCircle
 10
3100.900826236899
 20
-2830.406777626601
 40
0.872727272806
100
AcDbArc
 50
-77.663850596858
 51
-24.833311983956
  0
ARC
  5
3E9
100
AcDbEntity
  8
1
  6
CONTINUOUS
 62
           3
100
AcDbCircle
 10
3100.824356357698
 20
-2831.607612329451
 40
0.436363636313
100
AcDbArc
 50
-23.740953472947
 51
52.948182772399
  0
ARC
  5
3E8
100
AcDbEntity
  8
1
  6
CONTINUOUS
 62
           3
100
AcDbCircle
 10
3101.23571015134
 20
-2830.105697393903
 40
0.436363636296
100
AcDbArc
 50
-24.99999999535
 51
90.0
  0
ARC
  5
3E7
100
AcDbEntity
  8
1
  6
CONTINUOUS
 62
           3
100
AcDbCircle
 10
3100.961012549067
 20
-2830.694788302958
 40
0.436363636395
100
AcDbArc
 50
-90.0
 51
-25.000000000504
  0
ARC
  5
3E6
100
AcDbEntity
  8
1
  6
CONTINUOUS
 62
           3
100
AcDbCircle
 10
3100.774442168231
 20
-2831.611151939338
 40
0.218181818227
100
AcDbArc
 50
-24.999999985635
 51
90.0
  0
ARC
  5
3E5
100
AcDbEntity
  8
1
  6
CONTINUOUS
 62
           3
100
AcDbCircle
 10
3095.647914157913
 20
-2832.462061030271
 40
0.43636363641
100
AcDbArc
 50
154.999999990375
 51
-90.0
  0
ARC
  5
3E4
100
AcDbEntity
  8
1
  6
CONTINUOUS
 62
           3
100
AcDbCircle
 10
3095.716409528569
 20
-2832.41842466662
 40
0.218181818278
100
AcDbArc
 50
154.999999986325
 51
-90.0
  0
ARC
  5
3E3
100
AcDbEntity
  8
1
  6
CONTINUOUS
 62
           3
100
AcDbCircle
 10
3096.749285140538
 20
-2831.545697393891
 40
1.090909090897
100
AcDbArc
 50
-90.0
 51
-24.999999998465
  0
ARC
  5
3E2
100
AcDbEntity
  8
1
  6
CONTINUOUS
 62
           3
100
AcDbCircle
 10
3096.77708457018
 20
-2831.589333757513
 40
1.309090909092
100
AcDbArc
 50
-90.0
 51
-25.000000000102
  0
ARC
  5
3E1
100
AcDbEntity
  8
1
  6
CONTINUOUS
 62
           3
100
AcDbCircle
 10
3098.485456023068
 20
-2829.887515575677
 40
0.218181818213
100
AcDbArc
 50
-24.999999995792
 51
90.0
  0
ARC
  5
3E0
100
AcDbEntity
  8
1
  6
CONTINUOUS
 62
           3
100
AcDbCircle
 10
3098.553951393636
 20
-2829.843879212086
 40
0.436363636322
100
AcDbArc
 50
-24.999999993761
 51
90.0
  0
ARC
  5
3DF
100
AcDbEntity
  8
1
  6
CONTINUOUS
 62
           3
100
AcDbCircle
 10
3097.452580410981
 20
-2830.760242848436
 40
1.090909090927
100
AcDbArc
 50
90.0
 51
155.000000000204
  0
ARC
  5
3DE
100
AcDbEntity
  8
1
  6
CONTINUOUS
 62
           3
100
AcDbCircle
 10
3097.424780981427
 20
-2830.716606484784
 40
1.309090909093
100
AcDbArc
 50
90.0
 51
155.000000000966
  0
ARC
  5
3DD
100
AcDbEntity
  8
1
  6
CONTINUOUS
 62
           3
100
AcDbCircle
 10
3095.355875016538
 20
-2829.887515575677
 40
0.218181818187
100
AcDbArc
 50
-24.999999999022
 51
90.0
  0
ARC
  5
3DC
100
AcDbEntity
  8
1
  6
CONTINUOUS
 62
           3
100
AcDbCircle
 10
3092.586828522097
 20
-2832.41842466662
 40
0.218181818303
100
AcDbArc
 50
154.999999989454
 51
-90.0
  0
ARC
  5
3DB
100
AcDbEntity
  8
1
  6
CONTINUOUS
 62
           3
100
AcDbCircle
 10
3093.619704134067
 20
-2831.545697393891
 40
1.090909090897
100
AcDbArc
 50
-90.0
 51
-25.00000000108
  0
ARC
  5
3DA
100
AcDbEntity
  8
1
  6
CONTINUOUS
 62
           3
100
AcDbCircle
 10
3094.322999404568
 20
-2830.760242848436
 40
1.090909090927
100
AcDbArc
 50
90.0
 51
155.000000000194
  0
ARC
  5
3D9
100
AcDbEntity
  8
1
  6
CONTINUOUS
 62
           3
100
AcDbCircle
 10
3090.490123127565
 20
-2831.545697393891
 40
1.090909090897
100
AcDbArc
 50
-90.0
 51
-24.999999999101
  0
ARC
  5
3D8
100
AcDbEntity
  8
1
  6
CONTINUOUS
 62
           3
100
AcDbCircle
 10
3092.055055583382
 20
-2829.996606484775
 40
0.32727272734
100
AcDbArc
 50
-24.999999997421
 51
90.0
  0
ARC
  5
3D7
100
AcDbEntity
  8
1
  6
CONTINUOUS
 62
           3
100
AcDbCircle
 10
3090.517922557207
 20
-2831.589333757513
 40
1.309090909092
100
AcDbArc
 50
-90.0
 51
-25.000000001221
  0
ARC
  5
3D6
100
AcDbEntity
  8
1
  6
CONTINUOUS
 62
           3
100
AcDbCircle
 10
3092.123550954068
 20
-2829.952970121155
 40
0.545454545342
100
AcDbArc
 50
-24.999999999903
 51
90.0
  0
ARC
  5
3D5
100
AcDbEntity
  8
1
  6
CONTINUOUS
 62
           3
100
AcDbCircle
 10
3092.518333151441
 20
-2832.462061030271
 40
0.436363636518
100
AcDbArc
 50
154.999999996961
 51
-90.0
  0
ARC
  5
3D4
100
AcDbEntity
  8
1
  6
CONTINUOUS
 62
           3
100
AcDbCircle
 10
3095.424370387193
 20
-2829.843879212086
 40
0.436363636349
100
AcDbArc
 50
-24.999999992095
 51
90.0
  0
ARC
  5
3D3
100
AcDbEntity
  8
1
  6
CONTINUOUS
 62
           3
100
AcDbCircle
 10
3094.295199974925
 20
-2830.716606484784
 40
1.309090909093
100
AcDbArc
 50
90.0
 51
154.99999999983
  0
ARC
  5
3D2
100
AcDbEntity
  8
1
  6
CONTINUOUS
 62
           3
100
AcDbCircle
 10
3093.64750356362
 20
-2831.589333757513
 40
1.309090909092
100
AcDbArc
 50
-90.0
 51
-24.999999998496
  0
ARC
  5
3D1
100
AcDbEntity
  8
1
  6
CONTINUOUS
 62
           3
100
AcDbCircle
 10
3101.300762930197
 20
-2830.062061030253
 40
0.654545454483
100
AcDbArc
 50
-24.800962694349
 51
90.0
  0
ARC
  5
3D0
100
AcDbEntity
  8
1
  6
CONTINUOUS
 62
           3
100
AcDbCircle
 10
3105.129255331966
 20
-2830.716606484784
 40
1.309090909093
100
AcDbArc
 50
90.0
 51
154.999999998779
  0
ARC
  5
3CF
100
AcDbEntity
  8
1
  6
CONTINUOUS
 62
           3
100
AcDbCircle
 10
3104.240821920253
 20
-2831.589333757513
 40
1.309090909092
100
AcDbArc
 50
-90.0
 51
-24.999999999017
  0
ARC
  5
3CE
100
AcDbEntity
  8
1
  6
CONTINUOUS
 62
           3
100
AcDbCircle
 10
3103.352388508569
 20
-2832.462061030271
 40
0.436363636438
100
AcDbArc
 50
154.999999992116
 51
-90.0
  0
ARC
  5
3CD
100
AcDbEntity
  8
1
  6
CONTINUOUS
 62
           3
100
AcDbCircle
 10
3106.017688743797
 20
-2829.843879212086
 40
0.436363636294
100
AcDbArc
 50
-24.999999995426
 51
90.0
  0
SPLINE
  5
3CC
100
AcDbEntity
  8
1
  6
CONTINUOUS
 62
           3
100
AcDbSpline
210
0.0
220
0.0
230
1.0
 70
           0
 71
           3
 72
          14
 73
          11
 74
          19
 42
0.00000000001
 43
0.00000000001
 44
0.00000000001
 40
0.7862844167204821
 40
0.7862844167204821
 40
0.7862844167204821
 40
1.1369024219637776
 40
1.4952029155154609
 40
1.8661876604026306
 40
2.2522493034699922
 40
2.6538148624063496
 40
3.0694813491321549
 40
3.4963321172024822
 40
3.8756236548009371
 40
4.1483228259790188
 40
4.1483228259790188
 40
4.1483228259790188
 10
3100.0221644083631
 20
-2822.0359823311469
 30
0.0
 10
3100.002670447268
 20
-2821.862860056528
 30
0.0
 10
3099.8876758798701
 20
-2821.5293238128588
 30
0.0
 10
3099.7005638298601
 20
-2821.2173337012268
 30
0.0
 10
3099.4475650130639
 20
-2820.9362544962278
 30
0.0
 10
3099.1366789909589
 20
-2820.694288292425
 30
0.0
 10
3098.7774249981662
 20
-2820.498419583801
 30
0.0
 10
3098.3806327688189
 20
-2820.3543038006119
 30
0.0
 10
3097.95819046416
 20
-2820.2661201553419
 30
0.0
 10
3097.6319127532602
 20
-2820.2438792120688
 30
0.0
 10
3097.5227310155469
 20
-2820.2438792120688
 30
0.0
 11
3100.0221644083631
 21
-2822.0359823311469
 31
0.0
 11
3099.9933253898866
 21
-2821.8649004076433
 31
0.0
 11
3099.9457962566476
 21
-2821.6978991863707
 31
0.0
 11
3099.8792237661655
 21
-2821.5331471867248
 31
0.0
 11
3099.795747048277
 21
-2821.37604193481
 31
0.0
 11
3099.6933646046359
 21
-2821.222575585366
 31
0.0
 11
3099.5765837105446
 21
-2821.0795930041982
 31
0.0
 11
3099.4417238826563
 21
-2820.9424387156519
 31
0.0
 11
3099.2951817939529
 21
-2820.8176528659524
 31
0.0
 11
3099.1321727859709
 21
-2820.7010682992322
 31
0.0
 11
3098.9601513680127
 21
-2820.5980437461249
 31
0.0
 11
3098.7741659811049
 21
-2820.5055502907203
 31
0.0
 11
3098.5816625600746
 21
-2820.4273182491534
 31
0.0
 11
3098.3749696239097
 21
-2820.3608841459895
 31
0.0
 11
3098.1569503979263
 21
-2820.3076107335814
 31
0.0
 11
3097.9604279406158
 21
-2820.2732581673149
 31
0.0
 11
3097.7683804362168
 21
-2820.2531816249943
 31
0.0
 11
3097.638734239571
 21
-2820.2462048153002
 31
0.0
 11
3097.5227310155469
 21
-2820.2438792120688
 31
0.0
  0
SPLINE
  5
3CB
100
AcDbEntity
  8
1
  6
CONTINUOUS
 62
           3
100
AcDbSpline
210
0.0
220
0.0
230
1.0
 70
           0
 71
           3
 72
          15
 73
          12
 74
          21
 42
0.00000000001
 43
0.00000000001
 44
0.00000000001
 40
48.420231092011093
 40
48.420231092011093
 40
48.420231092011093
 40
48.692930263191137
 40
49.072221800785655
 40
49.499072568859937
 40
49.91473905560278
 40
50.316304614519368
 40
50.702366257559781
 40
51.073351002497063
 40
51.431651496042974
 40
51.781469965114326
 40
52.127504056082159
 40
52.127504056082159
 40
52.127504056082159
 10
3097.5227310155469
 20
-2824.1711519393189
 30
0.0
 10
3097.6319127532602
 20
-2824.1711519393189
 30
0.0
 10
3097.95819046416
 20
-2824.148910995988
 30
0.0
 10
3098.3806327688189
 20
-2824.0607273507758
 30
0.0
 10
3098.7774249981662
 20
-2823.9166115675289
 30
0.0
 10
3099.1366789909589
 20
-2823.7207428588749
 30
0.0
 10
3099.4475650130639
 20
-2823.4787766551599
 30
0.0
 10
3099.7005638298601
 20
-2823.1976974501608
 30
0.0
 10
3099.8876758798701
 20
-2822.885707338412
 30
0.0
 10
3100.002670447268
 20
-2822.552171094861
 30
0.0
 10
3100.0414794408739
 20
-2822.2075155756938
 30
0.0
 10
3100.0221644083631
 20
-2822.0359823311469
 30
0.0
 11
3097.5227310155469
 21
-2824.1711519393189
 31
0.0
 11
3097.6387342395715
 21
-2824.1688263360816
 31
0.0
 11
3097.7683804362186
 21
-2824.1618495263688
 31
0.0
 11
3097.9604279406153
 21
-2824.1417729840305
 31
0.0
 11
3098.156950397924
 21
-2824.1074204177762
 31
0.0
 11
3098.3749696239083
 21
-2824.0541470053836
 31
0.0
 11
3098.5816625600719
 21
-2823.9877129022061
 31
0.0
 11
3098.7741659811063
 21
-2823.9094808606128
 31
0.0
 11
3098.9601513680209
 21
-2823.8169874051855
 31
0.0
 11
3099.1321727859736
 21
-2823.7139628520813
 31
0.0
 11
3099.2951817939547
 21
-2823.5973782853907
 31
0.0
 11
3099.4417238826532
 21
-2823.4725924357285
 31
0.0
 11
3099.5765837105318
 21
-2823.3354381472036
 31
0.0
 11
3099.6933646046336
 21
-2823.1924555660075
 31
0.0
 11
3099.7957470482834
 21
-2823.0389892165058
 31
0.0
 11
3099.8792401720775
 21
-2822.8818363800156
 31
0.0
 11
3099.9458618802864
 21
-2822.7169416267325
 31
0.0
 11
3099.9933458124506
 21
-2822.5500474877963
 31
0.0
 11
3100.0221804749795
 21
-2822.3789061347302
 31
0.0
 11
3100.0318259412725
 21
-2822.2074799043157
 31
0.0
 11
3100.0221644083631
 21
-2822.0359823311469
 31
0.0
  0
SPLINE
  5
3CA
100
AcDbEntity
  8
1
  6
CONTINUOUS
 62
           3
100
AcDbSpline
210
0.0
220
0.0
230
1.0
 70
           0
 71
           3
 72
          14
 73
          11
 74
          19
 42
0.00000000001
 43
0.00000000001
 44
0.00000000001
 40
0.7862844167204821
 40
0.7862844167204821
 40
0.7862844167204821
 40
1.1369024219235266
 40
1.4952029154815718
 40
1.8661876604232095
 40
2.2522493034416482
 40
2.6538148623723847
 40
3.0694813491244131
 40
3.4963321171995378
 40
3.8756236547978995
 40
4.1483228259759812
 40
4.1483228259759812
 40
4.1483228259759812
 10
3100.0221644083631
 20
-2825.963255058427
 30
0.0
 10
3100.002670447268
 20
-2825.7901327837781
 30
0.0
 10
3099.8876758798701
 20
-2825.4565965402571
 30
0.0
 10
3099.7005638298601
 20
-2825.1446064284469
 30
0.0
 10
3099.4475650130639
 20
-2824.8635272235069
 30
0.0
 10
3099.1366789909589
 20
-2824.6215610197919
 30
0.0
 10
3098.7774249981662
 20
-2824.4256923110788
 30
0.0
 10
3098.3806327688189
 20
-2824.281576527861
 30
0.0
 10
3097.95819046416
 20
-2824.193392882592
 30
0.0
 10
3097.6319127532602
 20
-2824.1711519393189
 30
0.0
 10
3097.5227310155469
 20
-2824.1711519393189
 30
0.0
 11
3100.0221644083631
 21
-2825.963255058427
 31
0.0
 11
3099.9933253898876
 21
-2825.792173134922
 31
0.0
 11
3099.9457962566512
 21
-2825.6251719137053
 31
0.0
 11
3099.8792237661683
 21
-2825.4604199140877
 31
0.0
 11
3099.7957470482825
 21
-2825.303314662131
 31
0.0
 11
3099.6933646046323
 21
-2825.1498483126129
 31
0.0
 11
3099.5765837105273
 21
-2825.0068657314282
 31
0.0
 11
3099.4417238826545
 21
-2824.8697114429306
 31
0.0
 11
3099.295181793962
 21
-2824.7449255932816
 31
0.0
 11
3099.1321727859745
 21
-2824.6283410265787
 31
0.0
 11
3098.96015136802
 21
-2824.5253164734513
 31
0.0
 11
3098.7741659811054
 21
-2824.4328230180063
 31
0.0
 11
3098.5816625600701
 21
-2824.3545909764152
 31
0.0
 11
3098.3749696239083
 21
-2824.2881568732419
 31
0.0
 11
3098.1569503979249
 21
-2824.2348834608306
 31
0.0
 11
3097.9604279406158
 21
-2824.2005308945645
 31
0.0
 11
3097.7683804362177
 21
-2824.1804543522449
 31
0.0
 11
3097.638734239571
 21
-2824.1734775425502
 31
0.0
 11
3097.5227310155469
 21
-2824.1711519393189
 31
0.0
  0
SPLINE
  5
3C9
100
AcDbEntity
  8
1
  6
CONTINUOUS
 62
           3
100
AcDbSpline
210
0.0
220
0.0
230
1.0
 70
           0
 71
           3
 72
          15
 73
          12
 74
          21
 42
0.00000000001
 43
0.00000000001
 44
0.00000000001
 40
48.420231092011143
 40
48.420231092011143
 40
48.420231092011143
 40
48.692930263191229
 40
49.072221800785655
 40
49.499072568864769
 40
49.914739055605395
 40
50.316304614524014
 40
50.702366257562829
 40
51.073351002488906
 40
51.431651496034434
 40
51.781469965106233
 40
52.127504056073619
 40
52.127504056073619
 40
52.127504056073619
 10
3097.5227310155469
 20
-2828.098424666598
 30
0.0
 10
3097.6319127532602
 20
-2828.098424666598
 30
0.0
 10
3097.95819046416
 20
-2828.0761837232658
 30
0.0
 10
3098.3806327688189
 20
-2827.9880000780549
 30
0.0
 10
3098.7774249981662
 20
-2827.8438842947789
 30
0.0
 10
3099.1366789909589
 20
-2827.648015586155
 30
0.0
 10
3099.4475650130639
 20
-2827.4060493824099
 30
0.0
 10
3099.7005638298601
 20
-2827.12497017744
 30
0.0
 10
3099.8876758798701
 20
-2826.812980065692
 30
0.0
 10
3100.002670447268
 20
-2826.4794438221411
 30
0.0
 10
3100.0414794408739
 20
-2826.134788302973
 30
0.0
 10
3100.0221644083631
 20
-2825.963255058427
 30
0.0
 11
3097.5227310155469
 21
-2828.098424666598
 31
0.0
 11
3097.6387342395719
 21
-2828.0960990633607
 31
0.0
 11
3097.7683804362186
 21
-2828.0891222536475
 31
0.0
 11
3097.9604279406153
 21
-2828.0690457113083
 31
0.0
 11
3098.1569503979226
 21
-2828.0346931450549
 31
0.0
 11
3098.3749696239083
 21
-2827.9814197326587
 31
0.0
 11
3098.5816625600737
 21
-2827.9149856294707
 31
0.0
 11
3098.7741659811068
 21
-2827.8367535878701
 31
0.0
 11
3098.96015136802
 21
-2827.744260132451
 31
0.0
 11
3099.1321727859736
 21
-2827.6412355793536
 31
0.0
 11
3099.2951817939556
 21
-2827.5246510126553
 31
0.0
 11
3099.4417238826541
 21
-2827.3998651629854
 31
0.0
 11
3099.5765837105337
 21
-2827.2627108744668
 31
0.0
 11
3099.6933646046341
 21
-2827.1197282932835
 31
0.0
 11
3099.7957470482825
 21
-2826.9662619437881
 31
0.0
 11
3099.8792401720771
 21
-2826.8091091072961
 31
0.0
 11
3099.9458618802864
 21
-2826.644214354013
 31
0.0
 11
3099.993345812451
 21
-2826.4773202150768
 31
0.0
 11
3100.022180474979
 21
-2826.3061788620098
 31
0.0
 11
3100.0318259412725
 21
-2826.1347526315953
 31
0.0
 11
3100.0221644083631
 21
-2825.963255058427
 31
0.0
  0
SPLINE
  5
3C8
100
AcDbEntity
  8
1
  6
CONTINUOUS
 62
           3
100
AcDbSpline
210
0.0
220
0.0
230
1.0
 70
           0
 71
           3
 72
          14
 73
          11
 74
          19
 42
0.00000000001
 43
0.00000000001
 44
0.00000000001
 40
0.3053995610601455
 40
0.3053995610601455
 40
0.3053995610601455
 40
0.4403516341378411
 40
0.5767846993474424
 40
0.7156868441961912
 40
0.8575674551143895
 40
1.0025593157775261
 40
1.1504223459479193
 40
1.3005899144382533
 40
1.4331904030143554
 40
1.5282183624364305
 40
1.5282183624364305
 40
1.5282183624364305
 10
3096.9739337362298
 20
-2822.686340732067
 30
0.0
 10
3096.967218088148
 20
-2822.6194105566219
 30
0.0
 10
3096.927455526145
 20
-2822.4900103188061
 30
0.0
 10
3096.862623228059
 20
-2822.3687605517048
 30
0.0
 10
3096.774786164021
 20
-2822.259346238226
 30
0.0
 10
3096.6666856804381
 20
-2822.165045686806
 30
0.0
 10
3096.5416406724239
 20
-2822.0886554866311
 30
0.0
 10
3096.4034479148099
 20
-2822.032427930515
 30
0.0
 10
3096.2562759806879
 20
-2821.9980166044179
 30
0.0
 10
3096.1425473595668
 20
-2821.9893337575259
 30
0.0
 10
3096.1045491973832
 20
-2821.9893337575259
 30
0.0
 11
3096.9739337362298
 21
-2822.686340732067
 31
0.0
 11
3096.9639538037513
 21
-2822.6200563404818
 31
0.0
 11
3096.9474453024786
 21
-2822.5550635166173
 31
0.0
 11
3096.9244216062502
 21
-2822.4912533113957
 31
0.0
 11
3096.8953300702306
 21
-2822.4299290913523
 31
0.0
 11
3096.8599367745173
 21
-2822.3705209770415
 31
0.0
 11
3096.8191705717204
 21
-2822.3146337134031
 31
0.0
 11
3096.772516254764
 21
-2822.2615083791179
 31
0.0
 11
3096.7213221192951
 21
-2822.2127073266165
 31
0.0
 11
3096.6648674078838
 21
-2822.1675059385843
 31
0.0
 11
3096.6047761513637
 21
-2822.1272250541087
 31
0.0
 11
3096.5402840203637
 21
-2822.0913237818281
 31
0.0
 11
3096.4730785852416
 21
-2822.0607590999389
 31
0.0
 11
3096.4013162011611
 21
-2822.0349420799148
 31
0.0
 11
3096.3252903897828
 21
-2822.0141533586907
 31
0.0
 11
3096.2569669884588
 21
-2822.0007862874395
 31
0.0
 11
3096.1900256026775
 21
-2821.9929585822319
 31
0.0
 11
3096.1449173797987
 21
-2821.9902399637022
 31
0.0
 11
3096.1045491973832
 21
-2821.9893337575259
 31
0.0
  0
SPLINE
  5
3C7
100
AcDbEntity
  8
1
  6
CONTINUOUS
 62
           3
100
AcDbSpline
210
0.0
220
0.0
230
1.0
 70
           0
 71
           3
 72
          14
 73
          11
 74
          19
 42
0.00000000001
 43
0.00000000001
 44
0.00000000001
 40
0.3053995610601455
 40
0.3053995610601455
 40
0.3053995610601455
 40
0.4403516341371001
 40
0.5767846993472203
 40
0.7156868441837961
 40
0.8575674551003901
 40
1.0025593157733297
 40
1.1504223459383043
 40
1.3005899144262441
 40
1.4331904030055727
 40
1.5282183624276131
 40
1.5282183624276131
 40
1.5282183624276131
 10
3096.9739337362298
 20
-2825.5227043684199
 30
0.0
 10
3096.967218088148
 20
-2825.4557741929771
 30
0.0
 10
3096.927455526145
 20
-2825.326373955158
 30
0.0
 10
3096.862623228059
 20
-2825.205124188059
 30
0.0
 10
3096.774786164021
 20
-2825.0957098746089
 30
0.0
 10
3096.6666856804381
 20
-2825.0014093231598
 30
0.0
 10
3096.5416406724239
 20
-2824.9250191229839
 30
0.0
 10
3096.4034479148099
 20
-2824.8687915668979
 30
0.0
 10
3096.2562759806879
 20
-2824.8343802407721
 30
0.0
 10
3096.1425473595668
 20
-2824.825697393881
 30
0.0
 10
3096.1045491973832
 20
-2824.825697393881
 30
0.0
 11
3096.9739337362298
 21
-2825.5227043684199
 31
0.0
 11
3096.9639538037513
 21
-2825.4564199768365
 31
0.0
 11
3096.9474453024786
 21
-2825.3914271529711
 31
0.0
 11
3096.9244216062493
 21
-2825.3276169477476
 31
0.0
 11
3096.8953300702287
 21
-2825.2662927277024
 31
0.0
 11
3096.8599367745178
 21
-2825.2068846133989
 31
0.0
 11
3096.8191705717222
 21
-2825.1509973497732
 31
0.0
 11
3096.7725162547654
 21
-2825.0978720154944
 31
0.0
 11
3096.7213221192969
 21
-2825.0490709629867
 31
0.0
 11
3096.6648674078833
 21
-2825.0038695749408
 31
0.0
 11
3096.6047761513605
 21
-2824.9635886904603
 31
0.0
 11
3096.5402840203624
 21
-2824.9276874181837
 31
0.0
 11
3096.4730785852425
 21
-2824.8971227363068
 31
0.0
 11
3096.4013162011615
 21
-2824.8713057162904
 31
0.0
 11
3096.3252903897837
 21
-2824.8505169950586
 31
0.0
 11
3096.2569669884588
 21
-2824.8371499237974
 31
0.0
 11
3096.1900256026765
 21
-2824.8293222185866
 31
0.0
 11
3096.1449173797987
 21
-2824.8266036000573
 31
0.0
 11
3096.1045491973832
 21
-2824.825697393881
 31
0.0
  0
SPLINE
  5
3C6
100
AcDbEntity
  8
1
  6
CONTINUOUS
 62
           3
100
AcDbSpline
210
0.0
220
0.0
230
1.0
 70
           0
 71
           3
 72
          15
 73
          12
 74
          21
 42
0.00000000001
 43
0.00000000001
 44
0.00000000001
 40
17.668653401818549
 40
17.668653401818549
 40
17.668653401818549
 40
17.763681361245126
 40
17.896281849822415
 40
18.04644941830335
 40
18.194312448476076
 40
18.339304309156745
 40
18.481184920038139
 40
18.620087064879666
 40
18.756520130115142
 40
18.891321054805509
 40
19.025400108629885
 40
19.025400108629885
 40
19.025400108629885
 10
3096.1045491973832
 20
-2823.5166064847881
 30
0.0
 10
3096.1425473595668
 20
-2823.5166064847881
 30
0.0
 10
3096.2562759806879
 20
-2823.5079236377778
 30
0.0
 10
3096.4034479148099
 20
-2823.4735123117098
 30
0.0
 10
3096.5416406724239
 20
-2823.417284755626
 30
0.0
 10
3096.6666856804381
 20
-2823.3408945554188
 30
0.0
 10
3096.774786164021
 20
-2823.246594003971
 30
0.0
 10
3096.862623228059
 20
-2823.1371796906101
 30
0.0
 10
3096.927455526145
 20
-2823.015929923421
 30
0.0
 10
3096.967218088148
 20
-2822.886529685632
 30
0.0
 10
3096.9806192039059
 20
-2822.752970121157
 30
0.0
 10
3096.9739337362298
 20
-2822.686340732067
 30
0.0
 11
3096.1045491973832
 21
-2823.5166064847881
 31
0.0
 11
3096.1449173797992
 21
-2823.5157002785991
 31
0.0
 11
3096.1900256026784
 21
-2823.5129816600329
 31
0.0
 11
3096.2569669884597
 21
-2823.5051539547762
 31
0.0
 11
3096.3252903897851
 21
-2823.4917868835182
 31
0.0
 11
3096.4013162011606
 21
-2823.4709981623105
 31
0.0
 11
3096.4730785852389
 21
-2823.4451811423037
 31
0.0
 11
3096.5402840203615
 21
-2823.4146164604217
 31
0.0
 11
3096.6047761513605
 21
-2823.3787151881343
 31
0.0
 11
3096.6648674078851
 21
-2823.3384343036391
 31
0.0
 11
3096.7213221193056
 21
-2823.2932329155856
 31
0.0
 11
3096.7725162547658
 21
-2823.2444318630969
 31
0.0
 11
3096.8191705717159
 21
-2823.1913065288595
 31
0.0
 11
3096.8599367745151
 21
-2823.1354192652516
 31
0.0
 11
3096.895330070226
 21
-2823.0760111509253
 31
0.0
 11
3096.9244243911348
 21
-2823.0146778679282
 31
0.0
 11
3096.9474564420225
 21
-2822.950840473944
 31
0.0
 11
3096.9639573133882
 21
-2822.8858676156851
 31
0.0
 11
3096.9739366352333
 21
-2822.8195706175302
 31
0.0
 11
3096.9772771948187
 21
-2822.7529628979778
 31
0.0
 11
3096.9739337362298
 21
-2822.686340732067
 31
0.0
  0
SPLINE
  5
3C5
100
AcDbEntity
  8
1
  6
CONTINUOUS
 62
           3
100
AcDbSpline
210
0.0
220
0.0
230
1.0
 70
           0
 71
           3
 72
          15
 73
          12
 74
          21
 42
0.00000000001
 43
0.00000000001
 44
0.00000000001
 40
17.668653401815931
 40
17.668653401815931
 40
17.668653401815931
 40
17.763681361242455
 40
17.896281849823112
 40
18.046449418307894
 40
18.194312448449992
 40
18.339304309109171
 40
18.481184920035236
 40
18.620087064898634
 40
18.75652013010653
 40
18.891321054811964
 40
19.02540010866575
 40
19.02540010866575
 40
19.02540010866575
 10
3096.1045491973832
 20
-2826.352970121171
 30
0.0
 10
3096.1425473595668
 20
-2826.352970121171
 30
0.0
 10
3096.2562759806879
 20
-2826.3442872741621
 30
0.0
 10
3096.4034479148099
 20
-2826.309875948064
 30
0.0
 10
3096.5416406724239
 20
-2826.253648391978
 30
0.0
 10
3096.6666856804381
 20
-2826.1772581918899
 30
0.0
 10
3096.774786164021
 20
-2826.082957640413
 30
0.0
 10
3096.862623228059
 20
-2825.973543326962
 30
0.0
 10
3096.927455526145
 20
-2825.852293559803
 30
0.0
 10
3096.967218088148
 20
-2825.722893322044
 30
0.0
 10
3096.9806192039059
 20
-2825.5893337575098
 30
0.0
 10
3096.9739337362298
 20
-2825.5227043684199
 30
0.0
 11
3096.1045491973832
 21
-2826.352970121171
 31
0.0
 11
3096.1449173797987
 21
-2826.3520639149824
 31
0.0
 11
3096.1900256026784
 21
-2826.3493452964158
 31
0.0
 11
3096.2569669884601
 21
-2826.3415175911568
 31
0.0
 11
3096.3252903897851
 21
-2826.3281505198884
 31
0.0
 11
3096.4013162011624
 21
-2826.3073617986674
 31
0.0
 11
3096.4730785852471
 21
-2826.2815447786534
 31
0.0
 11
3096.5402840203633
 21
-2826.2509800967891
 31
0.0
 11
3096.6047761513587
 21
-2826.2150788245472
 31
0.0
 11
3096.664867407882
 21
-2826.1747979400948
 31
0.0
 11
3096.7213221192928
 21
-2826.129596552053
 31
0.0
 11
3096.7725162547636
 21
-2826.0807954995325
 31
0.0
 11
3096.8191705717195
 21
-2826.0276701652519
 31
0.0
 11
3096.8599367745173
 21
-2825.9717829016149
 31
0.0
 11
3096.8953300702324
 21
-2825.9123747872818
 31
0.0
 11
3096.9244243911357
 21
-2825.8510415043102
 31
0.0
 11
3096.9474564420198
 21
-2825.787204110351
 31
0.0
 11
3096.9639573133873
 21
-2825.7222312520889
 31
0.0
 11
3096.9739366352333
 21
-2825.6559342539167
 31
0.0
 11
3096.9772771948192
 21
-2825.5893265343393
 31
0.0
 11
3096.9739337362298
 21
-2825.5227043684199
 31
0.0
  0
LINE
  5
3C4
100
AcDbEntity
  8
0
  6
CONTINUOUS
 62
           3
100
AcDbLine
 10
3110.28636737918
 20
-2828.098424666598
 11
3112.6863673792
 21
-2828.098424666598
  0
LINE
  5
3C3
100
AcDbEntity
  8
0
  6
CONTINUOUS
 62
           3
100
AcDbLine
 10
3124.468185560978
 20
-2825.480242848413
 11
3127.086367379163
 21
-2820.243879212069
  0
LINE
  5
3C2
100
AcDbEntity
  8
0
  6
CONTINUOUS
 62
           3
100
AcDbLine
 10
3118.795458288242
 20
-2820.243879212069
 11
3121.413640106546
 21
-2825.480242848413
  0
LINE
  5
3C1
100
AcDbEntity
  8
0
  6
CONTINUOUS
 62
           3
100
AcDbLine
 10
3122.940912833717
 20
-2823.516606484788
 11
3122.068185561019
 21
-2820.243879212069
  0
LINE
  5
3C0
100
AcDbEntity
  8
0
  6
CONTINUOUS
 62
           3
100
AcDbLine
 10
3122.940912833717
 20
-2823.516606484788
 11
3123.813640106446
 21
-2820.243879212069
  0
LINE
  5
3BF
100
AcDbEntity
  8
0
  6
CONTINUOUS
 62
           3
100
AcDbLine
 10
3121.413640106546
 20
-2828.098424666598
 11
3124.468185560978
 21
-2828.098424666598
  0
LINE
  5
3BE
100
AcDbEntity
  8
0
  6
CONTINUOUS
 62
           3
100
AcDbLine
 10
3121.413640106546
 20
-2825.480242848413
 11
3121.413640106546
 21
-2828.098424666598
  0
LINE
  5
3BD
100
AcDbEntity
  8
0
  6
CONTINUOUS
 62
           3
100
AcDbLine
 10
3124.468185560978
 20
-2828.098424666598
 11
3124.468185560978
 21
-2825.480242848413
  0
LINE
  5
3BC
100
AcDbEntity
  8
0
  6
CONTINUOUS
 62
           3
100
AcDbLine
 10
3123.813640106446
 20
-2820.243879212069
 11
3127.086367379163
 21
-2820.243879212069
  0
LINE
  5
3BB
100
AcDbEntity
  8
0
  6
CONTINUOUS
 62
           3
100
AcDbLine
 10
3118.795458288242
 20
-2820.243879212069
 11
3122.068185561019
 21
-2820.243879212069
  0
LINE
  5
3BA
100
AcDbEntity
  8
1
  6
CONTINUOUS
 62
           3
100
AcDbLine
 10
3081.416923180273
 20
-2830.934788302951
 11
3084.38505493427
 21
-2842.062061030258
  0
LINE
  5
3B9
100
AcDbEntity
  8
1
  6
CONTINUOUS
 62
           3
100
AcDbLine
 10
3077.467856649095
 20
-2830.934788302951
 11
3081.416923180273
 21
-2830.934788302951
  0
LINE
  5
3B8
100
AcDbEntity
  8
1
  6
CONTINUOUS
 62
           3
100
AcDbLine
 10
3078.137325848012
 20
-2828.098424666598
 11
3079.32177135409
 21
-2823.080242848423
  0
LINE
  5
3B7
100
AcDbEntity
  8
1
  6
CONTINUOUS
 62
           3
100
AcDbLine
 10
3078.137325848012
 20
-2828.098424666598
 11
3080.66034057633
 21
-2828.098424666598
  0
LINE
  5
3B6
100
AcDbEntity
  8
1
  6
CONTINUOUS
 62
           3
100
AcDbLine
 10
3084.38505493427
 20
-2842.062061030258
 11
3087.602597369654
 21
-2834.835342398791
  0
LINE
  5
3B5
100
AcDbEntity
  8
1
  6
CONTINUOUS
 62
           3
100
AcDbLine
 10
3079.32177135409
 20
-2823.080242848423
 11
3080.66034057633
 21
-2828.098424666598
  0
LINE
  5
3B4
100
AcDbEntity
  8
1
  6
CONTINUOUS
 62
           3
100
AcDbLine
 10
3077.004377972804
 20
-2832.898424666605
 11
3077.467856649095
 21
-2830.934788302951
  0
LINE
  5
3B3
100
AcDbEntity
  8
1
  6
CONTINUOUS
 62
           3
100
AcDbLine
 10
3072.204377972795
 20
-2832.898424666605
 11
3077.004377972804
 21
-2832.898424666605
  0
LINE
  5
3B2
100
AcDbEntity
  8
1
  6
CONTINUOUS
 62
           3
100
AcDbLine
 10
3076.316089037888
 20
-2820.243879212069
 11
3082.861543583354
 21
-2820.243879212069
  0
LINE
  5
3B1
100
AcDbEntity
  8
1
  6
CONTINUOUS
 62
           3
100
AcDbLine
 10
3072.204377972795
 20
-2832.898424666605
 11
3076.316089037888
 21
-2820.243879212069
  0
LINE
  5
3B0
100
AcDbEntity
  8
1
  6
CONTINUOUS
 62
           3
100
AcDbLine
 10
3082.861543583354
 20
-2820.243879212069
 11
3087.602597369654
 21
-2834.835342398791
  0
LINE
  5
3AF
100
AcDbEntity
  8
1
  6
CONTINUOUS
 62
           3
100
AcDbLine
 10
3086.286367379142
 20
-2820.243879212069
 11
3089.340912833751
 21
-2820.243879212069
  0
LINE
  5
3AE
100
AcDbEntity
  8
1
  6
CONTINUOUS
 62
           3
100
AcDbLine
 10
3089.340912833751
 20
-2820.243879212069
 11
3089.340912833751
 21
-2826.134788302973
  0
LINE
  5
3AD
100
AcDbEntity
  8
1
  6
CONTINUOUS
 62
           3
100
AcDbLine
 10
3089.340912833751
 20
-2826.134788302973
 11
3092.177276470105
 21
-2826.134788302973
  0
LINE
  5
3AC
100
AcDbEntity
  8
1
  6
CONTINUOUS
 62
           3
100
AcDbLine
 10
3092.177276470105
 20
-2826.134788302973
 11
3092.177276470105
 21
-2828.098424666598
  0
LINE
  5
3AB
100
AcDbEntity
  8
1
  6
CONTINUOUS
 62
           3
100
AcDbLine
 10
3092.177276470105
 20
-2828.098424666598
 11
3086.286367379142
 21
-2828.098424666598
  0
LINE
  5
3AA
100
AcDbEntity
  8
1
  6
CONTINUOUS
 62
           3
100
AcDbLine
 10
3086.286367379142
 20
-2828.098424666598
 11
3086.286367379142
 21
-2820.243879212069
  0
LINE
  5
3A9
100
AcDbEntity
  8
1
  6
CONTINUOUS
 62
           3
100
AcDbLine
 10
3095.66818556099
 20
-2821.989333757526
 11
3096.104549197383
 21
-2821.989333757526
  0
LINE
  5
3A8
100
AcDbEntity
  8
1
  6
CONTINUOUS
 62
           3
100
AcDbLine
 10
3095.66818556099
 20
-2823.516606484788
 11
3096.104549197383
 21
-2823.516606484788
  0
LINE
  5
3A7
100
AcDbEntity
  8
1
  6
CONTINUOUS
 62
           3
100
AcDbLine
 10
3095.66818556099
 20
-2824.825697393881
 11
3096.104549197383
 21
-2824.825697393881
  0
LINE
  5
3A6
100
AcDbEntity
  8
1
  6
CONTINUOUS
 62
           3
100
AcDbLine
 10
3095.66818556099
 20
-2826.352970121171
 11
3096.104549197383
 21
-2826.352970121171
  0
LINE
  5
3A5
100
AcDbEntity
  8
1
  6
CONTINUOUS
 62
           3
100
AcDbLine
 10
3095.66818556099
 20
-2821.989333757526
 11
3095.66818556099
 21
-2823.516606484788
  0
LINE
  5
3A4
100
AcDbEntity
  8
1
  6
CONTINUOUS
 62
           3
100
AcDbLine
 10
3095.66818556099
 20
-2824.825697393881
 11
3095.66818556099
 21
-2826.352970121171
  0
LINE
  5
3A3
100
AcDbEntity
  8
1
  6
CONTINUOUS
 62
           3
100
AcDbLine
 10
3092.831821924725
 20
-2820.243879212069
 11
3092.831821924725
 21
-2828.098424666598
  0
LINE
  5
3A2
100
AcDbEntity
  8
1
  6
CONTINUOUS
 62
           3
100
AcDbLine
 10
3097.522731015547
 20
-2820.243879212069
 11
3092.831821924725
 21
-2820.243879212069
  0
LINE
  5
3A1
100
AcDbEntity
  8
1
  6
CONTINUOUS
 62
           3
100
AcDbLine
 10
3092.831821924725
 20
-2828.098424666598
 11
3097.522731015547
 21
-2828.098424666598
  0
LINE
  5
3A0
100
AcDbEntity
  8
1
  6
CONTINUOUS
 62
           3
100
AcDbLine
 10
3103.522731015548
 20
-2828.098424666598
 11
3100.686367379165
 21
-2828.098424666598
  0
LINE
  5
39F
100
AcDbEntity
  8
1
  6
CONTINUOUS
 62
           3
100
AcDbLine
 10
3106.795458288236
 20
-2828.098424666598
 11
3109.63182192459
 21
-2828.098424666598
  0
LINE
  5
39E
100
AcDbEntity
  8
1
  6
CONTINUOUS
 62
           3
100
AcDbLine
 10
3103.304549197351
 20
-2820.243879212069
 11
3107.013640106463
 21
-2820.243879212069
  0
LINE
  5
39D
100
AcDbEntity
  8
1
  6
CONTINUOUS
 62
           3
100
AcDbLine
 10
3103.304549197351
 20
-2820.243879212069
 11
3100.686367379165
 21
-2828.098424666598
  0
LINE
  5
39C
100
AcDbEntity
  8
1
  6
CONTINUOUS
 62
           3
100
AcDbLine
 10
3107.013640106463
 20
-2820.243879212069
 11
3109.63182192459
 21
-2828.098424666598
  0
LINE
  5
39B
100
AcDbEntity
  8
1
  6
CONTINUOUS
 62
           3
100
AcDbLine
 10
3103.8560643489
 20
-2826.898424666604
 11
3106.462124954888
 21
-2826.898424666604
  0
LINE
  5
39A
100
AcDbEntity
  8
1
  6
CONTINUOUS
 62
           3
100
AcDbLine
 10
3104.340912833728
 20
-2825.152970121147
 11
3105.977276470087
 21
-2825.152970121147
  0
LINE
  5
399
100
AcDbEntity
  8
1
  6
CONTINUOUS
 62
           3
100
AcDbLine
 10
3103.522731015548
 20
-2828.098424666598
 11
3103.8560643489
 21
-2826.898424666604
  0
LINE
  5
398
100
AcDbEntity
  8
1
  6
CONTINUOUS
 62
           3
100
AcDbLine
 10
3105.159094651878
 20
-2822.207515575694
 11
3105.977276470087
 21
-2825.152970121147
  0
LINE
  5
397
100
AcDbEntity
  8
1
  6
CONTINUOUS
 62
           3
100
AcDbLine
 10
3104.340912833728
 20
-2825.152970121147
 11
3105.159094651878
 21
-2822.207515575694
  0
LINE
  5
396
100
AcDbEntity
  8
1
  6
CONTINUOUS
 62
           3
100
AcDbLine
 10
3106.462124954888
 20
-2826.898424666604
 11
3106.795458288236
 21
-2828.098424666598
  0
LINE
  5
395
100
AcDbEntity
  8
1
  6
CONTINUOUS
 62
           3
100
AcDbLine
 10
3110.28636737918
 20
-2820.243879212069
 11
3110.28636737918
 21
-2828.098424666598
  0
LINE
  5
394
100
AcDbEntity
  8
1
  6
CONTINUOUS
 62
           3
100
AcDbLine
 10
3118.14091283374
 20
-2828.098424666598
 11
3118.14091283374
 21
-2820.243879212069
  0
LINE
  5
393
100
AcDbEntity
  8
1
  6
CONTINUOUS
 62
           3
100
AcDbLine
 10
3115.74091283372
 20
-2820.243879212069
 11
3115.74091283372
 21
-2825.043879212078
  0
LINE
  5
392
100
AcDbEntity
  8
1
  6
CONTINUOUS
 62
           3
100
AcDbLine
 10
3112.6863673792
 20
-2828.098424666598
 11
3112.6863673792
 21
-2823.298424666621
  0
LINE
  5
391
100
AcDbEntity
  8
1
  6
CONTINUOUS
 62
           3
100
AcDbLine
 10
3112.6863673792
 20
-2823.298424666621
 11
3114.431821924628
 21
-2828.098424666598
  0
LINE
  5
390
100
AcDbEntity
  8
1
  6
CONTINUOUS
 62
           3
100
AcDbLine
 10
3115.74091283372
 20
-2825.043879212078
 11
3113.995458288292
 21
-2820.243879212069
  0
LINE
  5
38F
100
AcDbEntity
  8
1
  6
CONTINUOUS
 62
           3
100
AcDbLine
 10
3110.28636737918
 20
-2820.243879212069
 11
3113.995458288292
 21
-2820.243879212069
  0
LINE
  5
38E
100
AcDbEntity
  8
1
  6
CONTINUOUS
 62
           3
100
AcDbLine
 10
3114.431821924628
 20
-2828.098424666598
 11
3118.14091283374
 21
-2828.098424666598
  0
LINE
  5
38D
100
AcDbEntity
  8
1
  6
CONTINUOUS
 62
           3
100
AcDbLine
 10
3115.74091283372
 20
-2820.243879212069
 11
3118.14091283374
 21
-2820.243879212069
  0
LINE
  5
38C
100
AcDbEntity
  8
1
  6
CONTINUOUS
 62
           3
100
AcDbLine
 10
3114.069782703728
 20
-2829.669333757509
 11
3115.262028295538
 21
-2829.669333757509
  0
LINE
  5
38B
100
AcDbEntity
  8
1
  6
CONTINUOUS
 62
           3
100
AcDbLine
 10
3112.56403288397
 20
-2832.898424666605
 11
3114.069782703728
 21
-2829.669333757509
  0
LINE
  5
38A
100
AcDbEntity
  8
1
  6
CONTINUOUS
 62
           3
100
AcDbLine
 10
3112.267434802174
 20
-2832.898424666605
 11
3113.773184621874
 21
-2829.669333757509
  0
LINE
  5
389
100
AcDbEntity
  8
1
  6
CONTINUOUS
 62
           3
100
AcDbLine
 10
3121.211374846645
 20
-2831.807515575711
 11
3121.500259247157
 21
-2831.807515575711
  0
LINE
  5
388
100
AcDbEntity
  8
1
  6
CONTINUOUS
 62
           3
100
AcDbLine
 10
3120.992149527893
 20
-2832.277645788698
 11
3121.211374846645
 21
-2831.807515575711
  0
LINE
  5
387
100
AcDbEntity
  8
1
  6
CONTINUOUS
 62
           3
100
AcDbLine
 10
3121.500259247157
 20
-2831.807515575711
 11
3121.258384779362
 21
-2832.326217045789
  0
LINE
  5
386
100
AcDbEntity
  8
1
  6
CONTINUOUS
 62
           3
100
AcDbLine
 10
3121.456124660266
 20
-2832.636606484788
 11
3122.387260419509
 21
-2832.636606484788
  0
LINE
  5
385
100
AcDbEntity
  8
1
  6
CONTINUOUS
 62
           3
100
AcDbLine
 10
3121.387629289521
 20
-2832.898424666605
 11
3122.276062701234
 21
-2832.898424666605
  0
LINE
  5
384
100
AcDbEntity
  8
1
  6
CONTINUOUS
 62
           3
100
AcDbLine
 10
3123.746404302859
 20
-2831.533748998976
 11
3123.462501986178
 21
-2832.142579481967
  0
LINE
  5
383
100
AcDbEntity
  8
1
  6
CONTINUOUS
 62
           3
100
AcDbLine
 10
3123.178219942825
 20
-2832.132709695058
 11
3123.48016905133
 21
-2831.485177741883
  0
LINE
  5
382
100
AcDbEntity
  8
1
  6
CONTINUOUS
 62
           3
100
AcDbLine
 10
3122.191374125821
 20
-2831.174788302974
 11
3123.282429170634
 21
-2831.174788302974
  0
LINE
  5
381
100
AcDbEntity
  8
1
  6
CONTINUOUS
 62
           3
100
AcDbLine
 10
3122.259869496448
 20
-2830.912970121155
 11
3123.350924541289
 21
-2830.912970121155
  0
LINE
  5
380
100
AcDbEntity
  8
1
  6
CONTINUOUS
 62
           3
100
AcDbLine
 10
3121.978056828266
 20
-2830.16336076033
 11
3121.79589436428
 21
-2830.554009425066
  0
LINE
  5
37F
100
AcDbEntity
  8
1
  6
CONTINUOUS
 62
           3
100
AcDbLine
 10
3122.062129615664
 20
-2830.602580682158
 11
3122.262338871532
 21
-2830.173230547241
  0
LINE
  5
37E
100
AcDbEntity
  8
1
  6
CONTINUOUS
 62
           3
100
AcDbLine
 10
3123.053298394818
 20
-2829.669333757509
 11
3123.984434154179
 21
-2829.669333757509
  0
LINE
  5
37D
100
AcDbEntity
  8
1
  6
CONTINUOUS
 62
           3
100
AcDbLine
 10
3123.164496113094
 20
-2829.407515575691
 11
3124.052929524806
 21
-2829.407515575691
  0
LINE
  5
37C
100
AcDbEntity
  8
1
  6
CONTINUOUS
 62
           3
100
AcDbLine
 10
3124.182174034965
 20
-2829.979723196419
 11
3124.042039419836
 21
-2830.280242848421
  0
LINE
  5
37B
100
AcDbEntity
  8
1
  6
CONTINUOUS
 62
           3
100
AcDbLine
 10
3124.042039419836
 20
-2830.280242848421
 11
3124.330923820437
 21
-2830.280242848421
  0
LINE
  5
37A
100
AcDbEntity
  8
1
  6
CONTINUOUS
 62
           3
100
AcDbLine
 10
3124.448409286465
 20
-2830.028294453512
 11
3124.330923820437
 21
-2830.280242848421
  0
LINE
  5
379
100
AcDbEntity
  8
1
  6
CONTINUOUS
 62
           3
100
AcDbLine
 10
3109.615543319905
 20
-2830.16336076033
 11
3109.43338085592
 21
-2830.554009425066
  0
LINE
  5
378
100
AcDbEntity
  8
1
  6
CONTINUOUS
 62
           3
100
AcDbLine
 10
3108.629636019619
 20
-2832.277645788698
 11
3108.848861338223
 21
-2831.807515575711
  0
LINE
  5
377
100
AcDbEntity
  8
1
  6
CONTINUOUS
 62
           3
100
AcDbLine
 10
3108.848861338223
 20
-2831.807515575711
 11
3109.137745739001
 21
-2831.807515575711
  0
LINE
  5
376
100
AcDbEntity
  8
1
  6
CONTINUOUS
 62
           3
100
AcDbLine
 10
3109.137745739001
 20
-2831.807515575711
 11
3108.895871271061
 21
-2832.326217045789
  0
LINE
  5
375
100
AcDbEntity
  8
1
  6
CONTINUOUS
 62
           3
100
AcDbLine
 10
3109.093611151903
 20
-2832.636606484788
 11
3110.024746911266
 21
-2832.636606484788
  0
LINE
  5
374
100
AcDbEntity
  8
1
  6
CONTINUOUS
 62
           3
100
AcDbLine
 10
3109.025115781278
 20
-2832.898424666605
 11
3109.91354919299
 21
-2832.898424666605
  0
LINE
  5
373
100
AcDbEntity
  8
1
  6
CONTINUOUS
 62
           3
100
AcDbLine
 10
3111.383890794497
 20
-2831.533748998976
 11
3111.099988477816
 21
-2832.142579481967
  0
LINE
  5
372
100
AcDbEntity
  8
1
  6
CONTINUOUS
 62
           3
100
AcDbLine
 10
3110.815706434551
 20
-2832.132709695058
 11
3111.117655543086
 21
-2831.485177741883
  0
LINE
  5
371
100
AcDbEntity
  8
1
  6
CONTINUOUS
 62
           3
100
AcDbLine
 10
3109.828860617547
 20
-2831.174788302974
 11
3110.919915662331
 21
-2831.174788302974
  0
LINE
  5
370
100
AcDbEntity
  8
1
  6
CONTINUOUS
 62
           3
100
AcDbLine
 10
3109.897355988203
 20
-2830.912970121155
 11
3110.988411032957
 21
-2830.912970121155
  0
LINE
  5
36F
100
AcDbEntity
  8
1
  6
CONTINUOUS
 62
           3
100
AcDbLine
 10
3109.699616107331
 20
-2830.602580682158
 11
3109.899825363289
 21
-2830.173230547241
  0
LINE
  5
36E
100
AcDbEntity
  8
1
  6
CONTINUOUS
 62
           3
100
AcDbLine
 10
3110.690784886515
 20
-2829.669333757509
 11
3111.621920645906
 21
-2829.669333757509
  0
LINE
  5
36D
100
AcDbEntity
  8
1
  6
CONTINUOUS
 62
           3
100
AcDbLine
 10
3110.80198260479
 20
-2829.407515575691
 11
3111.690416016563
 21
-2829.407515575691
  0
LINE
  5
36C
100
AcDbEntity
  8
1
  6
CONTINUOUS
 62
           3
100
AcDbLine
 10
3111.679525911505
 20
-2830.280242848421
 11
3111.968410312192
 21
-2830.280242848421
  0
LINE
  5
36B
100
AcDbEntity
  8
1
  6
CONTINUOUS
 62
           3
100
AcDbLine
 10
3112.085895778102
 20
-2830.028294453512
 11
3111.968410312192
 21
-2830.280242848421
  0
LINE
  5
36A
100
AcDbEntity
  8
1
  6
CONTINUOUS
 62
           3
100
AcDbLine
 10
3111.819660526604
 20
-2829.979723196419
 11
3111.679525911505
 21
-2830.280242848421
  0
LINE
  5
369
100
AcDbEntity
  8
1
  6
CONTINUOUS
 62
           3
100
AcDbLine
 10
3106.146933253896
 20
-2829.979723196419
 11
3106.006798638796
 21
-2830.280242848421
  0
LINE
  5
368
100
AcDbEntity
  8
1
  6
CONTINUOUS
 62
           3
100
AcDbLine
 10
3105.01805761369
 20
-2829.669333757509
 11
3105.94919337314
 21
-2829.669333757509
  0
LINE
  5
367
100
AcDbEntity
  8
1
  6
CONTINUOUS
 62
           3
100
AcDbLine
 10
3104.026888834623
 20
-2830.602580682158
 11
3104.227098090551
 21
-2830.173230547241
  0
LINE
  5
366
100
AcDbEntity
  8
1
  6
CONTINUOUS
 62
           3
100
AcDbLine
 10
3105.142979161785
 20
-2832.132709695058
 11
3105.44492827035
 21
-2831.485177741883
  0
LINE
  5
365
100
AcDbEntity
  8
1
  6
CONTINUOUS
 62
           3
100
AcDbLine
 10
3103.420883879197
 20
-2832.636606484788
 11
3104.352019638558
 21
-2832.636606484788
  0
LINE
  5
364
100
AcDbEntity
  8
1
  6
CONTINUOUS
 62
           3
100
AcDbLine
 10
3103.465018466176
 20
-2831.807515575711
 11
3103.223143998353
 21
-2832.326217045789
  0
LINE
  5
363
100
AcDbEntity
  8
1
  6
CONTINUOUS
 62
           3
100
AcDbLine
 10
3101.223792746624
 20
-2831.783293274057
 11
3100.703798438447
 21
-2832.898424666605
  0
LINE
  5
362
100
AcDbEntity
  8
1
  6
CONTINUOUS
 62
           3
100
AcDbLine
 10
3100.414914037993
 20
-2832.898424666605
 11
3100.972182049103
 21
-2831.703359560051
  0
LINE
  5
361
100
AcDbEntity
  8
1
  6
CONTINUOUS
 62
           3
100
AcDbLine
 10
3101.631189912909
 20
-2830.290112635329
 11
3101.356492310606
 21
-2830.879203544413
  0
LINE
  5
360
100
AcDbEntity
  8
1
  6
CONTINUOUS
 62
           3
100
AcDbLine
 10
3100.091062653907
 20
-2829.669333757509
 11
3101.23571015134
 21
-2829.669333757509
  0
LINE
  5
35F
100
AcDbEntity
  8
1
  6
CONTINUOUS
 62
           3
100
AcDbLine
 10
3099.409405640794
 20
-2831.131151939353
 11
3100.961012549067
 21
-2831.131151939353
  0
LINE
  5
35E
100
AcDbEntity
  8
1
  6
CONTINUOUS
 62
           3
100
AcDbLine
 10
3099.409405640794
 20
-2831.131151939353
 11
3100.091062653907
 21
-2829.669333757509
  0
LINE
  5
35D
100
AcDbEntity
  8
1
  6
CONTINUOUS
 62
           3
100
AcDbLine
 10
3099.287317817637
 20
-2831.392970121171
 11
3100.774442168231
 21
-2831.392970121171
  0
LINE
  5
35C
100
AcDbEntity
  8
1
  6
CONTINUOUS
 62
           3
100
AcDbLine
 10
3098.585312834061
 20
-2832.898424666605
 11
3099.287317817637
 21
-2831.392970121171
  0
LINE
  5
35B
100
AcDbEntity
  8
1
  6
CONTINUOUS
 62
           3
100
AcDbLine
 10
3095.647914157913
 20
-2832.898424666605
 11
3096.77708457018
 21
-2832.898424666605
  0
LINE
  5
35A
100
AcDbEntity
  8
1
  6
CONTINUOUS
 62
           3
100
AcDbLine
 10
3096.749285140538
 20
-2832.636606484788
 11
3095.716409528569
 21
-2832.636606484788
  0
LINE
  5
359
100
AcDbEntity
  8
1
  6
CONTINUOUS
 62
           3
100
AcDbLine
 10
3097.963523855008
 20
-2832.142579481967
 11
3098.949431155234
 21
-2830.028294453512
  0
LINE
  5
358
100
AcDbEntity
  8
1
  6
CONTINUOUS
 62
           3
100
AcDbLine
 10
3098.683195903911
 20
-2829.979723196419
 11
3097.737984544639
 21
-2832.006735497604
  0
LINE
  5
357
100
AcDbEntity
  8
1
  6
CONTINUOUS
 62
           3
100
AcDbLine
 10
3097.424780981427
 20
-2829.407515575691
 11
3098.553951393636
 21
-2829.407515575691
  0
LINE
  5
356
100
AcDbEntity
  8
1
  6
CONTINUOUS
 62
           3
100
AcDbLine
 10
3097.452580410981
 20
-2829.669333757509
 11
3098.485456023068
 21
-2829.669333757509
  0
LINE
  5
355
100
AcDbEntity
  8
1
  6
CONTINUOUS
 62
           3
100
AcDbLine
 10
3096.238341696541
 20
-2830.16336076033
 11
3095.252434396286
 21
-2832.277645788698
  0
LINE
  5
354
100
AcDbEntity
  8
1
  6
CONTINUOUS
 62
           3
100
AcDbLine
 10
3095.518669647696
 20
-2832.326217045789
 11
3096.463881006881
 21
-2830.299204744695
  0
LINE
  5
353
100
AcDbEntity
  8
1
  6
CONTINUOUS
 62
           3
100
AcDbLine
 10
3092.389088641196
 20
-2832.326217045789
 11
3093.334300000468
 21
-2830.299204744695
  0
LINE
  5
352
100
AcDbEntity
  8
1
  6
CONTINUOUS
 62
           3
100
AcDbLine
 10
3093.619704134067
 20
-2832.636606484788
 11
3092.586828522097
 21
-2832.636606484788
  0
LINE
  5
351
100
AcDbEntity
  8
1
  6
CONTINUOUS
 62
           3
100
AcDbLine
 10
3095.553614897352
 20
-2829.979723196419
 11
3094.60840353805
 21
-2832.006735497604
  0
LINE
  5
350
100
AcDbEntity
  8
1
  6
CONTINUOUS
 62
           3
100
AcDbLine
 10
3094.322999404568
 20
-2829.669333757509
 11
3095.355875016538
 21
-2829.669333757509
  0
LINE
  5
34F
100
AcDbEntity
  8
1
  6
CONTINUOUS
 62
           3
100
AcDbLine
 10
3090.490123127565
 20
-2832.636606484788
 11
3089.114770662317
 21
-2832.636606484788
  0
LINE
  5
34E
100
AcDbEntity
  8
1
  6
CONTINUOUS
 62
           3
100
AcDbLine
 10
3092.351665404661
 20
-2830.134917915905
 11
3091.478822531637
 21
-2832.006735497604
  0
LINE
  5
34D
100
AcDbEntity
  8
1
  6
CONTINUOUS
 62
           3
100
AcDbLine
 10
3090.498432658917
 20
-2829.669333757509
 11
3092.055055583382
 21
-2829.669333757509
  0
LINE
  5
34C
100
AcDbEntity
  8
1
  6
CONTINUOUS
 62
           3
100
AcDbLine
 10
3089.114770662317
 20
-2832.636606484788
 11
3090.498432658917
 21
-2829.669333757509
  0
LINE
  5
34B
100
AcDbEntity
  8
1
  6
CONTINUOUS
 62
           3
100
AcDbLine
 10
3118.640078374881
 20
-2832.352970121143
 11
3121.346327452618
 21
-2829.407515575691
  0
LINE
  5
34A
100
AcDbEntity
  8
1
  6
CONTINUOUS
 62
           3
100
AcDbLine
 10
3118.738908808808
 20
-2829.407515575691
 11
3118.640078374881
 21
-2832.352970121143
  0
LINE
  5
349
100
AcDbEntity
  8
1
  6
CONTINUOUS
 62
           3
100
AcDbLine
 10
3119.953389172822
 20
-2832.898424666605
 11
3120.242126173369
 21
-2832.898424666605
  0
LINE
  5
348
100
AcDbEntity
  8
1
  6
CONTINUOUS
 62
           3
100
AcDbLine
 10
3116.631071165788
 20
-2832.898424666605
 11
3116.919004724698
 21
-2832.898424666605
  0
LINE
  5
347
100
AcDbEntity
  8
1
  6
CONTINUOUS
 62
           3
100
AcDbLine
 10
3118.294092365432
 20
-2832.898424666605
 11
3118.586128169599
 21
-2832.898424666605
  0
LINE
  5
346
100
AcDbEntity
  8
1
  6
CONTINUOUS
 62
           3
100
AcDbLine
 10
3121.346327452618
 20
-2829.407515575691
 11
3121.869963816344
 21
-2829.407515575691
  0
LINE
  5
345
100
AcDbEntity
  8
1
  6
CONTINUOUS
 62
           3
100
AcDbLine
 10
3118.258908808821
 20
-2829.407515575691
 11
3118.738908808808
 21
-2829.407515575691
  0
LINE
  5
344
100
AcDbEntity
  8
1
  6
CONTINUOUS
 62
           3
100
AcDbLine
 10
3120.242126173369
 20
-2832.898424666605
 11
3121.869963816344
 21
-2829.407515575691
  0
LINE
  5
343
100
AcDbEntity
  8
1
  6
CONTINUOUS
 62
           3
100
AcDbLine
 10
3119.953389172822
 20
-2832.898424666605
 11
3121.459138992521
 21
-2829.669333757509
  0
LINE
  5
342
100
AcDbEntity
  8
1
  6
CONTINUOUS
 62
           3
100
AcDbLine
 10
3118.586128169599
 20
-2832.898424666605
 11
3121.459138992521
 21
-2829.669333757509
  0
LINE
  5
341
100
AcDbEntity
  8
1
  6
CONTINUOUS
 62
           3
100
AcDbLine
 10
3118.424754544456
 20
-2829.669333757509
 11
3118.294092365432
 21
-2832.898424666605
  0
LINE
  5
340
100
AcDbEntity
  8
1
  6
CONTINUOUS
 62
           3
100
AcDbLine
 10
3116.919004724698
 20
-2832.898424666605
 11
3118.424754544456
 21
-2829.669333757509
  0
LINE
  5
33F
100
AcDbEntity
  8
1
  6
CONTINUOUS
 62
           3
100
AcDbLine
 10
3116.631071165788
 20
-2832.898424666605
 11
3118.258908808821
 21
-2829.407515575691
  0
LINE
  5
33E
100
AcDbEntity
  8
1
  6
CONTINUOUS
 62
           3
100
AcDbLine
 10
3116.281262204817
 20
-2832.636606484788
 11
3116.179522352062
 21
-2832.898424666605
  0
LINE
  5
33D
100
AcDbEntity
  8
1
  6
CONTINUOUS
 62
           3
100
AcDbLine
 10
3117.09518102629
 20
-2830.912970121155
 11
3116.993441173654
 21
-2831.174788302974
  0
LINE
  5
33C
100
AcDbEntity
  8
1
  6
CONTINUOUS
 62
           3
100
AcDbLine
 10
3117.705620142461
 20
-2829.669333757509
 11
3117.807359995155
 21
-2829.407515575691
  0
LINE
  5
33B
100
AcDbEntity
  8
1
  6
CONTINUOUS
 62
           3
100
AcDbLine
 10
3115.217357833958
 20
-2830.912970121155
 11
3115.827796950157
 21
-2829.669333757509
  0
LINE
  5
33A
100
AcDbEntity
  8
1
  6
CONTINUOUS
 62
           3
100
AcDbLine
 10
3114.403439012456
 20
-2832.636606484788
 11
3115.11561798132
 21
-2831.174788302974
  0
LINE
  5
339
100
AcDbEntity
  8
1
  6
CONTINUOUS
 62
           3
100
AcDbLine
 10
3115.640726990636
 20
-2829.407515575691
 11
3114.012889347602
 21
-2832.898424666605
  0
LINE
  5
338
100
AcDbEntity
  8
1
  6
CONTINUOUS
 62
           3
100
AcDbLine
 10
3116.179522352062
 20
-2832.898424666605
 11
3114.012889347602
 21
-2832.898424666605
  0
LINE
  5
337
100
AcDbEntity
  8
1
  6
CONTINUOUS
 62
           3
100
AcDbLine
 10
3114.403439012456
 20
-2832.636606484788
 11
3116.281262204817
 21
-2832.636606484788
  0
LINE
  5
336
100
AcDbEntity
  8
1
  6
CONTINUOUS
 62
           3
100
AcDbLine
 10
3116.993441173654
 20
-2831.174788302974
 11
3115.11561798132
 21
-2831.174788302974
  0
LINE
  5
335
100
AcDbEntity
  8
1
  6
CONTINUOUS
 62
           3
100
AcDbLine
 10
3115.217357833958
 20
-2830.912970121155
 11
3117.09518102629
 21
-2830.912970121155
  0
LINE
  5
334
100
AcDbEntity
  8
1
  6
CONTINUOUS
 62
           3
100
AcDbLine
 10
3115.827796950157
 20
-2829.669333757509
 11
3117.705620142461
 21
-2829.669333757509
  0
LINE
  5
333
100
AcDbEntity
  8
1
  6
CONTINUOUS
 62
           3
100
AcDbLine
 10
3115.640726990636
 20
-2829.407515575691
 11
3117.807359995155
 21
-2829.407515575691
  0
LINE
  5
332
100
AcDbEntity
  8
1
  6
CONTINUOUS
 62
           3
100
AcDbLine
 10
3088.703798438442
 20
-2832.898424666605
 11
3090.331636081533
 21
-2829.407515575691
  0
LINE
  5
331
100
AcDbEntity
  8
1
  6
CONTINUOUS
 62
           3
100
AcDbLine
 10
3090.331636081533
 20
-2829.407515575691
 11
3092.123550954068
 21
-2829.407515575691
  0
LINE
  5
330
100
AcDbEntity
  8
1
  6
CONTINUOUS
 62
           3
100
AcDbLine
 10
3092.617900655986
 20
-2830.183489172965
 11
3091.704361841975
 21
-2832.142579481967
  0
LINE
  5
32F
100
AcDbEntity
  8
1
  6
CONTINUOUS
 62
           3
100
AcDbLine
 10
3094.295199974925
 20
-2829.407515575691
 11
3095.424370387193
 21
-2829.407515575691
  0
LINE
  5
32E
100
AcDbEntity
  8
1
  6
CONTINUOUS
 62
           3
100
AcDbLine
 10
3092.518333151441
 20
-2832.898424666605
 11
3093.64750356362
 21
-2832.898424666605
  0
LINE
  5
32D
100
AcDbEntity
  8
1
  6
CONTINUOUS
 62
           3
100
AcDbLine
 10
3093.1087606901
 20
-2830.16336076033
 11
3092.122853389695
 21
-2832.277645788698
  0
LINE
  5
32C
100
AcDbEntity
  8
1
  6
CONTINUOUS
 62
           3
100
AcDbLine
 10
3094.833942848535
 20
-2832.142579481967
 11
3095.819850148821
 21
-2830.028294453512
  0
LINE
  5
32B
100
AcDbEntity
  8
1
  6
CONTINUOUS
 62
           3
100
AcDbLine
 10
3099.924266076405
 20
-2829.407515575691
 11
3101.300762930197
 21
-2829.407515575691
  0
LINE
  5
32A
100
AcDbEntity
  8
1
  6
CONTINUOUS
 62
           3
100
AcDbLine
 10
3099.924266076405
 20
-2829.407515575691
 11
3098.296428433549
 21
-2832.898424666605
  0
LINE
  5
329
100
AcDbEntity
  8
1
  6
CONTINUOUS
 62
           3
100
AcDbLine
 10
3101.894939939321
 20
-2830.336621467703
 11
3101.692855433169
 21
-2830.773305449252
  0
LINE
  5
328
100
AcDbEntity
  8
1
  6
CONTINUOUS
 62
           3
100
AcDbLine
 10
3098.296428433549
 20
-2832.898424666605
 11
3098.585312834061
 21
-2832.898424666605
  0
LINE
  5
327
100
AcDbEntity
  8
1
  6
CONTINUOUS
 62
           3
100
AcDbLine
 10
3100.414914037993
 20
-2832.898424666605
 11
3100.703798438447
 21
-2832.898424666605
  0
LINE
  5
326
100
AcDbEntity
  8
1
  6
CONTINUOUS
 62
           3
100
AcDbLine
 10
3090.517922557207
 20
-2832.898424666605
 11
3088.703798438442
 21
-2832.898424666605
  0
LINE
  5
325
100
AcDbEntity
  8
1
  6
CONTINUOUS
 62
           3
100
AcDbLine
 10
3103.942816047198
 20
-2830.16336076033
 11
3103.760653583182
 21
-2830.554009425066
  0
LINE
  5
324
100
AcDbEntity
  8
1
  6
CONTINUOUS
 62
           3
100
AcDbLine
 10
3105.71116352179
 20
-2831.533748998976
 11
3105.42726120514
 21
-2832.142579481967
  0
LINE
  5
323
100
AcDbEntity
  8
1
  6
CONTINUOUS
 62
           3
100
AcDbLine
 10
3102.956908746911
 20
-2832.277645788698
 11
3103.176134065518
 21
-2831.807515575711
  0
LINE
  5
322
100
AcDbEntity
  8
1
  6
CONTINUOUS
 62
           3
100
AcDbLine
 10
3106.413168505365
 20
-2830.028294453512
 11
3106.295683039456
 21
-2830.280242848421
  0
LINE
  5
321
100
AcDbEntity
  8
1
  6
CONTINUOUS
 62
           3
100
AcDbLine
 10
3105.129255331966
 20
-2829.407515575691
 11
3106.017688743797
 21
-2829.407515575691
  0
LINE
  5
320
100
AcDbEntity
  8
1
  6
CONTINUOUS
 62
           3
100
AcDbLine
 10
3103.352388508569
 20
-2832.898424666605
 11
3104.240821920253
 21
-2832.898424666605
  0
LINE
  5
31F
100
AcDbEntity
  8
1
  6
CONTINUOUS
 62
           3
100
AcDbLine
 10
3104.156133344724
 20
-2831.174788302974
 11
3105.247188389624
 21
-2831.174788302974
  0
LINE
  5
31E
100
AcDbEntity
  8
1
  6
CONTINUOUS
 62
           3
100
AcDbLine
 10
3104.224628715409
 20
-2830.912970121155
 11
3105.315683760251
 21
-2830.912970121155
  0
LINE
  5
31D
100
AcDbEntity
  8
1
  6
CONTINUOUS
 62
           3
100
AcDbLine
 10
3103.176134065518
 20
-2831.807515575711
 11
3103.465018466176
 21
-2831.807515575711
  0
LINE
  5
31C
100
AcDbEntity
  8
1
  6
CONTINUOUS
 62
           3
100
AcDbLine
 10
3106.006798638796
 20
-2830.280242848421
 11
3106.295683039456
 21
-2830.280242848421
  0
LINE
  5
31B
100
AcDbEntity
  8
1
  6
CONTINUOUS
 62
           3
100
AcDbLine
 10
3107.358221188879
 20
-2829.407515575691
 11
3107.627876285007
 21
-2830.934788302951
  0
LINE
  5
31A
100
AcDbEntity
  8
1
  6
CONTINUOUS
 62
           3
100
AcDbLine
 10
3109.305935374729
 20
-2829.407515575691
 11
3107.627876285007
 21
-2830.934788302951
  0
LINE
  5
319
100
AcDbEntity
  8
1
  6
CONTINUOUS
 62
           3
100
AcDbLine
 10
3109.691040875526
 20
-2829.407515575691
 11
3107.595770898787
 21
-2831.371151939346
  0
LINE
  5
318
100
AcDbEntity
  8
1
  6
CONTINUOUS
 62
           3
100
AcDbLine
 10
3107.349957317998
 20
-2831.278944318516
 11
3107.042933870016
 21
-2829.407515575691
  0
LINE
  5
317
100
AcDbEntity
  8
1
  6
CONTINUOUS
 62
           3
100
AcDbLine
 10
3107.349957317998
 20
-2831.278944318516
 11
3106.594707529468
 21
-2832.898424666605
  0
LINE
  5
316
100
AcDbEntity
  8
1
  6
CONTINUOUS
 62
           3
100
AcDbLine
 10
3106.88359192995
 20
-2832.898424666605
 11
3107.595770898787
 21
-2831.371151939346
  0
LINE
  5
315
100
AcDbEntity
  8
1
  6
CONTINUOUS
 62
           3
100
AcDbLine
 10
3107.042933870016
 20
-2829.407515575691
 11
3107.358221188879
 21
-2829.407515575691
  0
LINE
  5
314
100
AcDbEntity
  8
1
  6
CONTINUOUS
 62
           3
100
AcDbLine
 10
3109.305935374729
 20
-2829.407515575691
 11
3109.691040875526
 21
-2829.407515575691
  0
LINE
  5
313
100
AcDbEntity
  8
1
  6
CONTINUOUS
 62
           3
100
AcDbLine
 10
3106.594707529468
 20
-2832.898424666605
 11
3106.88359192995
 21
-2832.898424666605
  0
LINE
  5
312
100
AcDbEntity
  8
1
  6
CONTINUOUS
 62
           3
100
AcDbLine
 10
3112.715661142724
 20
-2829.407515575691
 11
3112.613921290088
 21
-2829.669333757509
  0
LINE
  5
311
100
AcDbEntity
  8
1
  6
CONTINUOUS
 62
           3
100
AcDbLine
 10
3115.363768148176
 20
-2829.407515575691
 11
3115.262028295538
 21
-2829.669333757509
  0
LINE
  5
310
100
AcDbEntity
  8
1
  6
CONTINUOUS
 62
           3
100
AcDbLine
 10
3112.715661142724
 20
-2829.407515575691
 11
3115.363768148176
 21
-2829.407515575691
  0
LINE
  5
30F
100
AcDbEntity
  8
1
  6
CONTINUOUS
 62
           3
100
AcDbLine
 10
3112.613921290088
 20
-2829.669333757509
 11
3113.773184621874
 21
-2829.669333757509
  0
LINE
  5
30E
100
AcDbEntity
  8
1
  6
CONTINUOUS
 62
           3
100
AcDbLine
 10
3112.267434802174
 20
-2832.898424666605
 11
3112.56403288397
 21
-2832.898424666605
  0
ENDBLK
  5
410
100
AcDbEntity
  8
0
100
AcDbBlockEnd
  0
BLOCK
  5
62
100
AcDbEntity
  8
0
100
AcDbBlockBegin
  2
VORLAGE__4
 70
           0
 10
3433.629500693945
 20
-1472.925156161801
 30
0.0
  3
VORLAGE__4
  1

  0
INSERT
  5
63
100
AcDbEntity
  8
0
100
AcDbBlockReference
  2
_LOGO
 10
1619.142938593877
 20
-2841.727337345499
  0
ENDBLK
  5
411
100
AcDbEntity
  8
0
100
AcDbBlockEnd
  0
BLOCK
  5
65
100
AcDbEntity
  8
0
100
AcDbBlockBegin
  2
8300R0001
 70
           0
 10
17361.029991788379
 20
20946.93715083797
 30
0.0
  3
8300R0001
  1

  0
INSERT
  5
66
100
AcDbEntity
  8
0
100
AcDbBlockReference
  2
VORLAGE__4
 10
53822.5569625727
 20
53178.401316191135
 41
33.333333333336
 42
33.333333333328
  0
ENDBLK
  5
412
100
AcDbEntity
  8
0
100
AcDbBlockEnd
  0
BLOCK
  5
68
100
AcDbEntity
  8
0
100
AcDbBlockBegin
  2
ENDSCHALTER
 70
           0
 10
36166.880550870701
 20
-5290.39382684306
 30
0.0
  3
ENDSCHALTER
  1

  0
ENDBLK
  5
413
100
AcDbEntity
  8
0
100
AcDbBlockEnd
  0
BLOCK
  5
6A
100
AcDbEntity
  8
0
100
AcDbBlockBegin
  2
_1
 70
           0
 10
36166.880550870701
 20
-5290.39382684306
 30
0.0
  3
_1
  1

  0
INSERT
  5
6B
100
AcDbEntity
  8
0
100
AcDbBlockReference
  2
ENDSCHALTER
 10
36166.880550870701
 20
-5290.39382684306
  0
ENDBLK
  5
414
100
AcDbEntity
  8
0
100
AcDbBlockEnd
  0
BLOCK
  5
6D
100
AcDbEntity
  8
0
100
AcDbBlockBegin
  2
GETRIEBEMOTOR_SA
 70
           0
 10
10921.532771618489
 20
4222.39725031252
 30
0.0
  3
GETRIEBEMOTOR_SA
  1

  0
CIRCLE
  5
45B
100
AcDbEntity
  8
1
  6
CONTINUOUS
 62
           7
100
AcDbCircle
 10
38927.557747503743
 20
6439.389537789817
 40
15.0
  0
CIRCLE
  5
45A
100
AcDbEntity
  8
1
  6
DASHED
 62
           3
100
AcDbCircle
 10
38927.557747503743
 20
6439.389537789819
 40
195.0
  0
ARC
  5
459
100
AcDbEntity
  8
0
  6
CONTINUOUS
 62
           7
100
AcDbCircle
 10
38995.55776596917
 20
5967.389537789817
 40
19.999999999994
100
AcDbArc
 50
-90.0
 51
0.0
  0
ARC
  5
458
100
AcDbEntity
  8
0
  6
CONTINUOUS
 62
           7
100
AcDbCircle
 10
38859.557768515311
 20
5967.389537789819
 40
19.999999999993
100
AcDbArc
 50
179.999999999994
 51
-89.999999999979
  0
LINE
  5
457
100
AcDbEntity
  8
1
  6
CONTINUOUS
 62
           7
100
AcDbLine
 10
39147.691298533202
 20
6169.389537789819
 11
39144.035654296982
 21
6169.389537789819
  0
LINE
  5
456
100
AcDbEntity
  8
0
  6
CONTINUOUS
 62
           7
100
AcDbLine
 10
38859.557747503743
 20
6261.389537789817
 11
38861.947747503742
 21
6261.389537789817
  0
LINE
  5
455
100
AcDbEntity
  8
0
  6
CONTINUOUS
 62
           7
100
AcDbLine
 10
38868.947747503742
 20
6256.389537789821
 11
38861.947747503742
 21
6256.389537789819
  0
LINE
  5
454
100
AcDbEntity
  8
1
  6
CONTINUOUS
 62
           7
100
AcDbLine
 10
38861.947747503742
 20
6256.389537789819
 11
38861.947747503742
 21
6261.389537789817
  0
LINE
  5
453
100
AcDbEntity
  8
0
  6
CONTINUOUS
 62
           7
100
AcDbLine
 10
38859.55784750374
 20
6166.389537789821
 11
38861.947747503742
 21
6166.389537789821
  0
LINE
  5
452
100
AcDbEntity
  8
0
  6
CONTINUOUS
 62
           7
100
AcDbLine
 10
38868.947747503742
 20
6176.389537789821
 11
38861.947747503742
 21
6176.389537789817
  0
LINE
  5
451
100
AcDbEntity
  8
1
  6
CONTINUOUS
 62
           7
100
AcDbLine
 10
38861.947747503742
 20
6176.389537789817
 11
38861.947747503742
 21
6166.389537789821
  0
LINE
  5
450
100
AcDbEntity
  8
0
  6
CONTINUOUS
 62
           7
100
AcDbLine
 10
38861.947747503742
 20
6166.389537789821
 11
38868.947747503742
 21
6166.389537789817
  0
LINE
  5
44F
100
AcDbEntity
  8
0
  6
CONTINUOUS
 62
           7
100
AcDbLine
 10
38880.057747503743
 20
6176.389537789817
 11
38868.947747503742
 21
6176.389537789821
  0
LINE
  5
44E
100
AcDbEntity
  8
1
  6
CONTINUOUS
 62
           7
100
AcDbLine
 10
38868.947747503742
 20
6176.389537789821
 11
38868.947747503742
 21
6166.389537789817
  0
LINE
  5
44D
100
AcDbEntity
  8
0
  6
CONTINUOUS
 62
           7
100
AcDbLine
 10
38880.057747503743
 20
6261.389537789821
 11
38868.947747503749
 21
6261.389537789819
  0
LINE
  5
44C
100
AcDbEntity
  8
0
  6
CONTINUOUS
 62
           7
100
AcDbLine
 10
38880.057747503743
 20
6256.389537789817
 11
38868.947747503742
 21
6256.389537789821
  0
LINE
  5
44B
100
AcDbEntity
  8
1
  6
CONTINUOUS
 62
           7
100
AcDbLine
 10
38868.947747503742
 20
6256.389537789821
 11
38868.947747503749
 21
6261.389537789819
  0
LINE
  5
44A
100
AcDbEntity
  8
0
  6
CONTINUOUS
 62
           7
100
AcDbLine
 10
38987.557747503743
 20
6261.389537789832
 11
38943.677747503752
 21
6261.389537789827
  0
LINE
  5
449
100
AcDbEntity
  8
0
  6
CONTINUOUS
 62
           7
100
AcDbLine
 10
38884.112147503751
 20
6256.389537789824
 11
38880.057747503743
 21
6256.389537789817
  0
LINE
  5
448
100
AcDbEntity
  8
1
  6
CONTINUOUS
 62
           7
100
AcDbLine
 10
38880.057747503743
 20
6256.389537789817
 11
38880.057747503743
 21
6261.389537789821
  0
LINE
  5
447
100
AcDbEntity
  8
0
  6
CONTINUOUS
 62
           7
100
AcDbLine
 10
38868.947747503742
 20
6166.389537789817
 11
38880.05774750375
 21
6166.389537789821
  0
LINE
  5
446
100
AcDbEntity
  8
0
  6
CONTINUOUS
 62
           7
100
AcDbLine
 10
38884.112147503743
 20
6176.389537789821
 11
38880.057747503743
 21
6176.389537789817
  0
LINE
  5
445
100
AcDbEntity
  8
1
  6
CONTINUOUS
 62
           7
100
AcDbLine
 10
38880.057747503743
 20
6176.389537789817
 11
38880.05774750375
 21
6166.389537789821
  0
LINE
  5
444
100
AcDbEntity
  8
0
  6
CONTINUOUS
 62
           7
100
AcDbLine
 10
38880.05774750375
 20
6166.389537789821
 11
38894.55774750375
 21
6166.389537789821
  0
LINE
  5
443
100
AcDbEntity
  8
1
  6
CONTINUOUS
 62
           7
100
AcDbLine
 10
38894.55774750375
 20
6166.389537789821
 11
38894.55774750375
 21
6261.389537789819
  0
LINE
  5
442
100
AcDbEntity
  8
0
  6
CONTINUOUS
 62
           7
100
AcDbLine
 10
38894.55774750375
 20
6166.389537789821
 11
38911.43774750374
 21
6166.389537789821
  0
LINE
  5
441
100
AcDbEntity
  8
1
  6
CONTINUOUS
 62
           7
100
AcDbLine
 10
38911.437747503762
 20
6261.389537789824
 11
38911.43774750374
 21
6166.389537789821
  0
LINE
  5
440
100
AcDbEntity
  8
0
  6
CONTINUOUS
 62
           7
100
AcDbLine
 10
38911.43774750374
 20
6166.389537789821
 11
39015.557826492171
 21
6166.389537789821
  0
LINE
  5
43F
100
AcDbEntity
  8
0
  6
CONTINUOUS
 62
           7
100
AcDbLine
 10
38859.557747503743
 20
6256.389537789819
 11
38859.557747503743
 21
6261.389537789817
  0
LINE
  5
43E
100
AcDbEntity
  8
0
  6
DOT_CENTER
 62
           3
100
AcDbLine
 10
38887.112147503743
 20
6216.389537789819
 11
38794.557747503743
 21
6216.389537789821
  0
LINE
  5
43D
100
AcDbEntity
  8
0
  6
CONTINUOUS
 62
           7
100
AcDbLine
 10
38916.80774750375
 20
5947.389537789821
 11
38859.557768515318
 21
5947.389537789821
  0
LINE
  5
43C
100
AcDbEntity
  8
0
  6
CONTINUOUS
 62
           7
100
AcDbLine
 10
38839.557768515318
 20
5967.389537789821
 11
38839.557668515306
 21
6166.389537789821
  0
LINE
  5
43B
100
AcDbEntity
  8
0
  6
CONTINUOUS
 62
           7
100
AcDbLine
 10
38861.947747503742
 20
6261.389537789817
 11
38867.55774750375
 21
6261.389537789821
  0
LINE
  5
43A
100
AcDbEntity
  8
0
  6
CONTINUOUS
 62
           7
100
AcDbLine
 10
38868.947747503749
 20
6261.389537789819
 11
38867.55774750375
 21
6261.389537789821
  0
LINE
  5
439
100
AcDbEntity
  8
0
  6
CONTINUOUS
 62
           7
100
AcDbLine
 10
38867.55774750375
 20
6261.389537789821
 11
38867.55774750375
 21
6315.736788461874
  0
LINE
  5
438
100
AcDbEntity
  8
0
  6
CONTINUOUS
 62
           7
100
AcDbLine
 10
38797.557747503743
 20
6266.389537789817
 11
38804.557747503743
 21
6266.389537789821
  0
LINE
  5
437
100
AcDbEntity
  8
0
  6
CONTINUOUS
 62
           7
100
AcDbLine
 10
38804.557747503743
 20
6266.389537789821
 11
38804.557747503743
 21
6264.389537789817
  0
LINE
  5
436
100
AcDbEntity
  8
0
  6
CONTINUOUS
 62
           7
100
AcDbLine
 10
38804.557747503743
 20
6168.389537789821
 11
38804.557747503743
 21
6166.389537789824
  0
LINE
  5
435
100
AcDbEntity
  8
0
  6
CONTINUOUS
 62
           7
100
AcDbLine
 10
38804.557747503743
 20
6166.389537789824
 11
38797.557747503743
 21
6166.389537789821
  0
LINE
  5
434
100
AcDbEntity
  8
0
  6
CONTINUOUS
 62
           7
100
AcDbLine
 10
38797.557747503743
 20
6166.389537789821
 11
38797.557747503743
 21
6266.389537789817
  0
LINE
  5
433
100
AcDbEntity
  8
0
  6
CONTINUOUS
 62
           7
100
AcDbLine
 10
38853.557747503743
 20
6176.389537789821
 11
38853.557747503757
 21
6168.389537789824
  0
LINE
  5
432
100
AcDbEntity
  8
0
  6
CONTINUOUS
 62
           7
100
AcDbLine
 10
38853.557747503757
 20
6168.389537789824
 11
38804.557747503743
 21
6168.389537789821
  0
LINE
  5
431
100
AcDbEntity
  8
0
  6
CONTINUOUS
 62
           7
100
AcDbLine
 10
38804.557747503743
 20
6264.389537789817
 11
38804.557747503743
 21
6168.389537789821
  0
LINE
  5
430
100
AcDbEntity
  8
0
  6
CONTINUOUS
 62
           7
100
AcDbLine
 10
38804.557747503743
 20
6264.389537789817
 11
38853.55774750375
 21
6264.389537789821
  0
LINE
  5
42F
100
AcDbEntity
  8
0
  6
CONTINUOUS
 62
           7
100
AcDbLine
 10
38853.55774750375
 20
6264.389537789821
 11
38853.55774750375
 21
6256.389537789821
  0
LINE
  5
42E
100
AcDbEntity
  8
0
  6
CONTINUOUS
 62
           7
100
AcDbLine
 10
38853.55774750375
 20
6256.389537789821
 11
38853.557747503743
 21
6176.389537789821
  0
LINE
  5
42D
100
AcDbEntity
  8
0
  6
CONTINUOUS
 62
           7
100
AcDbLine
 10
38859.557847503762
 20
6176.389537789823
 11
38853.557747503743
 21
6176.389537789821
  0
LINE
  5
42C
100
AcDbEntity
  8
0
  6
CONTINUOUS
 62
           7
100
AcDbLine
 10
38884.112147503751
 20
6256.389537789824
 11
38884.112147503743
 21
6176.389537789821
  0
LINE
  5
42B
100
AcDbEntity
  8
0
  6
CONTINUOUS
 62
           7
100
AcDbLine
 10
38861.947747503742
 20
6256.389537789819
 11
38859.557747503743
 21
6256.389537789819
  0
LINE
  5
42A
100
AcDbEntity
  8
0
  6
CONTINUOUS
 62
           7
100
AcDbLine
 10
38859.557747503743
 20
6256.389537789819
 11
38853.55774750375
 21
6256.389537789821
  0
LINE
  5
429
100
AcDbEntity
  8
1
  6
CONTINUOUS
 62
           7
100
AcDbLine
 10
38859.55784750374
 20
6166.389537789821
 11
38859.557847503762
 21
6176.389537789823
  0
LINE
  5
428
100
AcDbEntity
  8
0
  6
CONTINUOUS
 62
           7
100
AcDbLine
 10
38861.947747503742
 20
6176.389537789817
 11
38859.557847503762
 21
6176.389537789823
  0
LINE
  5
427
100
AcDbEntity
  8
0
  6
CONTINUOUS
 62
           7
100
AcDbLine
 10
38839.557668515306
 20
6166.389537789821
 11
38859.55784750374
 21
6166.389537789821
  0
LINE
  5
426
100
AcDbEntity
  8
0
  6
DOT_CENTER
 62
           3
100
AcDbLine
 10
38927.557747503743
 20
6329.389537789818
 11
38927.557747503743
 21
6283.934173237596
  0
LINE
  5
425
100
AcDbEntity
  8
0
  6
DOT_CENTER
 62
           3
100
AcDbLine
 10
38927.557747503743
 20
6283.934173237596
 11
38927.557747503743
 21
6096.285404175866
  0
LINE
  5
424
100
AcDbEntity
  8
0
  6
CONTINUOUS
 62
           7
100
AcDbLine
 10
38995.55776596917
 20
5947.389537789823
 11
38916.80774750375
 21
5947.389537789821
  0
LINE
  5
423
100
AcDbEntity
  8
0
  6
DOT_CENTER
 62
           3
100
AcDbLine
 10
38927.557747503743
 20
6096.285404175866
 11
38927.557747503743
 21
5947.389537789817
  0
LINE
  5
422
100
AcDbEntity
  8
1
  6
CONTINUOUS
 62
           7
100
AcDbLine
 10
39187.557747503743
 20
6209.389537789819
 11
39187.557747503743
 21
6191.149580992758
  0
LINE
  5
421
100
AcDbEntity
  8
0
  6
CONTINUOUS
 62
           7
100
AcDbLine
 10
39015.557826492171
 20
6166.389537789821
 11
39015.557726492167
 21
5967.389537789821
  0
LINE
  5
420
100
AcDbEntity
  8
1
  6
CONTINUOUS
 62
           7
100
AcDbLine
 10
38943.677747503752
 20
6166.389537789821
 11
38943.677747503752
 21
6261.389537789827
  0
LINE
  5
41F
100
AcDbEntity
  8
1
  6
CONTINUOUS
 62
           7
100
AcDbLine
 10
38960.557747503743
 20
6261.389537789819
 11
38960.557747503743
 21
6166.389537789821
  0
LINE
  5
41E
100
AcDbEntity
  8
0
  6
CONTINUOUS
 62
           7
100
AcDbLine
 10
38987.557747503743
 20
6315.736788461874
 11
38987.557747503743
 21
6261.389537789832
  0
LINE
  5
41D
100
AcDbEntity
  8
0
  6
CONTINUOUS
 62
           7
100
AcDbLine
 10
38987.557747503743
 20
6261.389537789832
 11
38987.55774750375
 21
6166.389537789821
  0
LINE
  5
41C
100
AcDbEntity
  8
0
  6
CONTINUOUS
 62
           7
100
AcDbLine
 10
38911.437747503762
 20
6261.389537789824
 11
38880.057747503743
 21
6261.389537789821
  0
LINE
  5
41B
100
AcDbEntity
  8
0
  6
CONTINUOUS
 62
           7
100
AcDbLine
 10
38943.677747503752
 20
6261.389537789827
 11
38911.437747503762
 21
6261.389537789824
  0
LINE
  5
41A
100
AcDbEntity
  8
1
  6
CONTINUOUS
 62
           7
100
AcDbLine
 10
38997.557747503743
 20
6507.389537789823
 11
38857.557747503743
 21
6507.389537789823
  0
LINE
  5
419
100
AcDbEntity
  8
1
  6
CONTINUOUS
 62
           7
100
AcDbLine
 10
38857.557747503743
 20
6507.389537789823
 11
38857.557747503743
 21
6315.736788461874
  0
LINE
  5
418
100
AcDbEntity
  8
1
  6
CONTINUOUS
 62
           7
100
AcDbLine
 10
38857.557747503743
 20
6315.736788461874
 11
38997.557747503743
 21
6315.736788461874
  0
LINE
  5
417
100
AcDbEntity
  8
1
  6
CONTINUOUS
 62
           7
100
AcDbLine
 10
38997.557747503743
 20
6315.736788461874
 11
38997.557747503743
 21
6507.389537789823
  0
LINE
  5
416
100
AcDbEntity
  8
1
  6
DOT_CENTER
 62
           3
100
AcDbLine
 10
39042.557747503743
 20
6439.389537789819
 11
38812.557747503743
 21
6439.389537789819
  0
LINE
  5
415
100
AcDbEntity
  8
1
  6
DOT_CENTER
 62
           3
100
AcDbLine
 10
38927.557747503743
 20
6554.389537789818
 11
38927.557747503743
 21
6324.389537789818
  0
ENDBLK
  5
45C
100
AcDbEntity
  8
0
100
AcDbBlockEnd
  0
BLOCK
  5
6F
100
AcDbEntity
  8
0
100
AcDbBlockBegin
  2
SEITENTEILPROFIL_UNTEN_VA
 70
           0
 10
10139.766772719689
 20
652.746559109277
 30
0.0
  3
SEITENTEILPROFIL_UNTEN_VA
  1

  0
HATCH
  5
5A8
100
AcDbEntity
  8
0
  6
CONTINUOUS
 62
           6
100
AcDbHatch
 10
0.0
 20
0.0
 30
0.0
210
0.0
220
0.0
230
1.0
  2
USER
 70
           0
 71
           1
 91
        2
 92
        1
 93
        7
 72
           1
 10
38444.557747503743
 20
3036.3521591533699
 11
38444.557747503743
 21
3051.3895377898189
 72
           1
 10
38444.557747503743
 20
3036.3521591533699
 11
38440.04270829013
 21
3004.389537789817
 72
           1
 10
38440.04270829013
 20
3004.389537789817
 11
38437.07219923404
 21
3004.809151835866
 72
           1
 10
38440.625038603481
 20
3029.9602201121329
 11
38437.07219923404
 21
3004.809151835866
 72
           2
 10
38433.557747503743
 20
3038.3895377898189
 40
11.0
 50
180.0
 51
-50.022928138485
 73
           1
 72
           1
 10
38422.557747503743
 20
3038.3895377898189
 11
38422.557747503743
 21
3051.3895377898189
 72
           1
 10
38422.557747503743
 20
3051.3895377898189
 11
38444.557747503743
 21
3051.3895377898189
 97
        7
330
486
330
485
330
480
330
484
330
4D2
330
487
330
493
 92
       16
 93
        4
 72
           1
 10
38425.557747503743
 20
3038.3895377898202
 11
38425.557747503743
 21
3048.3895377898189
 72
           1
 10
38425.557747503743
 20
3048.3895377898189
 11
38441.557747503743
 21
3048.3895377898189
 72
           1
 10
38441.557747503743
 20
3038.3895377898202
 11
38441.557747503743
 21
3048.3895377898189
 72
           2
 10
38433.557747503743
 20
3038.3895377898189
 40
8.0
 50
179.99999999999
 51
0.00000000001
 73
           1
 97
        4
330
483
330
481
330
482
330
4D1
 75
           1
 76
           0
 52
45.0
 41
1.0
 77
           0
 78
           1
 53
45.0
 43
0.0
 44
0.0
 45
-0.7071067811865475
 46
0.7071067811865476
 79
           0
 98
        1
 10
0.0
 20
0.0
  0
DIMENSION
  5
5A7
100
AcDbEntity
  8
0
100
AcDbDimension
  2
*D61
 10
38537.557747503743
 20
2329.784452542026
 11
38427.997053837302
 21
2438.11778587536
 31
0.0
 70
           1
  1
<>
  3
ME10_DIM_30
100
AcDbAlignedDimension
 13
38327.557747503743
 23
3001.389537789818
 14
38537.557747503743
 24
3001.389537789818
  0
DIMENSION
  5
59A
100
AcDbEntity
  8
0
100
AcDbDimension
  2
*D60
 10
37885.416060825439
 20
5501.389537789817
 11
37777.08272749211
 21
5662.331578767377
 31
0.0
 53
90.0
  1
<>
  3
ME10_DIM_29
100
AcDbAlignedDimension
 13
38177.55774750375
 23
5996.389537789814
 14
38182.557747503743
 24
5501.389537789817
 50
90.0
100
AcDbRotatedDimension
  0
DIMENSION
  5
58F
100
AcDbEntity
  8
0
100
AcDbDimension
  2
*D59
 10
39090.195249704841
 20
5501.389537789819
 11
38981.861916371512
 21
4236.869282187579
 31
0.0
 53
90.0
  1
<>
  3
ME10_DIM_28
100
AcDbAlignedDimension
 13
38537.557747503743
 23
3001.389537789818
 14
38531.557747503743
 24
5501.389537789819
 50
90.0
100
AcDbRotatedDimension
  0
DIMENSION
  5
584
100
AcDbEntity
  8
0
100
AcDbDimension
  2
*D58
 10
38537.557747503743
 20
2597.728020607367
 11
38697.60188016537
 21
2706.0613539407
 31
0.0
  1
<>
  3
ME10_DIM_27
100
AcDbAlignedDimension
 13
38444.557747503743
 23
3051.389537789819
 14
38537.557747503743
 24
3001.389537789818
100
AcDbRotatedDimension
  0
DIMENSION
  5
577
100
AcDbEntity
  8
0
100
AcDbDimension
  2
*D57
 10
42704.177226311396
 20
2415.344912342157
 11
41524.560033024369
 21
2523.67824567549
 31
0.0
 70
           1
  1
<>
  3
ME10_DIM_26
100
AcDbAlignedDimension
 13
40404.177226311404
 23
3001.389537789817
 14
42704.177226311404
 24
3001.389537789818
  0
DIMENSION
  5
56C
100
AcDbEntity
  8
0
100
AcDbDimension
  2
*D56
 10
39090.710138101909
 20
5971.38953778982
 11
38982.376804768581
 21
5744.090905154735
 31
0.0
 53
90.0
  1
<>
  3
ME10_DIM_25
100
AcDbAlignedDimension
 13
38531.557747503743
 23
5501.389537789819
 14
38275.557747503743
 24
5971.38953778982
 50
90.0
100
AcDbRotatedDimension
  0
DIMENSION
  5
561
100
AcDbEntity
  8
0
100
AcDbDimension
  2
*D55
 10
38042.557747503743
 20
6174.553786446365
 11
38297.208689189509
 21
6282.887119779698
 31
0.0
  1
<>
  3
ME10_DIM_24
100
AcDbAlignedDimension
 13
38537.557747503743
 23
5856.389537789821
 14
38042.557747503743
 24
5861.389537789813
100
AcDbRotatedDimension
  0
DIMENSION
  5
556
100
AcDbEntity
  8
0
100
AcDbDimension
  2
*D54
 10
42504.177226311396
 20
2598.994018844036
 11
42597.985726237741
 21
2707.32735217737
 31
0.0
 70
           1
  1
<>
  3
ME10_DIM_23
100
AcDbAlignedDimension
 13
42704.177226311404
 23
3001.389537789818
 14
42504.177226311404
 24
3001.389537789817
  0
DIMENSION
  5
549
100
AcDbEntity
  8
0
100
AcDbDimension
  2
*D53
 10
38042.557747503735
 20
5105.216376041487
 11
37934.9040048147
 21
5213.54970937482
 31
0.0
  1
<>
  3
ME10_DIM_22
100
AcDbAlignedDimension
 13
37842.55774750375
 23
5466.08649499208
 14
38042.557747503743
 24
5642.714879787746
100
AcDbRotatedDimension
  0
DIMENSION
  5
53C
100
AcDbEntity
  8
0
100
AcDbDimension
  2
*D52
 10
40404.177226311404
 20
2613.185632829687
 11
40515.5095144925
 21
2721.51896616302
 31
0.0
  1
<>
  3
ME10_DIM_21
100
AcDbAlignedDimension
 13
40604.177226311411
 23
3001.389537789818
 14
40404.177226311404
 24
3001.389537789817
100
AcDbRotatedDimension
  0
DIMENSION
  5
52F
100
AcDbEntity
  8
0
100
AcDbDimension
  2
*D51
 10
40604.177226311411
 20
6157.314930360107
 11
40495.552923356503
 21
6265.64826369344
 31
0.0
 70
           1
  1
<>
  3
ME10_DIM_20
100
AcDbAlignedDimension
 13
40379.177226311404
 23
5954.389537789823
 14
40604.177226311411
 24
5954.389537789823
  0
DIMENSION
  5
522
100
AcDbEntity
  8
0
100
AcDbDimension
  2
*D50
 10
42884.177226311404
 20
6155.515368585207
 11
42697.640027875503
 21
6263.84870191854
 31
0.0
  1
<>
  3
ME10_DIM_19
100
AcDbAlignedDimension
 13
42504.177226311404
 23
5954.389537789822
 14
42884.177226311404
 24
5486.57457835258
100
AcDbRotatedDimension
  0
DIMENSION
  5
517
100
AcDbEntity
  8
0
100
AcDbDimension
  2
*D49
 10
42504.177226311396
 20
6374.691446923577
 11
42723.309328067699
 21
6483.02478025691
 31
0.0
  1
<>
  3
ME10_DIM_18
100
AcDbAlignedDimension
 13
42969.177226311404
 23
5871.389537789819
 14
42504.177226311404
 24
5954.389537789822
100
AcDbRotatedDimension
  0
DIMENSION
  5
50C
100
AcDbEntity
  8
0
100
AcDbDimension
  2
*D48
 10
38537.557747503743
 20
5331.204112403397
 11
38811.417592278412
 21
5439.53744573673
 31
0.0
  1
<>
  3
ME10_DIM_17
100
AcDbAlignedDimension
 13
38412.557747503743
 23
5261.389537789818
 14
38537.557747503743
 24
5856.389537789821
100
AcDbRotatedDimension
  0
DIMENSION
  5
4FF
100
AcDbEntity
  8
0
100
AcDbDimension
  2
*D47
 10
38537.557747503735
 20
4836.242830979187
 11
38207.998659546101
 21
4944.57616431252
 31
0.0
  1
<>
  3
ME10_DIM_16
100
AcDbAlignedDimension
 13
38072.557747503743
 23
5301.389537789818
 14
38537.557747503743
 24
5856.389537789821
100
AcDbRotatedDimension
  0
DIMENSION
  5
4F4
100
AcDbEntity
  8
0
100
AcDbDimension
  2
*D46
 10
38953.859252493297
 20
5501.389537789819
 11
38845.525919159969
 21
5143.625414564155
 31
0.0
 53
90.0
  1
<>
  3
ME10_DIM_15
100
AcDbAlignedDimension
 13
38412.557747503743
 23
5261.389537789818
 14
38537.557747503743
 24
5501.389537789819
 50
90.0
100
AcDbRotatedDimension
  0
DIMENSION
  5
4E8
100
AcDbEntity
  8
0
100
AcDbDimension
  2
*D45
 10
37790.77647852173
 20
6046.389537789819
 11
37682.443145188401
 21
6206.04494435313
 31
0.0
 53
90.0
  1
<>
  3
ME10_DIM_14
100
AcDbAlignedDimension
 13
38537.557747503743
 23
5996.389537789819
 14
38556.557747503743
 24
6046.389537789819
 50
90.0
100
AcDbRotatedDimension
  0
MTEXT
  5
4DB
100
AcDbEntity
  8
1
 62
           3
100
AcDbMText
 10
39344.45909461219
 20
3886.695487010098
 30
0.0
 40
66.666666666667
 41
0.0
 71
           7
 72
           1
  1
mit Sttzfuss/\Pwith bottom brace
  7
CONVERTER_2
  0
MTEXT
  5
4DA
100
AcDbEntity
  8
1
 62
           3
100
AcDbMText
 10
37945.038722119687
 20
946.973719182046
 30
0.0
 40
66.666666666667
 41
0.0
 71
           7
 72
           1
  1
mit Sttzfuss/\Pwith bottom brace
  7
CONVERTER_2
  0
TEXT
  5
4D9
100
AcDbEntity
  8
1
 62
           3
100
AcDbText
 10
38150.859245579872
 20
3927.4878602116
 40
83.333333333333
  1
A
 41
0.665
  7
CONVERTER_2
100
AcDbText
  0
TEXT
  5
4D8
100
AcDbEntity
  8
1
 62
           3
100
AcDbText
 10
38617.614138928431
 20
3930.70685947608
 40
83.333333333333
  1
A
 41
0.665
  7
CONVERTER_2
100
AcDbText
  0
MTEXT
  5
4D7
100
AcDbEntity
  8
1
 62
           3
100
AcDbMText
 10
37767.518310067258
 20
1523.0317463504
 30
0.0
 40
83.333333333333
 41
0.0
 71
           7
 72
           1
  1
Schnitt/view\PA-A
  7
CONVERTER_2
  0
ARC
  5
4D6
100
AcDbEntity
  8
1
  6
DASHED
 62
           3
100
AcDbCircle
 10
38488.557747503743
 20
5507.38953778982
 40
3.0
100
AcDbArc
 50
180.0
 51
-90.0
  0
ARC
  5
4D5
100
AcDbEntity
  8
1
  6
DASHED
 62
           3
100
AcDbCircle
 10
38531.557747503743
 20
5507.38953778982
 40
3.0
100
AcDbArc
 50
-90.0
 51
0.0
  0
ARC
  5
4D4
100
AcDbEntity
  8
1
  6
DASHED
 62
           3
100
AcDbCircle
 10
38488.557747503743
 20
5507.38953778982
 40
6.0
100
AcDbArc
 50
-179.999999999991
 51
-90.0
  0
ARC
  5
4D3
100
AcDbEntity
  8
1
  6
DASHED
 62
           3
100
AcDbCircle
 10
38531.557747503743
 20
5507.38953778982
 40
6.000000000001
100
AcDbArc
 50
-90.0
 51
-0.000000000009
  0
ARC
  5
4D2
100
AcDbEntity
  8
1
  6
CONTINUOUS
 62
           7
100
AcDbCircle
 10
38433.557747503743
 20
3038.389537789819
 40
11.0
100
AcDbArc
 50
180.0
 51
-50.022928138485
  0
ARC
  5
4D1
100
AcDbEntity
  8
1
  6
CONTINUOUS
 62
           7
100
AcDbCircle
 10
38433.557747503743
 20
3038.389537789819
 40
8.0
100
AcDbArc
 50
179.99999999999
 51
0.00000000001
  0
LINE
  5
4D0
100
AcDbEntity
  8
1
  6
CONTINUOUS
 62
           7
100
AcDbLine
 10
39427.557747503743
 20
3019.389537789818
 11
39427.557747503743
 21
3812.20302893166
  0
LINE
  5
4CF
100
AcDbEntity
  8
1
  6
CONTINUOUS
 62
           7
100
AcDbLine
 10
39637.557747503743
 20
3022.389537789817
 11
39427.557747503743
 21
3022.389537789817
  0
LINE
  5
4CE
100
AcDbEntity
  8
1
  6
CONTINUOUS
 62
           7
100
AcDbLine
 10
39569.557747503743
 20
3753.20302893166
 11
39637.557747503743
 21
3695.104061983071
  0
LINE
  5
4CD
100
AcDbEntity
  8
1
  6
CONTINUOUS
 62
           7
100
AcDbLine
 10
39486.557747503743
 20
3741.20302893166
 11
39569.557747503743
 21
3753.20302893166
  0
LINE
  5
4CC
100
AcDbEntity
  8
1
  6
CONTINUOUS
 62
           7
100
AcDbLine
 10
39427.557747503743
 20
3812.20302893166
 11
39486.557747503743
 21
3741.20302893166
  0
LINE
  5
4CB
100
AcDbEntity
  8
1
  6
CONTINUOUS
 62
           7
100
AcDbLine
 10
39427.557747503743
 20
3019.389537789818
 11
39637.557747503743
 21
3019.389537789818
  0
LINE
  5
4CA
100
AcDbEntity
  8
1
  6
CONTINUOUS
 62
           7
100
AcDbLine
 10
39637.557747503743
 20
3019.389537789818
 11
39637.557747503743
 21
3695.104061983071
  0
LINE
  5
4C9
100
AcDbEntity
  8
1
  6
DOT_CENTER
 62
           3
100
AcDbLine
 10
40404.177226311404
 20
5954.389537789822
 11
40404.177226311404
 21
5996.389537789818
  0
LINE
  5
4C8
100
AcDbEntity
  8
1
  6
DOT_CENTER
 62
           3
100
AcDbLine
 10
42704.177226311404
 20
5954.389537789823
 11
42704.177226311404
 21
5996.389537789818
  0
LINE
  5
4C7
100
AcDbEntity
  8
1
  6
CONTINUOUS
 62
           7
100
AcDbLine
 10
42704.177226311404
 20
5871.389537789819
 11
42704.177226311404
 21
3001.389537789818
  0
LINE
  5
4C6
100
AcDbEntity
  8
1
  6
DOT_CENTER
 62
           3
100
AcDbLine
 10
42969.177226311404
 20
5871.389537789819
 11
42704.177226311404
 21
5871.389537789819
  0
LINE
  5
4C5
100
AcDbEntity
  8
1
  6
CONTINUOUS
 62
           7
100
AcDbLine
 10
40604.177226311411
 20
5551.38953778982
 11
42504.177226311404
 21
5551.38953778982
  0
LINE
  5
4C4
100
AcDbEntity
  8
1
  6
CONTINUOUS
 62
           7
100
AcDbLine
 10
40604.177226311411
 20
5451.38953778982
 11
42504.177226311404
 21
5451.38953778982
  0
LINE
  5
4C3
100
AcDbEntity
  8
1
  6
CONTINUOUS
 62
           7
100
AcDbLine
 10
40604.177226311411
 20
5351.38953778982
 11
42504.177226311404
 21
5351.38953778982
  0
LINE
  5
4C2
100
AcDbEntity
  8
1
  6
CONTINUOUS
 62
           7
100
AcDbLine
 10
40604.177226311411
 20
5251.38953778982
 11
42504.177226311404
 21
5251.38953778982
  0
LINE
  5
4C1
100
AcDbEntity
  8
1
  6
CONTINUOUS
 62
           7
100
AcDbLine
 10
40604.177226311411
 20
5151.38953778982
 11
42504.177226311404
 21
5151.38953778982
  0
LINE
  5
4C0
100
AcDbEntity
  8
1
  6
CONTINUOUS
 62
           7
100
AcDbLine
 10
40604.177226311411
 20
5051.38953778982
 11
42504.177226311404
 21
5051.38953778982
  0
LINE
  5
4BF
100
AcDbEntity
  8
1
  6
CONTINUOUS
 62
           7
100
AcDbLine
 10
40604.177226311411
 20
4951.38953778982
 11
42504.177226311404
 21
4951.38953778982
  0
LINE
  5
4BE
100
AcDbEntity
  8
1
  6
CONTINUOUS
 62
           7
100
AcDbLine
 10
40604.177226311411
 20
4851.38953778982
 11
42504.177226311404
 21
4851.38953778982
  0
LINE
  5
4BD
100
AcDbEntity
  8
1
  6
CONTINUOUS
 62
           7
100
AcDbLine
 10
40604.177226311411
 20
4751.38953778982
 11
42504.177226311404
 21
4751.38953778982
  0
LINE
  5
4BC
100
AcDbEntity
  8
1
  6
CONTINUOUS
 62
           7
100
AcDbLine
 10
40604.177226311411
 20
4651.38953778982
 11
42504.177226311404
 21
4651.38953778982
  0
LINE
  5
4BB
100
AcDbEntity
  8
1
  6
CONTINUOUS
 62
           7
100
AcDbLine
 10
40604.177226311411
 20
4551.38953778982
 11
42504.177226311404
 21
4551.38953778982
  0
LINE
  5
4BA
100
AcDbEntity
  8
1
  6
CONTINUOUS
 62
           7
100
AcDbLine
 10
40604.177226311411
 20
4451.38953778982
 11
42504.177226311404
 21
4451.38953778982
  0
LINE
  5
4B9
100
AcDbEntity
  8
1
  6
CONTINUOUS
 62
           7
100
AcDbLine
 10
40604.177226311411
 20
4351.38953778982
 11
42504.177226311404
 21
4351.38953778982
  0
LINE
  5
4B8
100
AcDbEntity
  8
1
  6
CONTINUOUS
 62
           7
100
AcDbLine
 10
40604.177226311411
 20
4251.38953778982
 11
42504.177226311404
 21
4251.38953778982
  0
LINE
  5
4B7
100
AcDbEntity
  8
1
  6
CONTINUOUS
 62
           7
100
AcDbLine
 10
40604.177226311411
 20
4151.38953778982
 11
42504.177226311404
 21
4151.38953778982
  0
LINE
  5
4B6
100
AcDbEntity
  8
1
  6
CONTINUOUS
 62
           7
100
AcDbLine
 10
40604.177226311411
 20
4051.38953778982
 11
42504.177226311404
 21
4051.38953778982
  0
LINE
  5
4B5
100
AcDbEntity
  8
1
  6
CONTINUOUS
 62
           7
100
AcDbLine
 10
40604.177226311411
 20
3951.38953778982
 11
42504.177226311404
 21
3951.38953778982
  0
LINE
  5
4B4
100
AcDbEntity
  8
1
  6
CONTINUOUS
 62
           7
100
AcDbLine
 10
40604.177226311411
 20
3851.38953778982
 11
42504.177226311404
 21
3851.38953778982
  0
LINE
  5
4B3
100
AcDbEntity
  8
1
  6
CONTINUOUS
 62
           7
100
AcDbLine
 10
40604.177226311411
 20
3751.38953778982
 11
42504.177226311404
 21
3751.38953778982
  0
LINE
  5
4B2
100
AcDbEntity
  8
1
  6
CONTINUOUS
 62
           7
100
AcDbLine
 10
40604.177226311411
 20
3651.38953778982
 11
42504.177226311404
 21
3651.38953778982
  0
LINE
  5
4B1
100
AcDbEntity
  8
1
  6
CONTINUOUS
 62
           7
100
AcDbLine
 10
40604.177226311411
 20
3551.38953778982
 11
42504.177226311404
 21
3551.38953778982
  0
LINE
  5
4B0
100
AcDbEntity
  8
1
  6
CONTINUOUS
 62
           7
100
AcDbLine
 10
40604.177226311411
 20
3451.38953778982
 11
42504.177226311404
 21
3451.38953778982
  0
LINE
  5
4AF
100
AcDbEntity
  8
1
  6
CONTINUOUS
 62
           7
100
AcDbLine
 10
40604.177226311411
 20
3351.38953778982
 11
42504.177226311404
 21
3351.38953778982
  0
LINE
  5
4AE
100
AcDbEntity
  8
1
  6
CONTINUOUS
 62
           7
100
AcDbLine
 10
40604.177226311411
 20
3251.38953778982
 11
42504.177226311404
 21
3251.38953778982
  0
LINE
  5
4AD
100
AcDbEntity
  8
1
  6
CONTINUOUS
 62
           7
100
AcDbLine
 10
40604.177226311411
 20
3151.38953778982
 11
42504.177226311404
 21
3151.38953778982
  0
LINE
  5
4AC
100
AcDbEntity
  8
1
  6
DOT_CENTER
 62
           3
100
AcDbLine
 10
38262.557747503743
 20
5971.38953778982
 11
38275.557747503743
 21
5971.38953778982
  0
LINE
  5
4AB
100
AcDbEntity
  8
1
  6
CONTINUOUS
 62
           7
100
AcDbLine
 10
38537.557747503743
 20
5856.389537789821
 11
38437.557747503743
 21
5856.389537789821
  0
LINE
  5
4AA
100
AcDbEntity
  8
1
  6
CONTINUOUS
 62
           7
100
AcDbLine
 10
40604.177226311411
 20
3051.38953778982
 11
42504.177226311404
 21
3051.38953778982
  0
LINE
  5
4A9
100
AcDbEntity
  8
1
  6
DASH_CENTER
 62
           3
100
AcDbLine
 10
40404.177226311404
 20
5996.389537789818
 11
42704.177226311404
 21
5996.389537789818
  0
LINE
  5
4A8
100
AcDbEntity
  8
1
  6
CONTINUOUS
 62
           7
100
AcDbLine
 10
40604.177226311411
 20
5717.389537789819
 11
42504.177226311404
 21
5717.389537789819
  0
LINE
  5
4A7
100
AcDbEntity
  8
1
  6
CONTINUOUS
 62
           7
100
AcDbLine
 10
40604.177226311411
 20
5825.389537789817
 11
42504.177226311404
 21
5825.389537789817
  0
LINE
  5
4A6
100
AcDbEntity
  8
1
  6
CONTINUOUS
 62
           7
100
AcDbLine
 10
42504.177226311404
 20
5954.389537789822
 11
42704.177226311404
 21
5954.389537789823
  0
LINE
  5
4A5
100
AcDbEntity
  8
1
  6
CONTINUOUS
 62
           7
100
AcDbLine
 10
42504.177226311404
 20
5954.389537789822
 11
42504.177226311404
 21
3001.389537789817
  0
LINE
  5
4A4
100
AcDbEntity
  8
1
  6
CONTINUOUS
 62
           7
100
AcDbLine
 10
42504.177226311404
 20
3001.389537789817
 11
42704.177226311404
 21
3001.389537789818
  0
LINE
  5
4A3
100
AcDbEntity
  8
1
  6
DOT_CENTER
 62
           3
100
AcDbLine
 10
40225.177226311389
 20
5771.389537789817
 11
42878.804157543207
 21
5771.389537789817
  0
LINE
  5
4A2
100
AcDbEntity
  8
1
  6
CONTINUOUS
 62
           7
100
AcDbLine
 10
40404.177226311404
 20
5954.389537789822
 11
40604.177226311411
 21
5954.389537789823
  0
LINE
  5
4A1
100
AcDbEntity
  8
1
  6
CONTINUOUS
 62
           7
100
AcDbLine
 10
40604.177226311411
 20
3001.389537789818
 11
40604.177226311411
 21
5954.389537789823
  0
LINE
  5
4A0
100
AcDbEntity
  8
1
  6
CONTINUOUS
 62
           7
100
AcDbLine
 10
38327.557747503743
 20
3001.389537789818
 11
38327.557747503743
 21
5279.389537789822
  0
LINE
  5
49F
100
AcDbEntity
  8
1
  6
CONTINUOUS
 62
           7
100
AcDbLine
 10
38537.557747503743
 20
3001.389537789818
 11
38537.557747503743
 21
5856.389537789821
  0
LINE
  5
49E
100
AcDbEntity
  8
1
  6
CONTINUOUS
 62
           7
100
AcDbLine
 10
40404.177226311404
 20
3001.389537789817
 11
40404.177226311404
 21
5481.389537789822
  0
LINE
  5
49D
100
AcDbEntity
  8
1
  6
CONTINUOUS
 62
           7
100
AcDbLine
 10
40404.177226311404
 20
3001.389537789817
 11
40604.177226311411
 21
3001.389537789818
  0
LINE
  5
49C
100
AcDbEntity
  8
1
  6
CONTINUOUS
 62
           7
100
AcDbLine
 10
38327.557747503743
 20
3001.389537789818
 11
38537.557747503743
 21
3001.389537789818
  0
LINE
  5
49B
100
AcDbEntity
  8
1
  6
DASHED
 62
           3
100
AcDbLine
 10
38534.557747503743
 20
5541.389537789819
 11
38537.557747503743
 21
5541.389537789819
  0
LINE
  5
49A
100
AcDbEntity
  8
1
  6
DASHED
 62
           3
100
AcDbLine
 10
38537.557747503743
 20
5541.389537789819
 11
38537.557747503743
 21
5507.389537789819
  0
LINE
  5
499
100
AcDbEntity
  8
1
  6
DASHED
 62
           3
100
AcDbLine
 10
38531.557747503743
 20
5501.389537789819
 11
38488.557747503743
 21
5501.389537789819
  0
LINE
  5
498
100
AcDbEntity
  8
1
  6
DASHED
 62
           3
100
AcDbLine
 10
38482.557747503743
 20
5507.389537789819
 11
38482.557747503743
 21
5541.389537789819
  0
LINE
  5
497
100
AcDbEntity
  8
1
  6
DASHED
 62
           3
100
AcDbLine
 10
38485.557747503743
 20
5507.38953778982
 11
38485.557747503743
 21
5541.389537789819
  0
LINE
  5
496
100
AcDbEntity
  8
1
  6
DASHED
 62
           3
100
AcDbLine
 10
38531.557747503743
 20
5504.38953778982
 11
38488.557747503743
 21
5504.38953778982
  0
LINE
  5
495
100
AcDbEntity
  8
1
  6
DASHED
 62
           3
100
AcDbLine
 10
38534.557747503743
 20
5541.389537789819
 11
38534.557747503743
 21
5507.38953778982
  0
LINE
  5
494
100
AcDbEntity
  8
1
  6
DASHED
 62
           3
100
AcDbLine
 10
38485.557747503743
 20
5541.389537789819
 11
38482.557747503743
 21
5541.389537789819
  0
LINE
  5
493
100
AcDbEntity
  8
1
  6
CONTINUOUS
 62
           7
100
AcDbLine
 10
38422.557747503743
 20
3051.389537789819
 11
38444.557747503743
 21
3051.389537789819
  0
LINE
  5
492
100
AcDbEntity
  8
1
  6
CONTINUOUS
 62
           7
100
AcDbLine
 10
38444.557747503743
 20
3051.389537789819
 11
38444.557747503743
 21
3731.588571100335
  0
LINE
  5
491
100
AcDbEntity
  8
1
  6
CONTINUOUS
 62
           7
100
AcDbLine
 10
38422.557747503743
 20
3728.407848208768
 11
38422.557747503743
 21
3051.389537789819
  0
LINE
  5
490
100
AcDbEntity
  8
1
  6
CONTINUOUS
 62
           7
100
AcDbLine
 10
38422.557747503743
 20
3176.38953778982
 11
38444.557747503743
 21
3176.38953778982
  0
LINE
  5
48F
100
AcDbEntity
  8
1
  6
CONTINUOUS
 62
           7
100
AcDbLine
 10
38422.557747503743
 20
3301.38953778982
 11
38444.557747503743
 21
3301.38953778982
  0
LINE
  5
48E
100
AcDbEntity
  8
1
  6
CONTINUOUS
 62
           7
100
AcDbLine
 10
38422.557747503743
 20
3426.38953778982
 11
38444.557747503743
 21
3426.38953778982
  0
LINE
  5
48D
100
AcDbEntity
  8
1
  6
CONTINUOUS
 62
           7
100
AcDbLine
 10
38422.557747503743
 20
3551.38953778982
 11
38444.557747503743
 21
3551.38953778982
  0
LINE
  5
48C
100
AcDbEntity
  8
1
  6
CONTINUOUS
 62
           7
100
AcDbLine
 10
38327.557747503743
 20
3794.20302893166
 11
38386.557747503743
 21
3723.20302893166
  0
LINE
  5
48B
100
AcDbEntity
  8
1
  6
CONTINUOUS
 62
           7
100
AcDbLine
 10
38386.557747503743
 20
3723.20302893166
 11
38469.557747503743
 21
3735.20302893166
  0
LINE
  5
48A
100
AcDbEntity
  8
1
  6
CONTINUOUS
 62
           7
100
AcDbLine
 10
38469.557747503743
 20
3735.20302893166
 11
38537.557747503743
 21
3677.104061983071
  0
LINE
  5
489
100
AcDbEntity
  8
1
  6
CONTINUOUS
 62
           7
100
AcDbLine
 10
38422.557747503743
 20
3676.38953778982
 11
38444.557747503743
 21
3676.38953778982
  0
LINE
  5
488
100
AcDbEntity
  8
1
  6
CONTINUOUS
 62
           7
100
AcDbLine
 10
38537.557747503743
 20
3004.389537789817
 11
38327.557747503743
 21
3004.389537789817
  0
LINE
  5
487
100
AcDbEntity
  8
1
  6
CONTINUOUS
 62
           7
100
AcDbLine
 10
38422.557747503743
 20
3038.389537789819
 11
38422.557747503743
 21
3051.389537789819
  0
LINE
  5
486
100
AcDbEntity
  8
1
  6
CONTINUOUS
 62
           7
100
AcDbLine
 10
38444.557747503743
 20
3036.35215915337
 11
38444.557747503743
 21
3051.389537789819
  0
LINE
  5
485
100
AcDbEntity
  8
1
  6
CONTINUOUS
 62
           7
100
AcDbLine
 10
38444.557747503743
 20
3036.35215915337
 11
38440.04270829013
 21
3004.389537789817
  0
LINE
  5
484
100
AcDbEntity
  8
1
  6
CONTINUOUS
 62
           7
100
AcDbLine
 10
38440.625038603481
 20
3029.960220112133
 11
38437.07219923404
 21
3004.809151835866
  0
LINE
  5
483
100
AcDbEntity
  8
1
  6
CONTINUOUS
 62
           7
100
AcDbLine
 10
38425.557747503743
 20
3038.38953778982
 11
38425.557747503743
 21
3048.389537789819
  0
LINE
  5
482
100
AcDbEntity
  8
1
  6
CONTINUOUS
 62
           7
100
AcDbLine
 10
38441.557747503743
 20
3038.38953778982
 11
38441.557747503743
 21
3048.389537789819
  0
LINE
  5
481
100
AcDbEntity
  8
1
  6
CONTINUOUS
 62
           7
100
AcDbLine
 10
38425.557747503743
 20
3048.389537789819
 11
38441.557747503743
 21
3048.389537789819
  0
LINE
  5
480
100
AcDbEntity
  8
1
  6
CONTINUOUS
 62
           7
100
AcDbLine
 10
38440.04270829013
 20
3004.389537789817
 11
38437.07219923404
 21
3004.809151835866
  0
LINE
  5
47F
100
AcDbEntity
  8
1
  6
DOT_CENTER
 62
           3
100
AcDbLine
 10
38507.746196582011
 20
3871.61100776721
 11
38721.746196582011
 21
3871.61100776721
  0
LINE
  5
47E
100
AcDbEntity
  8
1
  6
DOT_CENTER
 62
           3
100
AcDbLine
 10
38347.23411965085
 20
3871.61100776721
 11
38229.666518897517
 21
3871.61100776721
  0
LINE
  5
47D
100
AcDbEntity
  8
1
  6
CONTINUOUS
 62
           7
100
AcDbLine
 10
38229.666518897517
 20
4012.51232829992
 11
38229.666518897517
 21
3896.61100776721
  0
LINE
  5
47C
100
AcDbEntity
  8
1
  6
DOT_CENTER
 62
           3
100
AcDbLine
 10
38229.666518897517
 20
3871.61100776721
 11
38111.23411965085
 21
3871.61100776721
  0
LINE
  5
47B
100
AcDbEntity
  8
1
  6
CONTINUOUS
 62
           7
100
AcDbLine
 10
38229.666518897517
 20
3871.61100776721
 11
38223.666518897517
 21
3896.61100776721
  0
LINE
  5
47A
100
AcDbEntity
  8
1
  6
CONTINUOUS
 62
           7
100
AcDbLine
 10
38229.666518897517
 20
3871.61100776721
 11
38234.87485223086
 21
3896.61100776721
  0
LINE
  5
479
100
AcDbEntity
  8
1
  6
CONTINUOUS
 62
           7
100
AcDbLine
 10
38223.666518897517
 20
3896.61100776721
 11
38229.666518897517
 21
3896.61100776721
  0
LINE
  5
478
100
AcDbEntity
  8
1
  6
CONTINUOUS
 62
           7
100
AcDbLine
 10
38229.666518897517
 20
3896.61100776721
 11
38234.87485223086
 21
3896.61100776721
  0
LINE
  5
477
100
AcDbEntity
  8
1
  6
CONTINUOUS
 62
           7
100
AcDbLine
 10
38592.666518897517
 20
4012.51232829992
 11
38592.666518897517
 21
3896.61100776721
  0
LINE
  5
476
100
AcDbEntity
  8
1
  6
CONTINUOUS
 62
           7
100
AcDbLine
 10
38592.666518897517
 20
3871.61100776721
 11
38586.666518897517
 21
3896.61100776721
  0
LINE
  5
475
100
AcDbEntity
  8
1
  6
CONTINUOUS
 62
           7
100
AcDbLine
 10
38592.666518897517
 20
3871.61100776721
 11
38597.87485223086
 21
3896.61100776721
  0
LINE
  5
474
100
AcDbEntity
  8
1
  6
CONTINUOUS
 62
           7
100
AcDbLine
 10
38586.666518897517
 20
3896.61100776721
 11
38592.666518897517
 21
3896.61100776721
  0
LINE
  5
473
100
AcDbEntity
  8
1
  6
CONTINUOUS
 62
           7
100
AcDbLine
 10
38592.666518897517
 20
3896.61100776721
 11
38597.87485223086
 21
3896.61100776721
  0
LINE
  5
472
100
AcDbEntity
  8
1
  6
CONTINUOUS
 62
           7
100
AcDbLine
 10
38017.918566341767
 20
5583.59138117463
 11
38017.918566341767
 21
5583.591381174626
  0
LINE
  5
471
100
AcDbEntity
  8
1
  6
DOT_CENTER
 62
           3
100
AcDbLine
 10
38537.557747503743
 20
5996.389537789819
 11
38177.55774750375
 21
5996.389537789814
  0
LINE
  5
470
100
AcDbEntity
  8
1
  6
DOT_CENTER
 62
           3
100
AcDbLine
 10
38177.55774750375
 20
5996.389537789814
 11
38042.557747503743
 21
5861.389537789813
  0
LINE
  5
46F
100
AcDbEntity
  8
1
  6
DOT_CENTER
 62
           3
100
AcDbLine
 10
38042.557747503743
 20
5861.389537789813
 11
38042.557747503743
 21
5642.714879787746
  0
LINE
  5
46E
100
AcDbEntity
  8
1
  6
DOT_CENTER
 62
           3
100
AcDbLine
 10
38042.557747503743
 20
5642.714879787746
 11
38182.557747503743
 21
5501.389537789817
  0
LINE
  5
46D
100
AcDbEntity
  8
1
  6
DOT_CENTER
 62
           3
100
AcDbLine
 10
38182.557747503743
 20
5501.389537789817
 11
38537.557747503743
 21
5501.389537789819
  0
LINE
  5
46C
100
AcDbEntity
  8
1
  6
DOT_CENTER
 62
           3
100
AcDbLine
 10
42704.177226311404
 20
5261.389537789818
 11
42969.177226311404
 21
5261.389537789818
  0
LINE
  5
46B
100
AcDbEntity
  8
1
  6
CONTINUOUS
 62
           7
100
AcDbLine
 10
42704.177226311404
 20
5954.389537789823
 11
42704.177226311404
 21
5871.389537789819
  0
LINE
  5
46A
100
AcDbEntity
  8
1
  6
DOT_CENTER
 62
           3
100
AcDbLine
 10
42969.177226311404
 20
5261.389537789818
 11
42969.177226311404
 21
5871.389537789819
  0
LINE
  5
469
100
AcDbEntity
  8
1
  6
CONTINUOUS
 62
           7
100
AcDbLine
 10
40404.177226311404
 20
5481.389537789822
 11
40379.177226311404
 21
5481.389537789823
  0
LINE
  5
468
100
AcDbEntity
  8
1
  6
CONTINUOUS
 62
           7
100
AcDbLine
 10
40404.177226311404
 20
5481.389537789822
 11
40404.177226311404
 21
5954.389537789822
  0
LINE
  5
467
100
AcDbEntity
  8
1
  6
CONTINUOUS
 62
           7
100
AcDbLine
 10
40379.177226311404
 20
5481.389537789823
 11
40379.177226311404
 21
5954.389537789823
  0
LINE
  5
466
100
AcDbEntity
  8
1
  6
CONTINUOUS
 62
           7
100
AcDbLine
 10
40404.177226311404
 20
5954.389537789822
 11
40379.177226311404
 21
5954.389537789823
  0
LINE
  5
465
100
AcDbEntity
  8
1
  6
CONTINUOUS
 62
           7
100
AcDbLine
 10
37842.55774750375
 20
5497.08649499208
 11
37842.55774750375
 21
5466.08649499208
  0
LINE
  5
464
100
AcDbEntity
  8
1
  6
CONTINUOUS
 62
           7
100
AcDbLine
 10
42884.177226311404
 20
5486.57457835258
 11
42884.177226311404
 21
5474.730401231581
  0
LINE
  5
463
100
AcDbEntity
  8
1
  6
DOT_CENTER
 62
           3
100
AcDbLine
 10
38412.557747503743
 20
5871.389537789819
 11
38412.557747503743
 21
5261.389537789818
  0
LINE
  5
462
100
AcDbEntity
  8
1
  6
DOT_CENTER
 62
           3
100
AcDbLine
 10
38072.557747503743
 20
5831.389537789819
 11
38072.557747503743
 21
5301.389537789818
  0
LINE
  5
461
100
AcDbEntity
  8
1
  6
DOT_CENTER
 62
           3
100
AcDbLine
 10
38072.557747503743
 20
5301.389537789818
 11
38197.557747503743
 21
5261.389537789818
  0
LINE
  5
460
100
AcDbEntity
  8
1
  6
DOT_CENTER
 62
           3
100
AcDbLine
 10
38412.557747503743
 20
5871.389537789819
 11
38197.557747503743
 21
5871.389537789819
  0
LINE
  5
45F
100
AcDbEntity
  8
1
  6
DOT_CENTER
 62
           3
100
AcDbLine
 10
38197.557747503743
 20
5871.389537789819
 11
38072.557747503743
 21
5831.389537789819
  0
LINE
  5
45E
100
AcDbEntity
  8
1
  6
DOT_CENTER
 62
           3
100
AcDbLine
 10
38197.557747503743
 20
5261.389537789818
 11
38412.557747503743
 21
5261.389537789818
  0
LINE
  5
45D
100
AcDbEntity
  8
1
  6
DASHED
 62
           3
100
AcDbLine
 10
38537.557747503743
 20
6046.389537789819
 11
38556.557747503743
 21
6046.389537789819
  0
ENDBLK
  5
5A9
100
AcDbEntity
  8
0
100
AcDbBlockEnd
  0
BLOCK
  5
71
100
AcDbEntity
  8
0
100
AcDbBlockBegin
  2
_SEITENTEIL_UNTEN_VA
 70
           0
 10
4944.011680487134
 20
1740.893124144855
 30
0.0
  3
_SEITENTEIL_UNTEN_VA
  1

  0
INSERT
  5
72
100
AcDbEntity
  8
0
100
AcDbBlockReference
  2
SEITENTEILPROFIL_UNTEN_VA
 10
10139.766772719689
 20
652.746559109277
  0
ENDBLK
  5
5AA
100
AcDbEntity
  8
0
100
AcDbBlockEnd
  0
BLOCK
  5
74
100
AcDbEntity
  8
0
100
AcDbBlockBegin
  2
GETRIEBEMOTOR_VA
 70
           0
 10
9434.487744224958
 20
6897.622937789765
 30
0.0
  3
GETRIEBEMOTOR_VA
  1

  0
ARC
  5
615
100
AcDbEntity
  8
1
  6
CONTINUOUS
 62
           7
100
AcDbCircle
 10
43839.177226311404
 20
5967.389537789821
 40
20.0
100
AcDbArc
 50
-90.0
 51
0.0
  0
ARC
  5
614
100
AcDbEntity
  8
1
  6
CONTINUOUS
 62
           7
100
AcDbCircle
 10
43703.177226311404
 20
5967.389537789821
 40
20.0
100
AcDbArc
 50
180.0
 51
-90.0
  0
ARC
  5
613
100
AcDbEntity
  8
1
  6
CONTINUOUS
 62
           7
100
AcDbCircle
 10
43711.177226311404
 20
6263.389537789821
 40
5.0
100
AcDbArc
 50
90.0
 51
180.0
  0
ARC
  5
612
100
AcDbEntity
  8
1
  6
CONTINUOUS
 62
           7
100
AcDbCircle
 10
43711.177226311404
 20
6166.389537789821
 40
5.0
100
AcDbArc
 50
180.0
 51
-90.0
  0
ARC
  5
611
100
AcDbEntity
  8
1
  6
CONTINUOUS
 62
           7
100
AcDbCircle
 10
43831.177226311404
 20
6166.389537789821
 40
5.0
100
AcDbArc
 50
-90.0
 51
0.0
  0
ARC
  5
610
100
AcDbEntity
  8
1
  6
CONTINUOUS
 62
           7
100
AcDbCircle
 10
43831.177226311404
 20
6263.389537789821
 40
5.0
100
AcDbArc
 50
0.0
 51
90.0
  0
CIRCLE
  5
60F
100
AcDbEntity
  8
0
  6
CONTINUOUS
 62
           7
100
AcDbCircle
 10
43723.677226311404
 20
6384.389537789821
 40
5.5
  0
CIRCLE
  5
60E
100
AcDbEntity
  8
0
  6
CONTINUOUS
 62
           7
100
AcDbCircle
 10
43818.677226311404
 20
6474.389537789821
 40
5.5
  0
CIRCLE
  5
60D
100
AcDbEntity
  8
0
  6
CONTINUOUS
 62
           7
100
AcDbCircle
 10
43723.677226311404
 20
6474.389537789821
 40
5.5
  0
ARC
  5
60C
100
AcDbEntity
  8
1
  6
CONTINUOUS
 62
           7
100
AcDbCircle
 10
43818.677226311404
 20
6384.389537789821
 40
5.5
100
AcDbArc
 50
0.0
 51
90.0
  0
ARC
  5
60B
100
AcDbEntity
  8
1
  6
CONTINUOUS
 62
           7
100
AcDbCircle
 10
43818.677226311404
 20
6384.389537789821
 40
5.5
100
AcDbArc
 50
180.0
 51
-90.0
  0
ARC
  5
60A
100
AcDbEntity
  8
1
  6
CONTINUOUS
 62
           7
100
AcDbCircle
 10
43818.677226311404
 20
6384.389537789821
 40
5.5
100
AcDbArc
 50
90.0
 51
180.0
  0
ARC
  5
609
100
AcDbEntity
  8
1
  6
CONTINUOUS
 62
           7
100
AcDbCircle
 10
43818.677226311404
 20
6384.389537789821
 40
5.5
100
AcDbArc
 50
-90.0
 51
0.0
  0
LINE
  5
608
100
AcDbEntity
  8
1
  6
CONTINUOUS
 62
           7
100
AcDbLine
 10
43707.177226311433
 20
6456.889537789823
 11
43707.177226311433
 21
6421.889537789823
  0
LINE
  5
607
100
AcDbEntity
  8
1
  6
CONTINUOUS
 62
           7
100
AcDbLine
 10
43711.177226311404
 20
6318.389537789821
 11
43711.177226311404
 21
6268.389537789821
  0
LINE
  5
606
100
AcDbEntity
  8
1
  6
CONTINUOUS
 62
           7
100
AcDbLine
 10
43760.427226311404
 20
5947.389537789821
 11
43703.177226311404
 21
5947.389537789821
  0
LINE
  5
605
100
AcDbEntity
  8
1
  6
CONTINUOUS
 62
           7
100
AcDbLine
 10
43839.177226311404
 20
5947.389537789821
 11
43760.427226311404
 21
5947.389537789821
  0
LINE
  5
604
100
AcDbEntity
  8
0
  6
DOT_CENTER
 62
           3
100
AcDbLine
 10
43818.677226311404
 20
6465.889537789821
 11
43818.677226311404
 21
6482.889537789821
  0
LINE
  5
603
100
AcDbEntity
  8
0
  6
DOT_CENTER
 62
           3
100
AcDbLine
 10
43810.177226311404
 20
6474.389537789821
 11
43827.177226311404
 21
6474.389537789821
  0
LINE
  5
602
100
AcDbEntity
  8
0
  6
DOT_CENTER
 62
           3
100
AcDbLine
 10
43723.677226311404
 20
6465.889537789821
 11
43723.677226311404
 21
6482.889537789821
  0
LINE
  5
601
100
AcDbEntity
  8
0
  6
DOT_CENTER
 62
           3
100
AcDbLine
 10
43715.177226311404
 20
6474.389537789821
 11
43732.177226311404
 21
6474.389537789821
  0
LINE
  5
600
100
AcDbEntity
  8
0
  6
DOT_CENTER
 62
           3
100
AcDbLine
 10
43818.677226311404
 20
6375.889537789821
 11
43818.677226311404
 21
6392.889537789821
  0
LINE
  5
5FF
100
AcDbEntity
  8
0
  6
DOT_CENTER
 62
           3
100
AcDbLine
 10
43810.177226311404
 20
6384.389537789821
 11
43824.177226311404
 21
6384.389537789821
  0
LINE
  5
5FE
100
AcDbEntity
  8
0
  6
DOT_CENTER
 62
           3
100
AcDbLine
 10
43723.677226311404
 20
6375.889537789821
 11
43723.677226311404
 21
6392.889537789821
  0
LINE
  5
5FD
100
AcDbEntity
  8
0
  6
DOT_CENTER
 62
           3
100
AcDbLine
 10
43715.177226311404
 20
6384.389537789821
 11
43732.177226311404
 21
6384.389537789821
  0
LINE
  5
5FC
100
AcDbEntity
  8
0
  6
CONTINUOUS
 62
           7
100
AcDbLine
 10
43819.177226311404
 20
6489.389537789821
 11
43819.177226311404
 21
6502.389537789821
  0
LINE
  5
5FB
100
AcDbEntity
  8
0
  6
CONTINUOUS
 62
           7
100
AcDbLine
 10
43816.177226311404
 20
6489.389537789821
 11
43816.177226311404
 21
6502.389537789821
  0
LINE
  5
5FA
100
AcDbEntity
  8
0
  6
CONTINUOUS
 62
           7
100
AcDbLine
 10
43723.177226311404
 20
6489.389537789821
 11
43723.177226311404
 21
6502.389537789821
  0
LINE
  5
5F9
100
AcDbEntity
  8
0
  6
CONTINUOUS
 62
           7
100
AcDbLine
 10
43726.177226311404
 20
6489.389537789821
 11
43726.177226311404
 21
6502.389537789821
  0
LINE
  5
5F8
100
AcDbEntity
  8
0
  6
CONTINUOUS
 62
           7
100
AcDbLine
 10
43726.177226311404
 20
6399.389537789821
 11
43726.177226311404
 21
6459.389537789821
  0
LINE
  5
5F7
100
AcDbEntity
  8
0
  6
CONTINUOUS
 62
           7
100
AcDbLine
 10
43723.177226311404
 20
6399.389537789821
 11
43723.177226311404
 21
6459.389537789821
  0
LINE
  5
5F6
100
AcDbEntity
  8
0
  6
CONTINUOUS
 62
           7
100
AcDbLine
 10
43819.177226311404
 20
6399.389537789821
 11
43819.177226311404
 21
6459.389537789821
  0
LINE
  5
5F5
100
AcDbEntity
  8
0
  6
CONTINUOUS
 62
           7
100
AcDbLine
 10
43816.177226311404
 20
6399.389537789821
 11
43816.177226311404
 21
6459.389537789821
  0
LINE
  5
5F4
100
AcDbEntity
  8
0
  6
CONTINUOUS
 62
           7
100
AcDbLine
 10
43829.177226311404
 20
6379.389537789821
 11
43832.177226311404
 21
6381.389537789821
  0
LINE
  5
5F3
100
AcDbEntity
  8
0
  6
CONTINUOUS
 62
           7
100
AcDbLine
 10
43829.177226311404
 20
6379.389537789821
 11
43829.177226311404
 21
6399.389537789821
  0
LINE
  5
5F2
100
AcDbEntity
  8
0
  6
CONTINUOUS
 62
           7
100
AcDbLine
 10
43816.177226311404
 20
6369.389537789821
 11
43829.177226311404
 21
6369.389537789821
  0
LINE
  5
5F1
100
AcDbEntity
  8
0
  6
CONTINUOUS
 62
           7
100
AcDbLine
 10
43726.177226311404
 20
6369.389537789821
 11
43816.177226311404
 21
6369.389537789821
  0
LINE
  5
5F0
100
AcDbEntity
  8
0
  6
CONTINUOUS
 62
           7
100
AcDbLine
 10
43713.177226311404
 20
6379.389537789821
 11
43713.177226311404
 21
6369.389537789821
  0
LINE
  5
5EF
100
AcDbEntity
  8
0
  6
CONTINUOUS
 62
           7
100
AcDbLine
 10
43829.177226311404
 20
6459.389537789821
 11
43829.177226311404
 21
6489.389537789821
  0
LINE
  5
5EE
100
AcDbEntity
  8
0
  6
CONTINUOUS
 62
           7
100
AcDbLine
 10
43713.177226311404
 20
6459.389537789821
 11
43723.177226311404
 21
6459.389537789821
  0
LINE
  5
5ED
100
AcDbEntity
  8
0
  6
CONTINUOUS
 62
           7
100
AcDbLine
 10
43713.177226311404
 20
6489.389537789821
 11
43713.177226311404
 21
6459.389537789821
  0
LINE
  5
5EC
100
AcDbEntity
  8
0
  6
CONTINUOUS
 62
           7
100
AcDbLine
 10
43713.177226311404
 20
6489.389537789821
 11
43723.177226311404
 21
6489.389537789821
  0
LINE
  5
5EB
100
AcDbEntity
  8
0
  6
DOT_CENTER
 62
           3
100
AcDbLine
 10
43703.177226311404
 20
6218.389537789821
 11
43839.177226311404
 21
6218.389537789821
  0
LINE
  5
5EA
100
AcDbEntity
  8
0
  6
DOT_CENTER
 62
           3
100
AcDbLine
 10
43704.177226311404
 20
6439.389537789821
 11
43838.177226311404
 21
6439.389537789821
  0
LINE
  5
5E9
100
AcDbEntity
  8
0
  6
CONTINUOUS
 62
           7
100
AcDbLine
 10
43854.177226311404
 20
6166.389537789821
 11
43854.177226311404
 21
6263.389537789821
  0
LINE
  5
5E8
100
AcDbEntity
  8
0
  6
CONTINUOUS
 62
           7
100
AcDbLine
 10
43688.177326311408
 20
6263.389537789821
 11
43688.177326311408
 21
6166.389537789821
  0
LINE
  5
5E7
100
AcDbEntity
  8
0
  6
CONTINUOUS
 62
           7
100
AcDbLine
 10
43836.177226311404
 20
6263.389537789821
 11
43854.177226311404
 21
6263.389537789821
  0
LINE
  5
5E6
100
AcDbEntity
  8
0
  6
CONTINUOUS
 62
           7
100
AcDbLine
 10
43688.177326311408
 20
6263.389537789821
 11
43706.177226311404
 21
6263.389537789821
  0
LINE
  5
5E5
100
AcDbEntity
  8
0
  6
CONTINUOUS
 62
           7
100
AcDbLine
 10
43726.177226311404
 20
6326.389537789821
 11
43711.177226311404
 21
6326.389537789821
  0
LINE
  5
5E4
100
AcDbEntity
  8
0
  6
CONTINUOUS
 62
           7
100
AcDbLine
 10
43683.177226311404
 20
6166.389537789821
 11
43688.177326311408
 21
6166.389537789821
  0
LINE
  5
5E3
100
AcDbEntity
  8
0
  6
CONTINUOUS
 62
           7
100
AcDbLine
 10
43688.177326311408
 20
6166.389537789821
 11
43706.177226311404
 21
6166.389537789821
  0
LINE
  5
5E2
100
AcDbEntity
  8
0
  6
CONTINUOUS
 62
           7
100
AcDbLine
 10
43683.177226311404
 20
6166.389537789821
 11
43683.177226311404
 21
5967.389537789821
  0
LINE
  5
5E1
100
AcDbEntity
  8
0
  6
CONTINUOUS
 62
           7
100
AcDbLine
 10
43854.177226311404
 20
6166.389537789821
 11
43859.177226311404
 21
6166.389537789821
  0
LINE
  5
5E0
100
AcDbEntity
  8
0
  6
CONTINUOUS
 62
           7
100
AcDbLine
 10
43859.177226311404
 20
5967.389537789821
 11
43859.177226311404
 21
6166.389537789821
  0
LINE
  5
5DF
100
AcDbEntity
  8
0
  6
CONTINUOUS
 62
           7
100
AcDbLine
 10
43831.177226311404
 20
6326.389537789821
 11
43816.177226311404
 21
6326.389537789821
  0
LINE
  5
5DE
100
AcDbEntity
  8
0
  6
CONTINUOUS
 62
           7
100
AcDbLine
 10
43831.177226311404
 20
6318.389537789821
 11
43831.177226311404
 21
6326.389537789821
  0
LINE
  5
5DD
100
AcDbEntity
  8
0
  6
CONTINUOUS
 62
           7
100
AcDbLine
 10
43711.177226311404
 20
6318.389537789821
 11
43831.177226311404
 21
6318.389537789821
  0
LINE
  5
5DC
100
AcDbEntity
  8
0
  6
CONTINUOUS
 62
           7
100
AcDbLine
 10
43711.177226311404
 20
6326.389537789821
 11
43711.177226311404
 21
6318.389537789821
  0
LINE
  5
5DB
100
AcDbEntity
  8
0
  6
CONTINUOUS
 62
           7
100
AcDbLine
 10
43816.177226311404
 20
6326.389537789821
 11
43726.177226311404
 21
6326.389537789821
  0
LINE
  5
5DA
100
AcDbEntity
  8
0
  6
CONTINUOUS
 62
           7
100
AcDbLine
 10
43816.177226311404
 20
6502.389537789821
 11
43816.177226311404
 21
6507.389537789821
  0
LINE
  5
5D9
100
AcDbEntity
  8
0
  6
CONTINUOUS
 62
           7
100
AcDbLine
 10
43726.177226311404
 20
6502.389537789821
 11
43726.177226311404
 21
6507.389537789821
  0
LINE
  5
5D8
100
AcDbEntity
  8
0
  6
CONTINUOUS
 62
           7
100
AcDbLine
 10
43816.177226311404
 20
6326.389537789821
 11
43816.177226311404
 21
6369.389537789821
  0
LINE
  5
5D7
100
AcDbEntity
  8
0
  6
CONTINUOUS
 62
           7
100
AcDbLine
 10
43726.177226311404
 20
6326.389537789821
 11
43726.177226311404
 21
6369.389537789821
  0
LINE
  5
5D6
100
AcDbEntity
  8
0
  6
CONTINUOUS
 62
           7
100
AcDbLine
 10
43832.177226311404
 20
6479.389537789821
 11
43832.177226311404
 21
6502.389537789821
  0
LINE
  5
5D5
100
AcDbEntity
  8
0
  6
CONTINUOUS
 62
           7
100
AcDbLine
 10
43816.177226311404
 20
6502.389537789821
 11
43819.177226311404
 21
6502.389537789821
  0
LINE
  5
5D4
100
AcDbEntity
  8
0
  6
CONTINUOUS
 62
           7
100
AcDbLine
 10
43832.177226311404
 20
6381.389537789821
 11
43832.177226311404
 21
6399.389537789821
  0
LINE
  5
5D3
100
AcDbEntity
  8
0
  6
CONTINUOUS
 62
           7
100
AcDbLine
 10
43835.177226311404
 20
6479.389537789821
 11
43835.177226311404
 21
6439.389537789821
  0
LINE
  5
5D2
100
AcDbEntity
  8
0
  6
CONTINUOUS
 62
           7
100
AcDbLine
 10
43832.177226311404
 20
6479.389537789821
 11
43835.177226311404
 21
6479.389537789821
  0
LINE
  5
5D1
100
AcDbEntity
  8
0
  6
CONTINUOUS
 62
           7
100
AcDbLine
 10
43832.177226311404
 20
6399.389537789821
 11
43832.177226311404
 21
6479.389537789821
  0
LINE
  5
5D0
100
AcDbEntity
  8
0
  6
CONTINUOUS
 62
           7
100
AcDbLine
 10
43835.177226311404
 20
6399.389537789821
 11
43832.177226311404
 21
6399.389537789821
  0
LINE
  5
5CF
100
AcDbEntity
  8
0
  6
CONTINUOUS
 62
           7
100
AcDbLine
 10
43835.177226311404
 20
6439.389537789821
 11
43835.177226311404
 21
6399.389537789821
  0
LINE
  5
5CE
100
AcDbEntity
  8
0
  6
CONTINUOUS
 62
           7
100
AcDbLine
 10
43710.177226311404
 20
6479.389537789821
 11
43710.177226311404
 21
6502.389537789821
  0
LINE
  5
5CD
100
AcDbEntity
  8
0
  6
CONTINUOUS
 62
           7
100
AcDbLine
 10
43710.177226311404
 20
6502.389537789821
 11
43723.177226311404
 21
6502.389537789821
  0
LINE
  5
5CC
100
AcDbEntity
  8
0
  6
CONTINUOUS
 62
           7
100
AcDbLine
 10
43710.177226311404
 20
6381.389537789821
 11
43713.177226311404
 21
6379.389537789821
  0
LINE
  5
5CB
100
AcDbEntity
  8
0
  6
CONTINUOUS
 62
           7
100
AcDbLine
 10
43710.177226311404
 20
6381.389537789821
 11
43710.177226311404
 21
6399.389537789821
  0
LINE
  5
5CA
100
AcDbEntity
  8
0
  6
CONTINUOUS
 62
           7
100
AcDbLine
 10
43707.177226311404
 20
6479.389537789821
 11
43707.177226311404
 21
6439.389537789821
  0
LINE
  5
5C9
100
AcDbEntity
  8
0
  6
CONTINUOUS
 62
           7
100
AcDbLine
 10
43710.177226311404
 20
6479.389537789821
 11
43707.177226311404
 21
6479.389537789821
  0
LINE
  5
5C8
100
AcDbEntity
  8
0
  6
CONTINUOUS
 62
           7
100
AcDbLine
 10
43710.177226311404
 20
6399.389537789821
 11
43710.177226311404
 21
6479.389537789821
  0
LINE
  5
5C7
100
AcDbEntity
  8
0
  6
CONTINUOUS
 62
           7
100
AcDbLine
 10
43707.177226311404
 20
6399.389537789821
 11
43710.177226311404
 21
6399.389537789821
  0
LINE
  5
5C6
100
AcDbEntity
  8
0
  6
CONTINUOUS
 62
           7
100
AcDbLine
 10
43707.177226311404
 20
6439.389537789821
 11
43707.177226311404
 21
6399.389537789821
  0
LINE
  5
5C5
100
AcDbEntity
  8
0
  6
CONTINUOUS
 62
           7
100
AcDbLine
 10
43829.177226311404
 20
6369.389537789821
 11
43829.177226311404
 21
6379.389537789821
  0
LINE
  5
5C4
100
AcDbEntity
  8
0
  6
CONTINUOUS
 62
           7
100
AcDbLine
 10
43713.177226311404
 20
6369.389537789821
 11
43726.177226311404
 21
6369.389537789821
  0
LINE
  5
5C3
100
AcDbEntity
  8
0
  6
CONTINUOUS
 62
           7
100
AcDbLine
 10
43713.177226311404
 20
6399.389537789821
 11
43713.177226311404
 21
6379.389537789821
  0
LINE
  5
5C2
100
AcDbEntity
  8
0
  6
CONTINUOUS
 62
           7
100
AcDbLine
 10
43713.177226311404
 20
6399.389537789821
 11
43723.177226311404
 21
6399.389537789821
  0
LINE
  5
5C1
100
AcDbEntity
  8
0
  6
CONTINUOUS
 62
           7
100
AcDbLine
 10
43723.177226311404
 20
6502.389537789821
 11
43726.177226311404
 21
6502.389537789821
  0
LINE
  5
5C0
100
AcDbEntity
  8
0
  6
CONTINUOUS
 62
           7
100
AcDbLine
 10
43723.177226311404
 20
6489.389537789821
 11
43726.177226311404
 21
6489.389537789821
  0
LINE
  5
5BF
100
AcDbEntity
  8
0
  6
CONTINUOUS
 62
           7
100
AcDbLine
 10
43819.177226311404
 20
6502.389537789821
 11
43832.177226311404
 21
6502.389537789821
  0
LINE
  5
5BE
100
AcDbEntity
  8
0
  6
CONTINUOUS
 62
           7
100
AcDbLine
 10
43816.177226311404
 20
6459.389537789821
 11
43819.177226311404
 21
6459.389537789821
  0
LINE
  5
5BD
100
AcDbEntity
  8
0
  6
CONTINUOUS
 62
           7
100
AcDbLine
 10
43836.177226311404
 20
6166.389537789821
 11
43854.177226311404
 21
6166.389537789821
  0
LINE
  5
5BC
100
AcDbEntity
  8
0
  6
CONTINUOUS
 62
           7
100
AcDbLine
 10
43726.177226311404
 20
6489.389537789821
 11
43816.177226311404
 21
6489.389537789821
  0
LINE
  5
5BB
100
AcDbEntity
  8
0
  6
CONTINUOUS
 62
           7
100
AcDbLine
 10
43819.177226311404
 20
6459.389537789821
 11
43829.177226311404
 21
6459.389537789821
  0
LINE
  5
5BA
100
AcDbEntity
  8
0
  6
CONTINUOUS
 62
           7
100
AcDbLine
 10
43816.177226311404
 20
6489.389537789821
 11
43819.177226311404
 21
6489.389537789821
  0
LINE
  5
5B9
100
AcDbEntity
  8
0
  6
CONTINUOUS
 62
           7
100
AcDbLine
 10
43819.177226311404
 20
6489.389537789821
 11
43829.177226311404
 21
6489.389537789821
  0
LINE
  5
5B8
100
AcDbEntity
  8
0
  6
CONTINUOUS
 62
           7
100
AcDbLine
 10
43819.177226311404
 20
6399.389537789821
 11
43829.177226311404
 21
6399.389537789821
  0
LINE
  5
5B7
100
AcDbEntity
  8
0
  6
CONTINUOUS
 62
           7
100
AcDbLine
 10
43816.177226311404
 20
6399.389537789821
 11
43819.177226311404
 21
6399.389537789821
  0
LINE
  5
5B6
100
AcDbEntity
  8
0
  6
CONTINUOUS
 62
           7
100
AcDbLine
 10
43723.177226311404
 20
6399.389537789821
 11
43726.177226311404
 21
6399.389537789821
  0
LINE
  5
5B5
100
AcDbEntity
  8
0
  6
CONTINUOUS
 62
           7
100
AcDbLine
 10
43723.177226311404
 20
6459.389537789821
 11
43726.177226311404
 21
6459.389537789821
  0
LINE
  5
5B4
100
AcDbEntity
  8
0
  6
CONTINUOUS
 62
           7
100
AcDbLine
 10
43726.177226311404
 20
6399.389537789821
 11
43816.177226311404
 21
6399.389537789821
  0
LINE
  5
5B3
100
AcDbEntity
  8
0
  6
CONTINUOUS
 62
           7
100
AcDbLine
 10
43726.177226311404
 20
6459.389537789821
 11
43816.177226311404
 21
6459.389537789821
  0
LINE
  5
5B2
100
AcDbEntity
  8
0
  6
DOT_CENTER
 62
           3
100
AcDbLine
 10
43824.177226311404
 20
6384.389537789821
 11
43827.177226311404
 21
6384.389537789821
  0
LINE
  5
5B1
100
AcDbEntity
  8
1
  6
CONTINUOUS
 62
           7
100
AcDbLine
 10
43726.177226311404
 20
6507.389537789821
 11
43816.177226311404
 21
6507.389537789821
  0
LINE
  5
5B0
100
AcDbEntity
  8
0
  6
DOT_CENTER
 62
           3
100
AcDbLine
 10
43778.876712457182
 20
5898.389537789821
 11
43778.876712457182
 21
6518.389537789821
  0
LINE
  5
5AF
100
AcDbEntity
  8
1
  6
CONTINUOUS
 62
           7
100
AcDbLine
 10
43831.177226311404
 20
6318.389537789821
 11
43831.177226311404
 21
6268.389537789821
  0
LINE
  5
5AE
100
AcDbEntity
  8
0
  6
CONTINUOUS
 62
           7
100
AcDbLine
 10
43831.177226311404
 20
6268.389537789821
 11
43711.177226311404
 21
6268.389537789821
  0
LINE
  5
5AD
100
AcDbEntity
  8
1
  6
CONTINUOUS
 62
           7
100
AcDbLine
 10
43711.177226311404
 20
6161.389537789821
 11
43831.177226311404
 21
6161.389537789821
  0
LINE
  5
5AC
100
AcDbEntity
  8
0
  6
CONTINUOUS
 62
           7
100
AcDbLine
 10
43706.177226311404
 20
6166.389537789821
 11
43706.177226311404
 21
6263.389537789821
  0
LINE
  5
5AB
100
AcDbEntity
  8
0
  6
CONTINUOUS
 62
           7
100
AcDbLine
 10
43836.177226311404
 20
6166.389537789821
 11
43836.177226311404
 21
6263.389537789821
  0
ENDBLK
  5
616
100
AcDbEntity
  8
0
100
AcDbBlockEnd
  0
BLOCK
  5
76
100
AcDbEntity
  8
0
100
AcDbBlockBegin
  2
ANTRIEB_SA
 70
           0
 10
16776.19413407821
 20
19227.437150838039
 30
0.0
  3
ANTRIEB_SA
  1

  0
INSERT
  5
77
100
AcDbEntity
  8
0
100
AcDbBlockReference
  2
GETRIEBEMOTOR_SA
 10
10271.532771618489
 20
3554.39725031252
  0
INSERT
  5
78
100
AcDbEntity
  8
0
100
AcDbBlockReference
  2
_SEITENTEIL_UNTEN_VA
 10
4944.011680487134
 20
1740.893124144855
  0
INSERT
  5
79
100
AcDbEntity
  8
0
100
AcDbBlockReference
  2
GETRIEBEMOTOR_VA
 10
8459.487744224958
 20
6229.622937789765
  0
ENDBLK
  5
617
100
AcDbEntity
  8
0
100
AcDbBlockEnd
  0
BLOCK
  5
CF
100
AcDbEntity
  8
0
100
AcDbBlockBegin
  2
*D31
 70
           1
 10
0.0
 20
0.0
 30
0.0
  3
*D31
  1

  0
LINE
  5
D0
100
AcDbEntity
  8
0
  6
CONTINUOUS
 62
           2
100
AcDbLine
 10
38207.55774750375
 20
84.296913158849
 11
38707.557747503743
 21
84.296913158849
  0
LINE
  5
D1
100
AcDbEntity
  8
0
  6
CONTINUOUS
 62
           2
100
AcDbLine
 10
38207.55774750375
 20
515.698611025298
 11
38207.55774750375
 21
17.630246492182
  0
LINE
  5
D2
100
AcDbEntity
  8
0
  6
CONTINUOUS
 62
           2
100
AcDbLine
 10
38707.557747503743
 20
515.698611025298
 11
38707.557747503743
 21
17.630246492182
  0
SOLID
  5
D3
100
AcDbEntity
  8
0
 62
           2
100
AcDbTrace
 10
38274.224414170414
 20
93.073746331342
 11
38274.224414170414
 21
75.520079986356
 12
38207.55774750375
 22
84.296913158849
 13
38207.55774750375
 23
84.296913158849
  0
SOLID
  5
D4
100
AcDbEntity
  8
0
 62
           2
100
AcDbTrace
 10
38640.891080837078
 20
75.520079986356
 11
38640.891080837078
 21
93.073746331342
 12
38707.557747503743
 22
84.296913158849
 13
38707.557747503743
 23
84.296913158849
  0
TEXT
  5
D6
100
AcDbEntity
  8
0
 62
           1
100
AcDbText
 10
38361.988540311599
 20
150.963579825516
 40
46.666666666667
  1
500
 41
1.357142857143
  7
CONVERTER_1
100
AcDbText
  0
ENDBLK
  5
D7
100
AcDbEntity
  8
0
100
AcDbBlockEnd
  0
BLOCK
  5
DB
100
AcDbEntity
  8
0
100
AcDbBlockBegin
  2
*D32
 70
           1
 10
0.0
 20
0.0
 30
0.0
  3
*D32
  1

  0
LINE
  5
DC
100
AcDbEntity
  8
0
  6
CONTINUOUS
 62
           2
100
AcDbLine
 10
38921.546505020298
 20
515.698611025298
 11
38921.546505020298
 21
765.698611025298
  0
LINE
  5
DD
100
AcDbEntity
  8
0
  6
CONTINUOUS
 62
           2
100
AcDbLine
 10
38707.557747503735
 20
765.698611025298
 11
38988.21317168697
 21
765.698611025298
  0
LINE
  5
DE
100
AcDbEntity
  8
0
  6
CONTINUOUS
 62
           2
100
AcDbLine
 10
38707.557747503743
 20
515.698611025298
 11
38988.21317168697
 21
515.698611025298
  0
SOLID
  5
DF
100
AcDbEntity
  8
0
 62
           2
100
AcDbTrace
 10
38930.323338192793
 20
699.031944358632
 11
38912.769671847804
 21
699.031944358632
 12
38921.546505020298
 22
765.698611025298
 13
38921.546505020298
 23
765.698611025298
  0
SOLID
  5
E0
100
AcDbEntity
  8
0
 62
           2
100
AcDbTrace
 10
38912.769671847804
 20
582.365277691965
 11
38930.323338192793
 21
582.365277691965
 12
38921.546505020298
 22
515.698611025298
 13
38921.546505020298
 23
515.698611025298
  0
MTEXT
  5
E1
100
AcDbEntity
  8
0
 62
           1
100
AcDbMText
 10
38854.879838353634
 20
583.53442017986
 30
0.0
 40
46.666666666667
 41
0.0
 71
           7
 72
           1
  1
250
  7
CONVERTER_1
 11
0.0
 21
1.0
 31
0.0
  0
ENDBLK
  5
E2
100
AcDbEntity
  8
0
100
AcDbBlockEnd
  0
BLOCK
  5
E6
100
AcDbEntity
  8
0
100
AcDbBlockBegin
  2
*D33
 70
           1
 10
0.0
 20
0.0
 30
0.0
  3
*D33
  1

  0
LINE
  5
E7
100
AcDbEntity
  8
0
  6
CONTINUOUS
 62
           2
100
AcDbLine
 10
39327.557747503743
 20
2609.16022182444
 11
39787.557747503743
 21
2609.16022182444
  0
LINE
  5
E8
100
AcDbEntity
  8
0
  6
CONTINUOUS
 62
           2
100
AcDbLine
 10
39327.557747503743
 20
2974.966122446271
 11
39327.557747503743
 21
2542.493555157774
  0
LINE
  5
E9
100
AcDbEntity
  8
0
  6
CONTINUOUS
 62
           2
100
AcDbLine
 10
39787.557747503743
 20
2960.37650124474
 11
39787.557747503743
 21
2542.493555157774
  0
SOLID
  5
EA
100
AcDbEntity
  8
0
 62
           2
100
AcDbTrace
 10
39394.224414170407
 20
2617.937054996933
 11
39394.224414170407
 21
2600.383388651947
 12
39327.557747503743
 22
2609.16022182444
 13
39327.557747503743
 23
2609.16022182444
  0
SOLID
  5
EB
100
AcDbEntity
  8
0
 62
           2
100
AcDbTrace
 10
39720.891080837078
 20
2600.383388651947
 11
39720.891080837078
 21
2617.937054996933
 12
39787.557747503743
 22
2609.16022182444
 13
39787.557747503743
 23
2609.16022182444
  0
TEXT
  5
EC
100
AcDbEntity
  8
0
 62
           1
100
AcDbText
 10
39500.4841598688
 20
2675.826888491107
 40
46.666666666667
  1
460
 41
1.357142857143
  7
CONVERTER_1
100
AcDbText
  0
ENDBLK
  5
ED
100
AcDbEntity
  8
0
100
AcDbBlockEnd
  0
BLOCK
  5
F1
100
AcDbEntity
  8
0
100
AcDbBlockBegin
  2
*D34
 70
           1
 10
0.0
 20
0.0
 30
0.0
  3
*D34
  1

  0
LINE
  5
F2
100
AcDbEntity
  8
0
  6
CONTINUOUS
 62
           2
100
AcDbLine
 10
38107.937446865108
 20
540.698611025298
 11
38107.937446865108
 21
740.698611025298
  0
LINE
  5
F3
100
AcDbEntity
  8
0
  6
CONTINUOUS
 62
           2
100
AcDbLine
 10
38227.167402478997
 20
540.698611025298
 11
38041.270780198443
 21
540.698611025298
  0
LINE
  5
F4
100
AcDbEntity
  8
0
  6
CONTINUOUS
 62
           2
100
AcDbLine
 10
38228.1374029863
 20
740.698611025298
 11
38041.270780198443
 21
740.698611025298
  0
SOLID
  5
F5
100
AcDbEntity
  8
0
 62
           2
100
AcDbTrace
 10
38099.160613692613
 20
607.365277691965
 11
38116.714280037602
 21
607.365277691965
 12
38107.937446865108
 22
540.698611025298
 13
38107.937446865108
 23
540.698611025298
  0
SOLID
  5
F6
100
AcDbEntity
  8
0
 62
           2
100
AcDbTrace
 10
38116.714280037602
 20
674.031944358632
 11
38099.160613692613
 21
674.031944358632
 12
38107.937446865108
 22
740.698611025298
 13
38107.937446865108
 23
740.698611025298
  0
MTEXT
  5
F7
100
AcDbEntity
  8
0
 62
           1
100
AcDbMText
 10
38041.270780198443
 20
589.926289462639
 30
0.0
 40
46.666666666667
 41
0.0
 71
           7
 72
           1
  1
200
  7
CONVERTER_1
 11
0.0
 21
1.0
 31
0.0
  0
ENDBLK
  5
F8
100
AcDbEntity
  8
0
100
AcDbBlockEnd
  0
BLOCK
  5
FC
100
AcDbEntity
  8
0
100
AcDbBlockBegin
  2
*D35
 70
           1
 10
0.0
 20
0.0
 30
0.0
  3
*D35
  1

  0
LINE
  5
FD
100
AcDbEntity
  8
0
  6
CONTINUOUS
 62
           2
100
AcDbLine
 10
39960.128345403697
 20
3001.389537789818
 11
39960.128345403697
 21
3649.389537789818
  0
LINE
  5
FE
100
AcDbEntity
  8
0
  6
CONTINUOUS
 62
           2
100
AcDbLine
 10
39807.557747503743
 20
3001.389537789818
 11
40026.795012070361
 21
3001.389537789818
  0
LINE
  5
FF
100
AcDbEntity
  8
0
  6
CONTINUOUS
 62
           2
100
AcDbLine
 10
39637.557747503743
 20
3649.389537789818
 11
40026.795012070361
 21
3649.389537789818
  0
SOLID
  5
100
100
AcDbEntity
  8
0
 62
           2
100
AcDbTrace
 10
39968.905178576191
 20
3582.722871123152
 11
39951.351512231202
 21
3582.722871123152
 12
39960.128345403697
 22
3649.389537789818
 13
39960.128345403697
 23
3649.389537789818
  0
SOLID
  5
101
100
AcDbEntity
  8
0
 62
           2
100
AcDbTrace
 10
39951.351512231202
 20
3068.056204456485
 11
39968.905178576191
 21
3068.056204456485
 12
39960.128345403697
 22
3001.389537789818
 13
39960.128345403697
 23
3001.389537789818
  0
MTEXT
  5
102
100
AcDbEntity
  8
0
 62
           1
100
AcDbMText
 10
39893.461678737032
 20
3309.046493928381
 30
0.0
 40
46.666666666667
 41
0.0
 71
           7
 72
           1
  1
650
  7
CONVERTER_1
 11
0.0
 21
1.0
 31
0.0
  0
ENDBLK
  5
103
100
AcDbEntity
  8
0
100
AcDbBlockEnd
  0
BLOCK
  5
107
100
AcDbEntity
  8
0
100
AcDbBlockBegin
  2
*D36
 70
           1
 10
0.0
 20
0.0
 30
0.0
  3
*D36
  1

  0
LINE
  5
108
100
AcDbEntity
  8
0
  6
CONTINUOUS
 62
           2
100
AcDbLine
 10
38537.557747503743
 20
328.37289065105
 11
38707.557747503743
 21
328.37289065105
  0
LINE
  5
109
100
AcDbEntity
  8
0
  6
CONTINUOUS
 62
           2
100
AcDbLine
 10
38537.557747503743
 20
328.37289065105
 11
38404.224414170407
 21
328.37289065105
  0
LINE
  5
10A
100
AcDbEntity
  8
0
  6
CONTINUOUS
 62
           2
100
AcDbLine
 10
38707.557747503743
 20
328.37289065105
 11
38840.891080837078
 21
328.37289065105
  0
LINE
  5
10B
100
AcDbEntity
  8
0
  6
CONTINUOUS
 62
           2
100
AcDbLine
 10
38537.557747503743
 20
565.698611025298
 11
38537.557747503743
 21
261.706223984383
  0
LINE
  5
10C
100
AcDbEntity
  8
0
  6
CONTINUOUS
 62
           2
100
AcDbLine
 10
38707.557747503743
 20
515.698611025298
 11
38707.557747503743
 21
261.706223984383
  0
SOLID
  5
10D
100
AcDbEntity
  8
0
 62
           2
100
AcDbTrace
 10
38470.891080837078
 20
319.596057478557
 11
38470.891080837078
 21
337.149723823543
 12
38537.557747503743
 22
328.37289065105
 13
38537.557747503743
 23
328.37289065105
  0
SOLID
  5
10E
100
AcDbEntity
  8
0
 62
           2
100
AcDbTrace
 10
38774.224414170407
 20
337.149723823543
 11
38774.224414170407
 21
319.596057478557
 12
38707.557747503743
 22
328.37289065105
 13
38707.557747503743
 23
328.37289065105
  0
TEXT
  5
10F
100
AcDbEntity
  8
0
 62
           1
100
AcDbText
 10
38567.65355135961
 20
395.039557317717
 40
46.666666666667
  1
170
 41
1.357142857143
  7
CONVERTER_1
100
AcDbText
  0
ENDBLK
  5
110
100
AcDbEntity
  8
0
100
AcDbBlockEnd
  0
BLOCK
  5
15C
100
AcDbEntity
  8
0
100
AcDbBlockBegin
  2
*D37
 70
           1
 10
0.0
 20
0.0
 30
0.0
  3
*D37
  1

  0
LINE
  5
15D
100
AcDbEntity
  8
0
  6
CONTINUOUS
 62
           2
100
AcDbLine
 10
43125.567294833905
 20
4886.389537789818
 11
43125.567294833905
 21
5261.389537789818
  0
LINE
  5
15E
100
AcDbEntity
  8
0
  6
CONTINUOUS
 62
           2
100
AcDbLine
 10
42939.177226311382
 20
5261.389537789818
 11
43192.233961500577
 21
5261.389537789818
  0
LINE
  5
15F
100
AcDbEntity
  8
0
  6
CONTINUOUS
 62
           2
100
AcDbLine
 10
42939.177226311382
 20
4886.389537789818
 11
43192.233961500577
 21
4886.389537789818
  0
SOLID
  5
160
100
AcDbEntity
  8
0
 62
           2
100
AcDbTrace
 10
43114.59625336829
 20
4969.722871123151
 11
43136.53833629952
 21
4969.722871123151
 12
43125.567294833905
 22
4886.389537789818
 13
43125.567294833905
 23
4886.389537789818
  0
SOLID
  5
161
100
AcDbEntity
  8
0
 62
           2
100
AcDbTrace
 10
43136.53833629952
 20
5178.056204456485
 11
43114.59625336829
 21
5178.056204456485
 12
43125.567294833905
 22
5261.389537789818
 13
43125.567294833905
 23
5261.389537789818
  0
MTEXT
  5
162
100
AcDbEntity
  8
0
 62
           1
100
AcDbMText
 10
43058.900628167241
 20
4999.45117591773
 30
0.0
 40
58.333333333333
 41
0.0
 71
           7
 72
           1
  1
M  
  7
CONVERTER_1
 11
0.0
 21
1.0
 31
0.0
  0
ENDBLK
  5
163
100
AcDbEntity
  8
0
100
AcDbBlockEnd
  0
BLOCK
  5
167
100
AcDbEntity
  8
0
100
AcDbBlockBegin
  2
*D38
 70
           1
 10
0.0
 20
0.0
 30
0.0
  3
*D38
  1

  0
LINE
  5
168
100
AcDbEntity
  8
0
  6
CONTINUOUS
 62
           2
100
AcDbLine
 10
43101.68713584981
 20
3001.389537789817
 11
43101.68713584981
 21
4411.389537789815
  0
LINE
  5
169
100
AcDbEntity
  8
0
  6
CONTINUOUS
 62
           2
100
AcDbLine
 10
42952.71846306786
 20
3001.389537789817
 11
43168.353802516482
 21
3001.389537789817
  0
LINE
  5
16A
100
AcDbEntity
  8
0
  6
CONTINUOUS
 62
           2
100
AcDbLine
 10
42779.177226311396
 20
4411.389537789815
 11
43168.353802516482
 21
4411.389537789815
  0
SOLID
  5
16B
100
AcDbEntity
  8
0
 62
           2
100
AcDbTrace
 10
43090.716094384195
 20
3084.722871123151
 11
43112.658177315425
 21
3084.722871123151
 12
43101.68713584981
 22
3001.389537789817
 13
43101.68713584981
 23
3001.389537789817
  0
SOLID
  5
16C
100
AcDbEntity
  8
0
 62
           2
100
AcDbTrace
 10
43112.658177315425
 20
4328.056204456482
 11
43090.716094384195
 21
4328.056204456482
 12
43101.68713584981
 22
4411.389537789815
 13
43101.68713584981
 23
4411.389537789815
  0
MTEXT
  5
16D
100
AcDbEntity
  8
0
 62
           1
100
AcDbMText
 10
43035.020469183146
 20
3667.4811204146
 30
0.0
 40
58.333333333333
 41
0.0
 71
           7
 72
           1
  1
1410
  7
CONVERTER_1
 11
0.0
 21
1.0
 31
0.0
  0
ENDBLK
  5
16E
100
AcDbEntity
  8
0
100
AcDbBlockEnd
  0
BLOCK
  5
172
100
AcDbEntity
  8
0
100
AcDbBlockBegin
  2
*D39
 70
           1
 10
0.0
 20
0.0
 30
0.0
  3
*D39
  1

  0
LINE
  5
173
100
AcDbEntity
  8
0
  6
CONTINUOUS
 62
           2
100
AcDbLine
 10
42537.510559644739
 20
4157.343171597977
 11
42704.177226311404
 21
4157.343171597977
  0
LINE
  5
174
100
AcDbEntity
  8
0
  6
CONTINUOUS
 62
           2
100
AcDbLine
 10
42704.177226311404
 20
4157.343171597977
 11
42779.177226311404
 21
4157.343171597977
  0
LINE
  5
175
100
AcDbEntity
  8
0
  6
CONTINUOUS
 62
           2
100
AcDbLine
 10
42779.177226311404
 20
4157.343171597977
 11
42945.843892978075
 21
4157.343171597977
  0
LINE
  5
176
100
AcDbEntity
  8
0
  6
CONTINUOUS
 62
           2
100
AcDbLine
 10
42704.177226311404
 20
4590.389537789815
 11
42704.177226311404
 21
4090.67650493131
  0
LINE
  5
177
100
AcDbEntity
  8
0
  6
CONTINUOUS
 62
           2
100
AcDbLine
 10
42779.177226311404
 20
4590.389537789815
 11
42779.177226311404
 21
4090.67650493131
  0
SOLID
  5
178
100
AcDbEntity
  8
0
 62
           2
100
AcDbTrace
 10
42862.510559644739
 20
4168.314213063593
 11
42862.510559644739
 21
4146.37213013236
 12
42779.177226311404
 22
4157.343171597977
 13
42779.177226311404
 23
4157.343171597977
  0
SOLID
  5
179
100
AcDbEntity
  8
0
 62
           2
100
AcDbTrace
 10
42620.843892978068
 20
4146.37213013236
 11
42620.843892978068
 21
4168.314213063593
 12
42704.177226311404
 22
4157.343171597977
 13
42704.177226311404
 23
4157.343171597977
  0
TEXT
  5
17A
100
AcDbEntity
  8
0
 62
           1
100
AcDbText
 10
42844.166293809612
 20
4224.009838264643
 40
58.333333333333
  1
75
 41
1.357142857143
  7
CONVERTER_1
100
AcDbText
  0
ENDBLK
  5
17B
100
AcDbEntity
  8
0
100
AcDbBlockEnd
  0
BLOCK
  5
17F
100
AcDbEntity
  8
0
100
AcDbBlockBegin
  2
*D40
 70
           1
 10
0.0
 20
0.0
 30
0.0
  3
*D40
  1

  0
LINE
  5
180
100
AcDbEntity
  8
0
  6
CONTINUOUS
 62
           2
100
AcDbLine
 10
42939.177226311389
 20
4687.919358377197
 11
43105.84389297806
 21
4687.919358377197
  0
LINE
  5
181
100
AcDbEntity
  8
0
  6
CONTINUOUS
 62
           2
100
AcDbLine
 10
42719.177226311382
 20
4687.919358377197
 11
42552.51055964471
 21
4687.919358377197
  0
LINE
  5
182
100
AcDbEntity
  8
0
  6
CONTINUOUS
 62
           2
100
AcDbLine
 10
42719.177226311382
 20
4687.919358377197
 11
42939.177226311389
 21
4687.919358377197
  0
LINE
  5
183
100
AcDbEntity
  8
0
  6
CONTINUOUS
 62
           2
100
AcDbLine
 10
42939.177226311389
 20
4896.389537789818
 11
42939.177226311389
 21
4621.25269171053
  0
LINE
  5
184
100
AcDbEntity
  8
0
  6
CONTINUOUS
 62
           2
100
AcDbLine
 10
42719.177226311382
 20
4896.389537789818
 11
42719.177226311382
 21
4621.25269171053
  0
SOLID
  5
185
100
AcDbEntity
  8
0
 62
           2
100
AcDbTrace
 10
43022.510559644725
 20
4698.890399842813
 11
43022.510559644725
 21
4676.94831691158
 12
42939.177226311389
 22
4687.919358377197
 13
42939.177226311389
 23
4687.919358377197
  0
SOLID
  5
186
100
AcDbEntity
  8
0
 62
           2
100
AcDbTrace
 10
42635.843892978046
 20
4676.94831691158
 11
42635.843892978046
 21
4698.890399842813
 12
42719.177226311382
 22
4687.919358377197
 13
42719.177226311382
 23
4687.919358377197
  0
TEXT
  5
187
100
AcDbEntity
  8
0
 62
           1
100
AcDbText
 10
42757.979468743877
 20
4754.586025043863
 40
58.333333333333
  1
220
 41
1.357142857143
  7
CONVERTER_1
100
AcDbText
  0
ENDBLK
  5
188
100
AcDbEntity
  8
0
100
AcDbBlockEnd
  0
BLOCK
  5
2BE
100
AcDbEntity
  8
0
100
AcDbBlockBegin
  2
*D41
 70
           1
 10
0.0
 20
0.0
 30
0.0
  3
*D41
  1

  0
LINE
  5
2BF
100
AcDbEntity
  8
0
  6
CONTINUOUS
 62
           2
100
AcDbLine
 10
43004.177226311396
 20
464.91858932504
 11
43278.14211540742
 21
464.91858932504
  0
LINE
  5
2C0
100
AcDbEntity
  8
0
  6
CONTINUOUS
 62
           2
100
AcDbLine
 10
42884.177226311411
 20
464.91858932504
 11
43004.177226311396
 21
464.91858932504
  0
LINE
  5
2C1
100
AcDbEntity
  8
0
  6
CONTINUOUS
 62
           2
100
AcDbLine
 10
42717.510559644739
 20
464.91858932504
 11
42884.177226311411
 21
464.91858932504
  0
LINE
  5
2C2
100
AcDbEntity
  8
0
  6
CONTINUOUS
 62
           2
100
AcDbLine
 10
43004.177226311396
 20
1257.269357450717
 11
43004.177226311396
 21
398.251922658373
  0
LINE
  5
2C3
100
AcDbEntity
  8
0
  6
CONTINUOUS
 62
           2
100
AcDbLine
 10
42884.177226311411
 20
1257.269357450717
 11
42884.177226311411
 21
398.251922658373
  0
SOLID
  5
2C4
100
AcDbEntity
  8
0
 62
           2
100
AcDbTrace
 10
43087.510559644732
 20
475.889630790656
 11
43087.510559644732
 21
453.947547859424
 12
43004.177226311396
 22
464.91858932504
 13
43004.177226311396
 23
464.91858932504
  0
SOLID
  5
2C5
100
AcDbEntity
  8
0
 62
           2
100
AcDbTrace
 10
42800.843892978075
 20
453.947547859424
 11
42800.843892978075
 21
475.889630790656
 12
42884.177226311411
 22
464.91858932504
 13
42884.177226311411
 23
464.91858932504
  0
TEXT
  5
2C6
100
AcDbEntity
  8
0
 62
           1
100
AcDbText
 10
43155.64211540742
 20
531.585255991707
 40
58.333333333333
  1
120
 41
1.357142857143
  7
CONVERTER_1
100
AcDbText
  0
ENDBLK
  5
2C7
100
AcDbEntity
  8
0
100
AcDbBlockEnd
  0
BLOCK
  5
2CB
100
AcDbEntity
  8
0
100
AcDbBlockBegin
  2
*D42
 70
           1
 10
0.0
 20
0.0
 30
0.0
  3
*D42
  1

  0
LINE
  5
2CC
100
AcDbEntity
  8
0
  6
CONTINUOUS
 62
           2
100
AcDbLine
 10
38760.970790237101
 20
1365.698611025299
 11
38760.970790237101
 21
1565.698611025298
  0
LINE
  5
2CD
100
AcDbEntity
  8
0
  6
CONTINUOUS
 62
           2
100
AcDbLine
 10
38533.557747503735
 20
1565.698611025298
 11
38827.637456903773
 21
1565.698611025298
  0
LINE
  5
2CE
100
AcDbEntity
  8
0
  6
CONTINUOUS
 62
           2
100
AcDbLine
 10
38533.557747503735
 20
1365.698611025299
 11
38827.637456903773
 21
1365.698611025299
  0
SOLID
  5
2CF
100
AcDbEntity
  8
0
 62
           2
100
AcDbTrace
 10
38769.747623409596
 20
1499.031944358631
 11
38752.193957064606
 21
1499.031944358631
 12
38760.970790237101
 22
1565.698611025298
 13
38760.970790237101
 23
1565.698611025298
  0
SOLID
  5
2D0
100
AcDbEntity
  8
0
 62
           2
100
AcDbTrace
 10
38752.193957064606
 20
1432.365277691966
 11
38769.747623409596
 21
1432.365277691966
 12
38760.970790237101
 22
1365.698611025299
 13
38760.970790237101
 23
1365.698611025299
  0
MTEXT
  5
2D1
100
AcDbEntity
  8
0
 62
           1
100
AcDbMText
 10
38694.304123570437
 20
1412.32510562774
 30
0.0
 40
46.666666666667
 41
0.0
 71
           7
 72
           1
  1
200
  7
CONVERTER_1
 11
0.0
 21
1.0
 31
0.0
  0
ENDBLK
  5
2D2
100
AcDbEntity
  8
0
100
AcDbBlockEnd
  0
BLOCK
  5
2D6
100
AcDbEntity
  8
0
100
AcDbBlockBegin
  2
*D43
 70
           1
 10
0.0
 20
0.0
 30
0.0
  3
*D43
  1

  0
LINE
  5
2D7
100
AcDbEntity
  8
0
  6
CONTINUOUS
 62
           2
100
AcDbLine
 10
40354.177226311411
 20
937.092162846797
 11
40065.978712715507
 21
937.092162846797
  0
LINE
  5
2D8
100
AcDbEntity
  8
0
  6
CONTINUOUS
 62
           2
100
AcDbLine
 10
40354.177226311411
 20
937.092162846797
 11
40404.177226311411
 21
937.092162846797
  0
LINE
  5
2D9
100
AcDbEntity
  8
0
  6
CONTINUOUS
 62
           2
100
AcDbLine
 10
40570.843892978075
 20
937.092162846797
 11
40404.177226311411
 21
937.092162846797
  0
LINE
  5
2DA
100
AcDbEntity
  8
0
  6
CONTINUOUS
 62
           2
100
AcDbLine
 10
40404.177226311411
 20
1269.269357450717
 11
40404.177226311411
 21
870.42549618013
  0
LINE
  5
2DB
100
AcDbEntity
  8
0
  6
CONTINUOUS
 62
           2
100
AcDbLine
 10
40354.177226311411
 20
1269.269357450717
 11
40354.177226311411
 21
870.42549618013
  0
SOLID
  5
2DC
100
AcDbEntity
  8
0
 62
           2
100
AcDbTrace
 10
40270.843892978075
 20
926.12112138118
 11
40270.843892978075
 21
948.063204312413
 12
40354.177226311411
 22
937.092162846797
 13
40354.177226311411
 23
937.092162846797
  0
SOLID
  5
2DD
100
AcDbEntity
  8
0
 62
           2
100
AcDbTrace
 10
40487.510559644747
 20
948.063204312413
 11
40487.510559644747
 21
926.12112138118
 12
40404.177226311411
 22
937.092162846797
 13
40404.177226311411
 23
937.092162846797
  0
TEXT
  5
2DE
100
AcDbEntity
  8
0
 62
           1
100
AcDbText
 10
40065.978712715507
 20
1003.758829513463
 40
58.333333333333
  1
50
 41
1.357142857143
  7
CONVERTER_1
100
AcDbText
  0
ENDBLK
  5
2DF
100
AcDbEntity
  8
0
100
AcDbBlockEnd
  0
BLOCK
  5
2EF
100
AcDbEntity
  8
0
100
AcDbBlockBegin
  2
*D44
 70
           1
 10
0.0
 20
0.0
 30
0.0
  3
*D44
  1

  0
LINE
  5
2F0
100
AcDbEntity
  8
0
  6
CONTINUOUS
 62
           2
100
AcDbLine
 10
40604.177226311418
 20
1860.428265145567
 11
42504.177226311411
 21
1860.428265145567
  0
LINE
  5
2F1
100
AcDbEntity
  8
0
  6
CONTINUOUS
 62
           2
100
AcDbLine
 10
42504.177226311411
 20
1792.269357450717
 11
42504.177226311411
 21
1927.094931812233
  0
LINE
  5
2F2
100
AcDbEntity
  8
0
  6
CONTINUOUS
 62
           2
100
AcDbLine
 10
40604.177226311418
 20
1792.269357450716
 11
40604.177226311418
 21
1927.094931812233
  0
SOLID
  5
2F3
100
AcDbEntity
  8
0
 62
           2
100
AcDbTrace
 10
42420.843892978075
 20
1849.45722367995
 11
42420.843892978075
 21
1871.399306611183
 12
42504.177226311411
 22
1860.428265145567
 13
42504.177226311411
 23
1860.428265145567
  0
SOLID
  5
2F4
100
AcDbEntity
  8
0
 62
           2
100
AcDbTrace
 10
40687.510559644754
 20
1871.399306611183
 11
40687.510559644754
 21
1849.45722367995
 12
40604.177226311418
 22
1860.428265145567
 13
40604.177226311418
 23
1860.428265145567
  0
TEXT
  5
2F5
100
AcDbEntity
  8
0
 62
           1
100
AcDbText
 10
41432.647392958286
 20
1927.094931812233
 40
58.333333333333
  1
DW  
 41
1.357142857143
  7
CONVERTER_1
100
AcDbText
  0
ENDBLK
  5
2F6
100
AcDbEntity
  8
0
100
AcDbBlockEnd
  0
BLOCK
  5
4DD
100
AcDbEntity
  8
0
100
AcDbBlockBegin
  2
*D45
 70
           1
 10
0.0
 20
0.0
 30
0.0
  3
*D45
  1

  0
LINE
  5
4DE
100
AcDbEntity
  8
0
  6
CONTINUOUS
 62
           2
100
AcDbLine
 10
37790.77647852173
 20
6046.389537789819
 11
37790.77647852173
 21
6249.79494435313
  0
LINE
  5
4DF
100
AcDbEntity
  8
0
  6
CONTINUOUS
 62
           2
100
AcDbLine
 10
37790.77647852173
 20
5996.389537789819
 11
37790.77647852173
 21
6046.389537789819
  0
LINE
  5
4E0
100
AcDbEntity
  8
0
  6
CONTINUOUS
 62
           2
100
AcDbLine
 10
37790.77647852173
 20
5829.722871123152
 11
37790.77647852173
 21
5996.389537789819
  0
LINE
  5
4E1
100
AcDbEntity
  8
0
  6
CONTINUOUS
 62
           2
100
AcDbLine
 10
38556.557747503743
 20
6046.389537789819
 11
37724.109811855065
 21
6046.389537789819
  0
LINE
  5
4E2
100
AcDbEntity
  8
0
  6
CONTINUOUS
 62
           2
100
AcDbLine
 10
38537.557747503743
 20
5996.389537789819
 11
37724.109811855065
 21
5996.389537789819
  0
SOLID
  5
4E3
100
AcDbEntity
  8
0
 62
           2
100
AcDbTrace
 10
37779.805437056115
 20
6129.722871123152
 11
37801.747519987344
 21
6129.722871123152
 12
37790.77647852173
 22
6046.389537789819
 13
37790.77647852173
 23
6046.389537789819
  0
SOLID
  5
4E4
100
AcDbEntity
  8
0
 62
           2
100
AcDbTrace
 10
37801.747519987344
 20
5913.056204456486
 11
37779.805437056115
 21
5913.056204456486
 12
37790.77647852173
 22
5996.389537789819
 13
37790.77647852173
 23
5996.389537789819
  0
MTEXT
  5
4E5
100
AcDbEntity
  8
0
 62
           1
100
AcDbMText
 10
37724.109811855065
 20
6162.29494435313
 30
0.0
 40
58.333333333333
 41
0.0
 71
           7
 72
           1
  1
50
  7
CONVERTER_1
 11
0.0
 21
1.0
 31
0.0
  0
ENDBLK
  5
4E6
100
AcDbEntity
  8
0
100
AcDbBlockEnd
  0
BLOCK
  5
4EA
100
AcDbEntity
  8
0
100
AcDbBlockBegin
  2
*D46
 70
           1
 10
0.0
 20
0.0
 30
0.0
  3
*D46
  1

  0
LINE
  5
4EB
100
AcDbEntity
  8
0
  6
CONTINUOUS
 62
           2
100
AcDbLine
 10
38953.859252493297
 20
5261.389537789818
 11
38953.859252493297
 21
5073.625414564155
  0
LINE
  5
4EC
100
AcDbEntity
  8
0
  6
CONTINUOUS
 62
           2
100
AcDbLine
 10
38953.859252493297
 20
5261.389537789818
 11
38953.859252493297
 21
5501.389537789819
  0
LINE
  5
4ED
100
AcDbEntity
  8
0
  6
CONTINUOUS
 62
           2
100
AcDbLine
 10
38537.557747503735
 20
5501.389537789819
 11
39020.525919159969
 21
5501.389537789819
  0
LINE
  5
4EE
100
AcDbEntity
  8
0
  6
CONTINUOUS
 62
           2
100
AcDbLine
 10
38412.557747503735
 20
5261.389537789818
 11
39020.525919159969
 21
5261.389537789818
  0
SOLID
  5
4EF
100
AcDbEntity
  8
0
 62
           2
100
AcDbTrace
 10
38964.830293958912
 20
5418.056204456486
 11
38942.888211027683
 21
5418.056204456486
 12
38953.859252493297
 22
5501.389537789819
 13
38953.859252493297
 23
5501.389537789819
  0
SOLID
  5
4F0
100
AcDbEntity
  8
0
 62
           2
100
AcDbTrace
 10
38942.888211027683
 20
5344.722871123151
 11
38964.830293958912
 21
5344.722871123151
 12
38953.859252493297
 22
5261.389537789818
 13
38953.859252493297
 23
5261.389537789818
  0
MTEXT
  5
4F1
100
AcDbEntity
  8
0
 62
           1
100
AcDbMText
 10
38887.192585826633
 20
5073.625414564155
 30
0.0
 40
58.333333333333
 41
0.0
 71
           7
 72
           1
  1
240
  7
CONVERTER_1
 11
0.0
 21
1.0
 31
0.0
  0
ENDBLK
  5
4F2
100
AcDbEntity
  8
0
100
AcDbBlockEnd
  0
BLOCK
  5
4F6
100
AcDbEntity
  8
0
100
AcDbBlockBegin
  2
*D47
 70
           1
 10
0.0
 20
0.0
 30
0.0
  3
*D47
  1

  0
LINE
  5
4F7
100
AcDbEntity
  8
0
  6
CONTINUOUS
 62
           2
100
AcDbLine
 10
38072.557747503735
 20
4836.242830979187
 11
38537.557747503735
 21
4836.242830979187
  0
LINE
  5
4F8
100
AcDbEntity
  8
0
  6
CONTINUOUS
 62
           2
100
AcDbLine
 10
38537.557747503735
 20
5856.389537789821
 11
38537.557747503735
 21
4769.57616431252
  0
LINE
  5
4F9
100
AcDbEntity
  8
0
  6
CONTINUOUS
 62
           2
100
AcDbLine
 10
38072.557747503735
 20
5301.389537789818
 11
38072.557747503735
 21
4769.57616431252
  0
SOLID
  5
4FA
100
AcDbEntity
  8
0
 62
           2
100
AcDbTrace
 10
38454.2244141704
 20
4825.27178951357
 11
38454.2244141704
 21
4847.213872444803
 12
38537.557747503735
 22
4836.242830979187
 13
38537.557747503735
 23
4836.242830979187
  0
SOLID
  5
4FB
100
AcDbEntity
  8
0
 62
           2
100
AcDbTrace
 10
38155.891080837071
 20
4847.213872444803
 11
38155.891080837071
 21
4825.27178951357
 12
38072.557747503735
 22
4836.242830979187
 13
38072.557747503735
 23
4836.242830979187
  0
TEXT
  5
4FC
100
AcDbEntity
  8
0
 62
           1
100
AcDbText
 10
38137.998659546101
 20
4902.909497645853
 40
58.333333333333
  1
465
 41
1.357142857143
  7
CONVERTER_1
100
AcDbText
  0
ENDBLK
  5
4FD
100
AcDbEntity
  8
0
100
AcDbBlockEnd
  0
BLOCK
  5
501
100
AcDbEntity
  8
0
100
AcDbBlockBegin
  2
*D48
 70
           1
 10
0.0
 20
0.0
 30
0.0
  3
*D48
  1

  0
LINE
  5
502
100
AcDbEntity
  8
0
  6
CONTINUOUS
 62
           2
100
AcDbLine
 10
38537.557747503743
 20
5331.204112403397
 11
38872.667592278412
 21
5331.204112403397
  0
LINE
  5
503
100
AcDbEntity
  8
0
  6
CONTINUOUS
 62
           2
100
AcDbLine
 10
38412.557747503743
 20
5331.204112403397
 11
38537.557747503743
 21
5331.204112403397
  0
LINE
  5
504
100
AcDbEntity
  8
0
  6
CONTINUOUS
 62
           2
100
AcDbLine
 10
38245.891080837078
 20
5331.204112403397
 11
38412.557747503743
 21
5331.204112403397
  0
LINE
  5
505
100
AcDbEntity
  8
0
  6
CONTINUOUS
 62
           2
100
AcDbLine
 10
38537.557747503743
 20
5856.389537789821
 11
38537.557747503743
 21
5264.53744573673
  0
LINE
  5
506
100
AcDbEntity
  8
0
  6
CONTINUOUS
 62
           2
100
AcDbLine
 10
38412.557747503743
 20
5261.389537789818
 11
38412.557747503743
 21
5397.870779070064
  0
SOLID
  5
507
100
AcDbEntity
  8
0
 62
           2
100
AcDbTrace
 10
38620.891080837078
 20
5342.175153869013
 11
38620.891080837078
 21
5320.23307093778
 12
38537.557747503743
 22
5331.204112403397
 13
38537.557747503743
 23
5331.204112403397
  0
SOLID
  5
508
100
AcDbEntity
  8
0
 62
           2
100
AcDbTrace
 10
38329.224414170407
 20
5320.23307093778
 11
38329.224414170407
 21
5342.175153869013
 12
38412.557747503743
 22
5331.204112403397
 13
38412.557747503743
 23
5331.204112403397
  0
TEXT
  5
509
100
AcDbEntity
  8
0
 62
           1
100
AcDbText
 10
38750.167592278412
 20
5397.870779070063
 40
58.333333333333
  1
125
 41
1.357142857143
  7
CONVERTER_1
100
AcDbText
  0
ENDBLK
  5
50A
100
AcDbEntity
  8
0
100
AcDbBlockEnd
  0
BLOCK
  5
50E
100
AcDbEntity
  8
0
100
AcDbBlockBegin
  2
*D49
 70
           1
 10
0.0
 20
0.0
 30
0.0
  3
*D49
  1

  0
LINE
  5
50F
100
AcDbEntity
  8
0
  6
CONTINUOUS
 62
           2
100
AcDbLine
 10
42504.177226311396
 20
6374.691446923577
 11
42969.177226311404
 21
6374.691446923577
  0
LINE
  5
510
100
AcDbEntity
  8
0
  6
CONTINUOUS
 62
           2
100
AcDbLine
 10
42969.177226311404
 20
5871.389537789819
 11
42969.177226311404
 21
6441.358113590244
  0
LINE
  5
511
100
AcDbEntity
  8
0
  6
CONTINUOUS
 62
           2
100
AcDbLine
 10
42504.177226311396
 20
5954.389537789822
 11
42504.177226311396
 21
6441.358113590244
  0
SOLID
  5
512
100
AcDbEntity
  8
0
 62
           2
100
AcDbTrace
 10
42587.510559644732
 20
6385.662488389194
 11
42587.510559644732
 21
6363.720405457961
 12
42504.177226311396
 22
6374.691446923577
 13
42504.177226311396
 23
6374.691446923577
  0
SOLID
  5
513
100
AcDbEntity
  8
0
 62
           2
100
AcDbTrace
 10
42885.843892978068
 20
6363.720405457961
 11
42885.843892978068
 21
6385.662488389194
 12
42969.177226311404
 22
6374.691446923577
 13
42969.177226311404
 23
6374.691446923577
  0
TEXT
  5
514
100
AcDbEntity
  8
0
 62
           1
100
AcDbText
 10
42653.309328067699
 20
6441.358113590243
 40
58.333333333333
  1
465
 41
1.357142857143
  7
CONVERTER_1
100
AcDbText
  0
ENDBLK
  5
515
100
AcDbEntity
  8
0
100
AcDbBlockEnd
  0
BLOCK
  5
519
100
AcDbEntity
  8
0
100
AcDbBlockBegin
  2
*D50
 70
           1
 10
0.0
 20
0.0
 30
0.0
  3
*D50
  1

  0
LINE
  5
51A
100
AcDbEntity
  8
0
  6
CONTINUOUS
 62
           2
100
AcDbLine
 10
42504.177226311404
 20
6155.515368585207
 11
42884.177226311404
 21
6155.515368585207
  0
LINE
  5
51B
100
AcDbEntity
  8
0
  6
CONTINUOUS
 62
           2
100
AcDbLine
 10
42884.177226311404
 20
5486.57457835258
 11
42884.177226311404
 21
6222.182035251874
  0
LINE
  5
51C
100
AcDbEntity
  8
0
  6
CONTINUOUS
 62
           2
100
AcDbLine
 10
42504.177226311404
 20
5954.389537789822
 11
42504.177226311404
 21
6222.182035251874
  0
SOLID
  5
51D
100
AcDbEntity
  8
0
 62
           2
100
AcDbTrace
 10
42800.843892978068
 20
6144.544327119591
 11
42800.843892978068
 21
6166.486410050824
 12
42884.177226311404
 22
6155.515368585207
 13
42884.177226311404
 23
6155.515368585207
  0
SOLID
  5
51E
100
AcDbEntity
  8
0
 62
           2
100
AcDbTrace
 10
42587.510559644739
 20
6166.486410050824
 11
42587.510559644739
 21
6144.544327119591
 12
42504.177226311404
 22
6155.515368585207
 13
42504.177226311404
 23
6155.515368585207
  0
TEXT
  5
51F
100
AcDbEntity
  8
0
 62
           1
100
AcDbText
 10
42624.723361208838
 20
6222.182035251874
 40
58.333333333333
  1
380
 41
1.357142857143
  7
CONVERTER_1
100
AcDbText
  0
ENDBLK
  5
520
100
AcDbEntity
  8
0
100
AcDbBlockEnd
  0
BLOCK
  5
524
100
AcDbEntity
  8
0
100
AcDbBlockBegin
  2
*D51
 70
           1
 10
0.0
 20
0.0
 30
0.0
  3
*D51
  1

  0
LINE
  5
525
100
AcDbEntity
  8
0
  6
CONTINUOUS
 62
           2
100
AcDbLine
 10
40604.177226311411
 20
6157.314930360107
 11
40770.843892978082
 21
6157.314930360107
  0
LINE
  5
526
100
AcDbEntity
  8
0
  6
CONTINUOUS
 62
           2
100
AcDbLine
 10
40379.177226311404
 20
6157.314930360107
 11
40212.510559644739
 21
6157.314930360107
  0
LINE
  5
527
100
AcDbEntity
  8
0
  6
CONTINUOUS
 62
           2
100
AcDbLine
 10
40379.177226311404
 20
6157.314930360107
 11
40604.177226311411
 21
6157.314930360107
  0
LINE
  5
528
100
AcDbEntity
  8
0
  6
CONTINUOUS
 62
           2
100
AcDbLine
 10
40604.177226311411
 20
5954.389537789823
 11
40604.177226311411
 21
6223.981597026774
  0
LINE
  5
529
100
AcDbEntity
  8
0
  6
CONTINUOUS
 62
           2
100
AcDbLine
 10
40379.177226311404
 20
5954.389537789823
 11
40379.177226311404
 21
6223.981597026774
  0
SOLID
  5
52A
100
AcDbEntity
  8
0
 62
           2
100
AcDbTrace
 10
40687.510559644747
 20
6168.285971825723
 11
40687.510559644747
 21
6146.34388889449
 12
40604.177226311411
 22
6157.314930360107
 13
40604.177226311411
 23
6157.314930360107
  0
SOLID
  5
52B
100
AcDbEntity
  8
0
 62
           2
100
AcDbTrace
 10
40295.843892978068
 20
6146.34388889449
 11
40295.843892978068
 21
6168.285971825723
 12
40379.177226311404
 22
6157.314930360107
 13
40379.177226311404
 23
6157.314930360107
  0
TEXT
  5
52C
100
AcDbEntity
  8
0
 62
           1
100
AcDbText
 10
40425.552923356503
 20
6223.981597026773
 40
58.333333333333
  1
225
 41
1.357142857143
  7
CONVERTER_1
100
AcDbText
  0
ENDBLK
  5
52D
100
AcDbEntity
  8
0
100
AcDbBlockEnd
  0
BLOCK
  5
531
100
AcDbEntity
  8
0
100
AcDbBlockBegin
  2
*D52
 70
           1
 10
0.0
 20
0.0
 30
0.0
  3
*D52
  1

  0
LINE
  5
532
100
AcDbEntity
  8
0
  6
CONTINUOUS
 62
           2
100
AcDbLine
 10
40604.177226311411
 20
2613.185632829687
 11
40770.843892978082
 21
2613.185632829687
  0
LINE
  5
533
100
AcDbEntity
  8
0
  6
CONTINUOUS
 62
           2
100
AcDbLine
 10
40404.177226311404
 20
2613.185632829687
 11
40237.510559644732
 21
2613.185632829687
  0
LINE
  5
534
100
AcDbEntity
  8
0
  6
CONTINUOUS
 62
           2
100
AcDbLine
 10
40404.177226311404
 20
2613.185632829687
 11
40604.177226311411
 21
2613.185632829687
  0
LINE
  5
535
100
AcDbEntity
  8
0
  6
CONTINUOUS
 62
           2
100
AcDbLine
 10
40604.177226311411
 20
3001.389537789818
 11
40604.177226311411
 21
2546.51896616302
  0
LINE
  5
536
100
AcDbEntity
  8
0
  6
CONTINUOUS
 62
           2
100
AcDbLine
 10
40404.177226311404
 20
3001.389537789817
 11
40404.177226311404
 21
2546.51896616302
  0
SOLID
  5
537
100
AcDbEntity
  8
0
 62
           2
100
AcDbTrace
 10
40320.843892978068
 20
2602.21459136407
 11
40320.843892978068
 21
2624.156674295303
 12
40404.177226311404
 22
2613.185632829687
 13
40404.177226311404
 23
2613.185632829687
  0
SOLID
  5
538
100
AcDbEntity
  8
0
 62
           2
100
AcDbTrace
 10
40687.510559644747
 20
2624.156674295303
 11
40687.510559644747
 21
2602.21459136407
 12
40604.177226311411
 22
2613.185632829687
 13
40604.177226311411
 23
2613.185632829687
  0
TEXT
  5
539
100
AcDbEntity
  8
0
 62
           1
100
AcDbText
 10
40445.5095144925
 20
2679.852299496354
 40
58.333333333333
  1
200
 41
1.357142857143
  7
CONVERTER_1
100
AcDbText
  0
ENDBLK
  5
53A
100
AcDbEntity
  8
0
100
AcDbBlockEnd
  0
BLOCK
  5
53E
100
AcDbEntity
  8
0
100
AcDbBlockBegin
  2
*D53
 70
           1
 10
0.0
 20
0.0
 30
0.0
  3
*D53
  1

  0
LINE
  5
53F
100
AcDbEntity
  8
0
  6
CONTINUOUS
 62
           2
100
AcDbLine
 10
38042.557747503735
 20
5105.216376041487
 11
38209.2244141704
 21
5105.216376041487
  0
LINE
  5
540
100
AcDbEntity
  8
0
  6
CONTINUOUS
 62
           2
100
AcDbLine
 10
37842.557747503743
 20
5105.216376041487
 11
37675.891080837078
 21
5105.216376041487
  0
LINE
  5
541
100
AcDbEntity
  8
0
  6
CONTINUOUS
 62
           2
100
AcDbLine
 10
37842.557747503743
 20
5105.216376041487
 11
38042.557747503735
 21
5105.216376041487
  0
LINE
  5
542
100
AcDbEntity
  8
0
  6
CONTINUOUS
 62
           2
100
AcDbLine
 10
38042.557747503735
 20
5642.714879787746
 11
38042.557747503735
 21
5038.54970937482
  0
LINE
  5
543
100
AcDbEntity
  8
0
  6
CONTINUOUS
 62
           2
100
AcDbLine
 10
37842.557747503743
 20
5466.08649499208
 11
37842.557747503743
 21
5038.54970937482
  0
SOLID
  5
544
100
AcDbEntity
  8
0
 62
           2
100
AcDbTrace
 10
38125.891080837071
 20
5116.187417507103
 11
38125.891080837071
 21
5094.24533457587
 12
38042.557747503735
 22
5105.216376041487
 13
38042.557747503735
 23
5105.216376041487
  0
SOLID
  5
545
100
AcDbEntity
  8
0
 62
           2
100
AcDbTrace
 10
37759.224414170407
 20
5094.24533457587
 11
37759.224414170407
 21
5116.187417507103
 12
37842.557747503743
 22
5105.216376041487
 13
37842.557747503743
 23
5105.216376041487
  0
TEXT
  5
546
100
AcDbEntity
  8
0
 62
           1
100
AcDbText
 10
37864.9040048147
 20
5171.883042708153
 40
58.333333333333
  1
200
 41
1.357142857143
  7
CONVERTER_1
100
AcDbText
  0
ENDBLK
  5
547
100
AcDbEntity
  8
0
100
AcDbBlockEnd
  0
BLOCK
  5
54B
100
AcDbEntity
  8
0
100
AcDbBlockBegin
  2
*D54
 70
           1
 10
0.0
 20
0.0
 30
0.0
  3
*D54
  1

  0
LINE
  5
54C
100
AcDbEntity
  8
0
  6
CONTINUOUS
 62
           2
100
AcDbLine
 10
42504.177226311396
 20
2598.994018844036
 11
42704.177226311396
 21
2598.994018844036
  0
LINE
  5
54D
100
AcDbEntity
  8
0
  6
CONTINUOUS
 62
           2
100
AcDbLine
 10
42504.177226311396
 20
2598.994018844036
 11
42337.510559644732
 21
2598.994018844036
  0
LINE
  5
54E
100
AcDbEntity
  8
0
  6
CONTINUOUS
 62
           2
100
AcDbLine
 10
42704.177226311396
 20
2598.994018844036
 11
42870.843892978068
 21
2598.994018844036
  0
LINE
  5
54F
100
AcDbEntity
  8
0
  6
CONTINUOUS
 62
           2
100
AcDbLine
 10
42504.177226311396
 20
3001.389537789817
 11
42504.177226311396
 21
2532.32735217737
  0
LINE
  5
550
100
AcDbEntity
  8
0
  6
CONTINUOUS
 62
           2
100
AcDbLine
 10
42704.177226311396
 20
3001.389537789818
 11
42704.177226311396
 21
2532.32735217737
  0
SOLID
  5
551
100
AcDbEntity
  8
0
 62
           2
100
AcDbTrace
 10
42420.84389297806
 20
2588.02297737842
 11
42420.84389297806
 21
2609.965060309653
 12
42504.177226311396
 22
2598.994018844036
 13
42504.177226311396
 23
2598.994018844036
  0
SOLID
  5
552
100
AcDbEntity
  8
0
 62
           2
100
AcDbTrace
 10
42787.510559644732
 20
2609.965060309653
 11
42787.510559644732
 21
2588.02297737842
 12
42704.177226311396
 22
2598.994018844036
 13
42704.177226311396
 23
2598.994018844036
  0
TEXT
  5
553
100
AcDbEntity
  8
0
 62
           1
100
AcDbText
 10
42527.985726237741
 20
2665.660685510703
 40
58.333333333333
  1
200
 41
1.357142857143
  7
CONVERTER_1
100
AcDbText
  0
ENDBLK
  5
554
100
AcDbEntity
  8
0
100
AcDbBlockEnd
  0
BLOCK
  5
558
100
AcDbEntity
  8
0
100
AcDbBlockBegin
  2
*D55
 70
           1
 10
0.0
 20
0.0
 30
0.0
  3
*D55
  1

  0
LINE
  5
559
100
AcDbEntity
  8
0
  6
CONTINUOUS
 62
           2
100
AcDbLine
 10
38042.557747503743
 20
6174.553786446365
 11
38537.557747503735
 21
6174.553786446365
  0
LINE
  5
55A
100
AcDbEntity
  8
0
  6
CONTINUOUS
 62
           2
100
AcDbLine
 10
38042.557747503743
 20
5861.389537789813
 11
38042.557747503743
 21
6241.220453113032
  0
LINE
  5
55B
100
AcDbEntity
  8
0
  6
CONTINUOUS
 62
           2
100
AcDbLine
 10
38537.557747503735
 20
5856.389537789821
 11
38537.557747503735
 21
6241.220453113032
  0
SOLID
  5
55C
100
AcDbEntity
  8
0
 62
           2
100
AcDbTrace
 10
38125.891080837078
 20
6185.524827911981
 11
38125.891080837078
 21
6163.582744980748
 12
38042.557747503743
 22
6174.553786446365
 13
38042.557747503743
 23
6174.553786446365
  0
SOLID
  5
55D
100
AcDbEntity
  8
0
 62
           2
100
AcDbTrace
 10
38454.2244141704
 20
6163.582744980748
 11
38454.2244141704
 21
6185.524827911981
 12
38537.557747503735
 22
6174.553786446365
 13
38537.557747503735
 23
6174.553786446365
  0
TEXT
  5
55E
100
AcDbEntity
  8
0
 62
           1
100
AcDbText
 10
38227.208689189509
 20
6241.220453113031
 40
58.333333333333
  1
495
 41
1.357142857143
  7
CONVERTER_1
100
AcDbText
  0
ENDBLK
  5
55F
100
AcDbEntity
  8
0
100
AcDbBlockEnd
  0
BLOCK
  5
563
100
AcDbEntity
  8
0
100
AcDbBlockBegin
  2
*D56
 70
           1
 10
0.0
 20
0.0
 30
0.0
  3
*D56
  1

  0
LINE
  5
564
100
AcDbEntity
  8
0
  6
CONTINUOUS
 62
           2
100
AcDbLine
 10
39090.710138101909
 20
5501.389537789819
 11
39090.710138101909
 21
5971.38953778982
  0
LINE
  5
565
100
AcDbEntity
  8
0
  6
CONTINUOUS
 62
           2
100
AcDbLine
 10
38531.557747503743
 20
5501.389537789819
 11
39157.376804768581
 21
5501.389537789819
  0
LINE
  5
566
100
AcDbEntity
  8
0
  6
CONTINUOUS
 62
           2
100
AcDbLine
 10
38275.557747503743
 20
5971.38953778982
 11
39157.376804768581
 21
5971.38953778982
  0
SOLID
  5
567
100
AcDbEntity
  8
0
 62
           2
100
AcDbTrace
 10
39101.681179567524
 20
5888.056204456487
 11
39079.739096636295
 21
5888.056204456487
 12
39090.710138101909
 22
5971.38953778982
 13
39090.710138101909
 23
5971.38953778982
  0
SOLID
  5
568
100
AcDbEntity
  8
0
 62
           2
100
AcDbTrace
 10
39079.739096636295
 20
5584.722871123152
 11
39101.681179567524
 21
5584.722871123152
 12
39090.710138101909
 22
5501.389537789819
 13
39090.710138101909
 23
5501.389537789819
  0
MTEXT
  5
569
100
AcDbEntity
  8
0
 62
           1
100
AcDbMText
 10
39024.043471435245
 20
5674.090905154735
 30
0.0
 40
58.333333333333
 41
0.0
 71
           7
 72
           1
  1
470
  7
CONVERTER_1
 11
0.0
 21
1.0
 31
0.0
  0
ENDBLK
  5
56A
100
AcDbEntity
  8
0
100
AcDbBlockEnd
  0
BLOCK
  5
56E
100
AcDbEntity
  8
0
100
AcDbBlockBegin
  2
*D57
 70
           1
 10
0.0
 20
0.0
 30
0.0
  3
*D57
  1

  0
LINE
  5
56F
100
AcDbEntity
  8
0
  6
CONTINUOUS
 62
           2
100
AcDbLine
 10
40404.177226311396
 20
2415.344912342157
 11
42704.177226311396
 21
2415.344912342157
  0
LINE
  5
570
100
AcDbEntity
  8
0
  6
CONTINUOUS
 62
           2
100
AcDbLine
 10
42704.177226311396
 20
3001.389537789818
 11
42704.177226311396
 21
2348.67824567549
  0
LINE
  5
571
100
AcDbEntity
  8
0
  6
CONTINUOUS
 62
           2
100
AcDbLine
 10
40404.177226311396
 20
3001.389537789817
 11
40404.177226311396
 21
2348.67824567549
  0
SOLID
  5
572
100
AcDbEntity
  8
0
 62
           2
100
AcDbTrace
 10
42620.84389297806
 20
2404.37387087654
 11
42620.84389297806
 21
2426.315953807773
 12
42704.177226311396
 22
2415.344912342157
 13
42704.177226311396
 23
2415.344912342157
  0
SOLID
  5
573
100
AcDbEntity
  8
0
 62
           2
100
AcDbTrace
 10
40487.510559644732
 20
2426.315953807773
 11
40487.510559644732
 21
2404.37387087654
 12
40404.177226311396
 22
2415.344912342157
 13
40404.177226311396
 23
2415.344912342157
  0
TEXT
  5
574
100
AcDbEntity
  8
0
 62
           1
100
AcDbText
 10
41262.060033024369
 20
2482.011579008823
 40
58.333333333333
  1
(DW + 400) 
 41
1.357142857143
  7
CONVERTER_1
100
AcDbText
  0
ENDBLK
  5
575
100
AcDbEntity
  8
0
100
AcDbBlockEnd
  0
BLOCK
  5
579
100
AcDbEntity
  8
0
100
AcDbBlockBegin
  2
*D58
 70
           1
 10
0.0
 20
0.0
 30
0.0
  3
*D58
  1

  0
LINE
  5
57A
100
AcDbEntity
  8
0
  6
CONTINUOUS
 62
           2
100
AcDbLine
 10
38277.891080837071
 20
2597.728020607367
 11
38444.557747503743
 21
2597.728020607367
  0
LINE
  5
57B
100
AcDbEntity
  8
0
  6
CONTINUOUS
 62
           2
100
AcDbLine
 10
38444.557747503743
 20
2597.728020607367
 11
38537.557747503743
 21
2597.728020607367
  0
LINE
  5
57C
100
AcDbEntity
  8
0
  6
CONTINUOUS
 62
           2
100
AcDbLine
 10
38537.557747503743
 20
2597.728020607367
 11
38741.35188016537
 21
2597.728020607367
  0
LINE
  5
57D
100
AcDbEntity
  8
0
  6
CONTINUOUS
 62
           2
100
AcDbLine
 10
38444.557747503743
 20
3051.389537789819
 11
38444.557747503743
 21
2531.0613539407
  0
LINE
  5
57E
100
AcDbEntity
  8
0
  6
CONTINUOUS
 62
           2
100
AcDbLine
 10
38537.557747503743
 20
3001.389537789818
 11
38537.557747503743
 21
2531.0613539407
  0
SOLID
  5
57F
100
AcDbEntity
  8
0
 62
           2
100
AcDbTrace
 10
38620.891080837078
 20
2608.699062072983
 11
38620.891080837078
 21
2586.75697914175
 12
38537.557747503743
 22
2597.728020607367
 13
38537.557747503743
 23
2597.728020607367
  0
SOLID
  5
580
100
AcDbEntity
  8
0
 62
           2
100
AcDbTrace
 10
38361.224414170407
 20
2586.75697914175
 11
38361.224414170407
 21
2608.699062072983
 12
38444.557747503743
 22
2597.728020607367
 13
38444.557747503743
 23
2597.728020607367
  0
TEXT
  5
581
100
AcDbEntity
  8
0
 62
           1
100
AcDbText
 10
38653.85188016537
 20
2664.394687274034
 40
58.333333333333
  1
93
 41
1.357142857143
  7
CONVERTER_1
100
AcDbText
  0
ENDBLK
  5
582
100
AcDbEntity
  8
0
100
AcDbBlockEnd
  0
BLOCK
  5
586
100
AcDbEntity
  8
0
100
AcDbBlockBegin
  2
*D59
 70
           1
 10
0.0
 20
0.0
 30
0.0
  3
*D59
  1

  0
LINE
  5
587
100
AcDbEntity
  8
0
  6
CONTINUOUS
 62
           2
100
AcDbLine
 10
39090.195249704841
 20
3001.389537789818
 11
39090.195249704841
 21
5501.389537789819
  0
LINE
  5
588
100
AcDbEntity
  8
0
  6
CONTINUOUS
 62
           2
100
AcDbLine
 10
38537.557747503743
 20
3001.389537789818
 11
39156.861916371512
 21
3001.389537789818
  0
LINE
  5
589
100
AcDbEntity
  8
0
  6
CONTINUOUS
 62
           2
100
AcDbLine
 10
38531.557747503743
 20
5501.389537789819
 11
39156.861916371512
 21
5501.389537789819
  0
SOLID
  5
58A
100
AcDbEntity
  8
0
 62
           2
100
AcDbTrace
 10
39101.166291170455
 20
5418.056204456486
 11
39079.224208239226
 21
5418.056204456486
 12
39090.195249704841
 22
5501.389537789819
 13
39090.195249704841
 23
5501.389537789819
  0
SOLID
  5
58B
100
AcDbEntity
  8
0
 62
           2
100
AcDbTrace
 10
39079.224208239226
 20
3084.722871123152
 11
39101.166291170455
 21
3084.722871123152
 12
39090.195249704841
 22
3001.389537789818
 13
39090.195249704841
 23
3001.389537789818
  0
MTEXT
  5
58C
100
AcDbEntity
  8
0
 62
           1
100
AcDbMText
 10
39023.528583038176
 20
4187.285948854246
 30
0.0
 40
58.333333333333
 41
0.0
 71
           7
 72
           1
  1
DH
  7
CONVERTER_1
 11
0.0
 21
1.0
 31
0.0
  0
ENDBLK
  5
58D
100
AcDbEntity
  8
0
100
AcDbBlockEnd
  0
BLOCK
  5
591
100
AcDbEntity
  8
0
100
AcDbBlockBegin
  2
*D60
 70
           1
 10
0.0
 20
0.0
 30
0.0
  3
*D60
  1

  0
LINE
  5
592
100
AcDbEntity
  8
0
  6
CONTINUOUS
 62
           2
100
AcDbLine
 10
37885.416060825439
 20
5501.389537789817
 11
37885.416060825439
 21
5996.389537789814
  0
LINE
  5
593
100
AcDbEntity
  8
0
  6
CONTINUOUS
 62
           2
100
AcDbLine
 10
38182.557747503743
 20
5501.389537789817
 11
37818.749394158775
 21
5501.389537789817
  0
LINE
  5
594
100
AcDbEntity
  8
0
  6
CONTINUOUS
 62
           2
100
AcDbLine
 10
38177.557747503743
 20
5996.389537789814
 11
37818.749394158775
 21
5996.389537789814
  0
SOLID
  5
595
100
AcDbEntity
  8
0
 62
           2
100
AcDbTrace
 10
37874.445019359824
 20
5584.72287112315
 11
37896.387102291053
 21
5584.72287112315
 12
37885.416060825439
 22
5501.389537789817
 13
37885.416060825439
 23
5501.389537789817
  0
SOLID
  5
596
100
AcDbEntity
  8
0
 62
           2
100
AcDbTrace
 10
37896.387102291053
 20
5913.056204456481
 11
37874.445019359824
 21
5913.056204456481
 12
37885.416060825439
 22
5996.389537789814
 13
37885.416060825439
 23
5996.389537789814
  0
MTEXT
  5
597
100
AcDbEntity
  8
0
 62
           1
100
AcDbMText
 10
37818.749394158775
 20
5592.331578767377
 30
0.0
 40
58.333333333333
 41
0.0
 71
           7
 72
           1
  1
495
  7
CONVERTER_1
 11
0.0
 21
1.0
 31
0.0
  0
ENDBLK
  5
598
100
AcDbEntity
  8
0
100
AcDbBlockEnd
  0
BLOCK
  5
59C
100
AcDbEntity
  8
0
100
AcDbBlockBegin
  2
*D61
 70
           1
 10
0.0
 20
0.0
 30
0.0
  3
*D61
  1

  0
LINE
  5
59D
100
AcDbEntity
  8
0
  6
CONTINUOUS
 62
           2
100
AcDbLine
 10
38537.557747503743
 20
2329.784452542026
 11
38704.224414170407
 21
2329.784452542026
  0
LINE
  5
59E
100
AcDbEntity
  8
0
  6
CONTINUOUS
 62
           2
100
AcDbLine
 10
38327.557747503735
 20
2329.784452542026
 11
38160.891080837071
 21
2329.784452542026
  0
LINE
  5
59F
100
AcDbEntity
  8
0
  6
CONTINUOUS
 62
           2
100
AcDbLine
 10
38327.557747503735
 20
2329.784452542026
 11
38537.557747503743
 21
2329.784452542026
  0
LINE
  5
5A0
100
AcDbEntity
  8
0
  6
CONTINUOUS
 62
           2
100
AcDbLine
 10
38537.557747503743
 20
3001.389537789818
 11
38537.557747503743
 21
2263.11778587536
  0
LINE
  5
5A1
100
AcDbEntity
  8
0
  6
CONTINUOUS
 62
           2
100
AcDbLine
 10
38327.557747503735
 20
3001.389537789818
 11
38327.557747503735
 21
2263.11778587536
  0
SOLID
  5
5A2
100
AcDbEntity
  8
0
 62
           2
100
AcDbTrace
 10
38620.891080837078
 20
2340.755494007643
 11
38620.891080837078
 21
2318.81341107641
 12
38537.557747503743
 22
2329.784452542026
 13
38537.557747503743
 23
2329.784452542026
  0
SOLID
  5
5A3
100
AcDbEntity
  8
0
 62
           2
100
AcDbTrace
 10
38244.2244141704
 20
2318.81341107641
 11
38244.2244141704
 21
2340.755494007643
 12
38327.557747503735
 22
2329.784452542026
 13
38327.557747503735
 23
2329.784452542026
  0
TEXT
  5
5A4
100
AcDbEntity
  8
0
 62
           1
100
AcDbText
 10
38366.747053837302
 20
2396.451119208693
 40
58.333333333333
  1
210
 41
1.357142857143
  7
CONVERTER_1
100
AcDbText
  0
ENDBLK
  5
5A5
100
AcDbEntity
  8
0
100
AcDbBlockEnd
  0
ENDSEC
  0
SECTION
  2
ENTITIES
  0
MTEXT
  5
626
100
AcDbEntity
  8
1
 62
           3
100
AcDbMText
 10
39351.817052032842
 20
1173.064016522862
 30
0.0
 40
66.666666666667
 41
0.0
 71
           7
 72
           1
  1
Montagefreiraum\PExtra fixing space
  7
CONVERTER_2
  0
MTEXT
  5
625
100
AcDbEntity
  8
1
 62
           3
100
AcDbMText
 10
38151.495000239251
 20
6686.94268037085
 30
0.0
 40
66.666666666667
 41
0.0
 71
           7
 72
           1
  1
Montagefreiraum\PExtra fixing space
  7
CONVERTER_2
  0
MTEXT
  5
624
100
AcDbEntity
  8
1
 62
           3
100
AcDbMText
 10
43043.223145660362
 20
876.220421081281
 30
0.0
 40
66.666666666667
 41
0.0
 71
           7
 72
           1
  1
Montagefreiraum\PExtra fixing space
  7
CONVERTER_2
  0
MTEXT
  5
623
100
AcDbEntity
  8
1
 62
           3
100
AcDbMText
 10
37672.875898570972
 20
4589.593732235893
 30
0.0
 40
66.666666666667
 41
0.0
 71
           7
 72
           1
  1
Montagefreiraum\PExtra fixing space
  7
CONVERTER_2
  0
MTEXT
  5
622
100
AcDbEntity
  8
1
 62
           3
100
AcDbMText
 10
39227.576783663717
 20
4811.801136831923
 30
0.0
 40
66.666666666667
 41
0.0
 71
           7
 72
           1
  1
Steuerung /\Pcontrol unit
  7
CONVERTER_2
  0
MTEXT
  5
621
100
AcDbEntity
  8
1
 62
           3
100
AcDbMText
 10
43118.682966502631
 20
4504.142018064735
 30
0.0
 40
66.666666666667
 41
0.0
 71
           7
 72
           1
  1
Bedieneinheit/\PKeyboard
  7
CONVERTER_2
  0
MTEXT
  5
620
100
AcDbEntity
  8
1
 62
           3
100
AcDbMText
 10
42416.772268955763
 20
6722.39396981231
 30
0.0
 40
66.666666666667
 41
0.0
 71
           7
 72
           1
  1
Steuerung / control system\P- standard:            M = 400\P- with extension box:   M = 560
  7
CONVERTER_2
  0
LINE
  5
61F
100
AcDbEntity
  8
1
  6
CONTINUOUS
 62
           2
100
AcDbLine
 10
43069.16440628389
 20
4548.60280141668
 11
42793.101228345302
 21
4493.39016582895
  0
LINE
  5
61E
100
AcDbEntity
  8
1
  6
CONTINUOUS
 62
           2
100
AcDbLine
 10
43299.643437122992
 20
826.924940286528
 11
43203.9005444172
 21
677.99155163306
  0
LINE
  5
61D
100
AcDbEntity
  8
1
  6
CONTINUOUS
 62
           2
100
AcDbLine
 10
37721.157076458403
 20
6296.422250719841
 11
38041.753737566512
 21
6660.489645537506
  0
LINE
  5
61C
100
AcDbEntity
  8
1
  6
CONTINUOUS
 62
           2
100
AcDbLine
 10
39853.236670545033
 20
1114.828686606818
 11
40024.687829274902
 21
1079.985020773604
  0
LINE
  5
61B
100
AcDbEntity
  8
1
  6
CONTINUOUS
 62
           3
100
AcDbLine
 10
38487.557747503721
 20
5056.715103659501
 11
39187.326015142302
 21
4861.95858785411
  0
LINE
  5
61A
100
AcDbEntity
  8
1
  6
CONTINUOUS
 62
           2
100
AcDbLine
 10
37816.988227940412
 20
4810.288599562722
 11
37944.098904585313
 21
5103.195810961981
  0
LINE
  5
619
100
AcDbEntity
  8
1
  6
CONTINUOUS
 62
           2
100
AcDbLine
 10
43140.869520503591
 20
5338.814399551062
 11
43375.465326004109
 21
6584.644123353979
  0
INSERT
  5
7C
100
AcDbEntity
  8
0
100
AcDbBlockReference
  2
_2
 10
30121.05774750375
 20
515.698611025298
  0
INSERT
  5
7D
100
AcDbEntity
  8
0
100
AcDbBlockReference
  2
_SCHALTKASTEN_VA__2
 10
10428.540802781101
 20
5781.122806826084
  0
INSERT
  5
7E
100
AcDbEntity
  8
0
100
AcDbBlockReference
  2
STURZABDICHTUNG_SA
 10
-1398.952073997285
 20
1207.000000000002
  0
INSERT
  5
7F
100
AcDbEntity
  8
0
100
AcDbBlockReference
  2
DRAUFSICHT_PRINZIPZG
 10
16970.0
 20
20430.940657297469
  0
INSERT
  5
80
100
AcDbEntity
  8
0
100
AcDbBlockReference
  2
VORLAGE__3
 10
61621.223629239365
 20
52578.401316191099
 41
33.333333333343
 42
33.333333333328
  0
INSERT
  5
81
100
AcDbEntity
  8
0
100
AcDbBlockReference
  2
8300R0001
 10
17361.029991788379
 20
20946.93715083797
  0
INSERT
  5
82
100
AcDbEntity
  8
0
100
AcDbBlockReference
  2
_1
 10
36166.880550870701
 20
-5290.39382684306
  0
INSERT
  5
83
100
AcDbEntity
  8
0
100
AcDbBlockReference
  2
ANTRIEB_SA
 10
16776.19413407821
 20
19227.437150838039
  0
ENDSEC
  0
SECTION
  2
OBJECTS
  0
DICTIONARY
  5
19
100
AcDbDictionary
  3
ACAD_GROUP
350
1A
  3
ACAD_MLINESTYLE
350
1B
  0
DICTIONARY
  5
1A
102
{ACAD_REACTORS
330
19
102
}
100
AcDbDictionary
  0
DICTIONARY
  5
1B
102
{ACAD_REACTORS
330
19
102
}
100
AcDbDictionary
  3
STANDARD
350
1C
  0
MLINESTYLE
  5
1C
102
{ACAD_REACTORS
330
1B
102
}
100
AcDbMlineStyle
  2
STANDARD
 70
           0
  3

 62
           0
 51
90.0
 52
90.0
 71
           2
 49
0.5
 62
         256
  6
BYLAYER
 49
-0.5
 62
         256
  6
BYLAYER
  0
ENDSEC
  0
EOF
